#TITLE:break through the clouds;
#SUBTITLE:;
#ARTIST:Tomoyuki Uchida;
#TITLETRANSLIT:;
#SUBTITLETRANSLIT:;
#ARTISTTRANSLIT:;
#GENRE:;
#CREDIT:;
#BANNER:break through the clouds.png;
#BACKGROUND:break through the clouds-bg.png;
#LYRICSPATH:;
#CDTITLE:;
#MUSIC:break through the clouds.ogg;
#OFFSET:0.840000;
#SAMPLESTART:84.960220;
#SAMPLELENGTH:12.000000;
#SELECTABLE:YES;
#BPMS:0.000000=150.000000
;
#STOPS:179.750000=0.800000
;
#BGCHANGES:;
#KEYSOUNDS:;
#ATTACKS:;

//---------------dance-single - ----------------
#NOTES:
     dance-single:
     :
     Hard:
     14:
     0.583297,0.691340,0.032277,0.137179,0.540645,506.000000,502.000000,4.000000,17.000000,0.000000,0.000000,0.583297,0.691340,0.032277,0.137179,0.540645,506.000000,502.000000,4.000000,17.000000,0.000000,0.000000:
// measure 0
0000
0000
0000
0000
,  // measure 1
0000
0000
0000
0000
,  // measure 2
0000
0000
0000
0000
,  // measure 3
0000
0000
0000
0000
,  // measure 4
0000
0000
0000
0000
,  // measure 5
0000
0000
0000
0000
,  // measure 6
0000
0000
0000
0000
,  // measure 7
0000
0000
0000
0000
,  // measure 8
0000
0000
0000
0000
0000
0001
1000
0100
,  // measure 9
0010
0000
1000
0001
0000
0001
1000
0000
0000
0000
0001
0000
0010
0000
0100
0000
,  // measure 10
0010
0000
1000
0010
0000
0010
1000
0000
0000
0000
0001
0000
0100
0000
0010
0000
,  // measure 11
0000
0000
1000
0010
0000
0010
1000
0000
0000
0000
0001
0000
0010
0000
0001
0000
,  // measure 12
0100
0000
0000
0100
0010
0000
0000
0010
1000
0000
0000
1000
0001
0000
0000
0001
,  // measure 13
0010
0000
0001
0010
0000
0010
0001
0000
0000
0000
1000
0000
0100
0000
0010
0000
,  // measure 14
0000
0000
0100
0001
0000
0001
0100
0000
0000
0000
0010
0000
0100
0000
1000
0000
,  // measure 15
0000
0000
0001
0100
0000
0100
0001
0000
0000
0000
1000
0000
0001
0000
0010
0001
,  // measure 16
0010
0000
0000
0010
0001
0000
0000
0001
1000
0000
0000
1000
0010
0000
0000
0010
,  // measure 17
0200
0000
0000
0000
0001
0000
0000
0000
0001
0000
0000
0000
0301
0000
1000
0010
,  // measure 18
2000
0001
0001
3001
,  // measure 19
0010
0000
0001
0000
0001
0000
0001
0000
0001
0000
1000
0001
0000
1000
0001
0000
,  // measure 20
0100
0000
0010
0100
0000
0010
0100
0000
0000
0000
0001
0000
0010
0000
0100
0000
,  // measure 21
0000
0000
1000
0000
0100
0000
0010
0000
0001
0000
1000
0010
0000
0000
1000
0001
,  // measure 22
1000
0000
0001
0010
0000
0010
0001
0000
0000
0000
1000
0000
0100
0000
0010
0000
,  // measure 23
0000
0000
1000
0000
1000
0000
1000
0000
1000
0000
0001
1000
0000
1000
0001
0000
,  // measure 24
0100
0000
0010
0100
0000
0100
0010
0000
0000
0000
1000
0000
0001
0000
0010
0000
,  // measure 25
0000
0000
0001
0000
0100
0000
1000
0000
0000
0000
0001
0000
0100
0000
0010
1000
,  // measure 26
0010
0000
0000
0010
0000
0000
1000
0001
2000
0000
0000
0000
3010
0000
0000
0000
,  // measure 27
0100
0000
0010
0000
0010
0000
0010
0000
0010
0000
1000
0010
0000
0010
1000
0000
,  // measure 28
0001
0000
0100
0001
0000
0100
0001
0000
0000
0000
1000
0000
0001
0000
0010
0000
,  // measure 29
0000
0000
0010
0000
0001
0000
0100
0000
0010
0000
1000
0001
0000
0001
1000
0000
,  // measure 30
0010
0000
0000
0000
0000
0000
0001
0100
0001
0000
0000
1000
0000
0000
0010
0000
,  // measure 31
0100
0000
0001
0100
0000
0100
0001
0000
1000
0000
0010
0100
0000
0100
0010
0000
,  // measure 32
1000
0000
0001
0010
0000
0010
0100
0000
0010
0000
0000
0000
0001
0000
1000
0010
,  // measure 33
1000
0000
0001
0010
0000
0010
0001
0000
1000
0000
0010
0100
0000
0100
0001
0000
,  // measure 34
2000
0000
0000
0000
3001
0000
0100
0010
0200
0000
0000
0000
0300
0000
0000
0000
,  // measure 35
1001
0000
0011
1100
,  // measure 36
0010
0000
0100
0010
0000
0100
0010
0000
0000
0000
1000
0000
0001
0010
0001
0000
,  // measure 37
1000
0000
0010
1000
0000
0010
1000
0000
0000
0000
0010
0000
0100
0001
0100
0000
,  // measure 38
0001
0000
1000
0010
0000
1000
0010
0000
0000
0000
0100
0000
0001
0010
0001
0000
,  // measure 39
1000
0000
0010
1000
0000
0010
1000
0000
0000
0000
0001
0000
1000
0000
0100
0000
,  // measure 40
0010
0000
0001
0100
0000
0100
0001
0000
1000
0000
0010
0100
0000
0100
0010
0000
,  // measure 41
1000
0000
0001
0010
0000
0100
0000
0000
1000
0000
0000
0000
0001
0000
0100
0010
,  // measure 42
0100
0000
0000
0000
0001
0000
1000
0000
0010
0000
1000
0010
0000
0010
1000
0000
,  // measure 43
0001
0000
0100
0001
0000
0000
0100
0010
0100
0000
0001
0000
0010
0000
0001
0100
,  // measure 44
0010
0000
0100
0010
0000
0000
1000
0001
0100
0000
0100
0000
0100
0000
0010
0000
,  // measure 45
0000
0000
0000
0000
1001
0000
0000
0000
0001
0000
0100
0010
0000
0010
0100
0000
,  // measure 46
0001
0000
1000
0000
0100
0000
0010
0000
0001
0000
0100
0010
0000
0010
1000
0000
,  // measure 47
0001
0000
0100
0000
0010
0000
1000
0000
0001
0000
0010
0001
0000
0001
0010
0000
,  // measure 48
0001
0000
0100
0000
0010
0000
1000
0000
0001
0000
0100
0001
0100
0000
0001
0010
,  // measure 49
0001
0000
1000
0010
1000
0000
0010
0100
0010
0000
1000
0010
0000
0010
1000
0000
,  // measure 50
0001
0000
0010
0000
0100
0000
0010
0000
0001
0000
1000
0001
0000
0001
1000
0000
,  // measure 51
0000
0000
0001
0000
0100
0000
0010
0000
0000
0000
1000
0001
0000
0001
1000
0000
,  // measure 52
0000
0000
0001
0000
0100
0000
0010
0000
0000
0000
0100
0000
0010
0100
0010
0000
,  // measure 53
0000
0000
1000
0000
0001
0000
0100
0000
0010
0000
0100
0010
0000
0010
0100
0000
,  // measure 54
0000
0000
0001
0000
1000
0000
0010
0000
0100
0000
0010
1000
0000
1000
0010
0000
,  // measure 55
0000
0000
0100
0000
0001
0000
1000
0000
0010
0000
1000
0010
0000
0010
1000
0000
,  // measure 56
0000
0000
0001
0000
0010
0000
0100
0000
1000
0000
0010
1000
0010
0000
0100
0001
,  // measure 57
0100
0000
0001
1000
0001
0000
1000
0000
0010
0000
0100
0001
0000
0001
0010
0000
,  // measure 58
0001
0000
1000
0000
0100
0000
0010
0000
0000
0000
0001
0100
0000
0100
0001
0000
,  // measure 59
0000
0000
1000
0000
0100
0000
0010
0000
0000
0000
0001
0100
0000
0100
0001
0000
,  // measure 60
0000
0000
1000
0000
0100
0000
0010
0001
0010
0000
0001
0000
0100
0000
0010
1000
,  // measure 61
0010
0100
0001
1000
0002
0000
0010
0000
,  // measure 62
0100
0000
1003
0010
0200
0000
0001
0000
,  // measure 63
0010
0000
0301
1000
0020
0000
1000
0000
,  // measure 64
0100
0000
1030
0001
2000
0000
0100
0000
,  // measure 65
0010
0000
0000
0000
3001
0000
0000
0000
0020
0000
0000
0000
0030
0000
0100
0010
,  // measure 66
1000
0000
0000
0000
0001
0000
0000
0000
0200
0000
0000
0000
0300
0000
0010
0100
,  // measure 67
0001
0000
0000
0000
1000
0000
0000
0000
0020
0000
0000
0000
0030
0000
1000
0001
,  // measure 68
2000
0000
0000
0000
3000
0000
0001
0100
0001
0000
0010
0001
0010
0000
1000
0010
,  // measure 69
1000
0000
0001
0100
0001
0000
0100
0010
0200
0000
0000
0001
0000
0000
0301
1000
,  // measure 70
0001
1000
0010
0000
1000
0000
0100
0000
0020
0000
0000
0001
0000
0000
0031
0100
,  // measure 71
0001
0100
0010
0000
1000
0000
0100
0000
0010
0000
0001
0000
0010
0000
0100
0000
,  // measure 72
1000
0001
1000
0001
0100
0010
0100
0020
0200
0000
0000
0000
0000
0000
0000
0000
,  // measure 73
0000
0000
0000
0000
,  // measure 74
0000
0000
0330
0000
;

//---------------dance-double - ----------------
#NOTES:
     dance-double:
     :
     Hard:
     14:
     0.544104,0.661282,0.104901,0.064555,0.435744,472.000000,459.000000,13.000000,8.000000,0.000000,0.000000,0.544104,0.661282,0.104901,0.064555,0.435744,472.000000,459.000000,13.000000,8.000000,0.000000,0.000000:
00000000
00000000
00000000
00000000
,
00000000
00000000
00000000
00000000
,
00000000
00000000
00000000
00000000
,
00000000
00000000
00000000
00000000
,
00000000
00000000
00000000
00000000
,
00000000
00000000
00000000
00000000
,
00000000
00000000
00000000
00000000
,
00000000
00000000
00000000
00000000
,
00000000
00000000
00000000
00000000
00000000
00100000
00001000
00010000
,
00001000
00000000
00000000
00010000
00000000
00000000
00000010
00000000
00000000
00000000
00001000
00000000
00000100
00000000
00000010
00000000
,
00000001
00000000
00000000
00001000
00000000
00000000
00000100
00000000
00000000
00000000
00010000
00000000
00001000
00000000
01000000
00000000
,
00100000
00000000
00000000
10000000
00000000
00000000
10000000
00000000
00000000
00000000
01000000
00000000
00100000
00000000
00010000
00000000
,
01000000
00000000
00000000
01000000
00100000
00000000
00000000
00100000
10000000
00000000
00000000
10000000
00010000
00000000
00000000
00010000
,
00100000
00000000
00000000
00001000
00000000
00000000
00010000
00000000
00000000
00000000
00000010
00000000
00001000
00000000
00000001
00000000
,
00000000
00000000
00000010
00000001
00000000
00000001
00000010
00000000
00000000
00000000
00000001
00000000
00000100
00000000
00000010
00000000
,
00001000
00000000
00000000
00000100
00000000
00000000
00010000
00000000
00000000
00000000
00001000
00000000
00000000
00000000
00010000
00001000
,
00010000
00001100
00000011
00000110
,
00000001
00000010
00000100
00000000
00010000
00001000
01000000
00000000
,
00100000
10000000
01000000
00000000
00100000
00001000
00010000
00000000
,
00000100
00000000
00001000
00000000
00000010
00000000
00000010
00000000
00000010
00000000
00000100
00000010
00000000
00000000
00001000
00000000
,
00000001
00000000
00000010
00000001
00000000
00000001
00000010
00000000
00000000
00000000
00000100
00000000
00001000
00000000
00000100
00000000
,
00000000
00000000
00010000
00000000
00010000
00000000
00010000
00000000
00010000
00000000
00001000
00100000
00000000
00000000
00010000
00000000
,
01000000
00000000
00100000
01000000
00000000
00000000
00010000
00000000
00000000
00000000
10000000
00000000
01000000
00000000
00100000
00000000
,
00000000
00000000
00001000
00000000
00010000
00000000
00000010
00000000
00001000
00000000
00000010
00000100
00000000
00000100
00000010
00000000
,
00001000
00000000
00000000
00000100
00000000
00000000
00000001
00000000
00000000
00000000
00001000
00000000
00000100
00000000
00010000
00000000
,
00000000
00000000
00001000
00000000
01000000
00000000
00010000
00000000
10000000
00000000
00100000
00000000
01000000
00000000
00010000
01000000
,
00010000
00000000
00000000
00010000
00000000
00000000
00100000
00010000
00100000
00000000
00001000
00000000
00010000
00000000
00000010
00000000
,
00001000
00000000
00000001
00000000
00000001
00000000
00000001
00000000
00000001
00000000
00001000
00000100
00000000
00000100
00001000
00000000
,
00000100
00000000
00010000
00001000
00000000
00001000
00010000
00000000
00001000
00000000
00100000
00000000
00010000
00000000
00010000
00000000
,
10000000
00000000
00100000
00000000
00100000
00000000
00100000
00000000
00100000
00000000
10000000
00010000
00000000
10000000
00010000
00000000
,
10000000
00000000
00000000
00000000
00010000
00000000
00100000
00010000
00100000
00000000
00000000
00001000
00000000
00000000
00010000
00000000
,
00000100
00000000
00000000
00001000
00000000
00000000
00000001
00000000
00001000
00000000
00000000
00000010
00000000
00000000
00010000
00000000
,
00001000
00000000
00100000
00010000
00000000
00000000
01000000
00000000
00100000
00000000
00000000
00000000
10000000
00000000
01000000
00100000
,
00010000
00000000
00000000
00100000
00000000
00000000
00001000
00000000
00010000
00000000
00000000
00000010
00000000
00000000
00000100
00000000
,
00000001
00000000
00000010
00000001
00000000
00000010
00000001
00000000
00001000
00000000
00000100
00000000
00010000
00000000
00001000
00000000
,
00011000
00000000
01100000
10010000
,
00010000
00000000
00100000
00010000
00000000
00010000
01000000
00000000
00000000
00000000
10000000
00000000
01000000
00000000
00100000
00000000
,
00001000
00000000
00010000
00001000
00000000
00001000
00010000
00000000
00000000
00000000
00000100
00000000
00001000
00000000
00000010
00000000
,
00000100
00000000
00000001
00000010
00000000
00000010
00000001
00000000
00000000
00000000
00001000
00000000
00000100
00000000
00010000
00000000
,
00001000
00000000
00010000
00000100
00000000
00000100
00010000
00000000
00000000
00000000
00001000
00000000
01000000
00000000
00100000
00000000
,
10000000
00000000
00010000
00100000
00000000
00100000
00010000
00000000
01000000
00000000
00100000
01000000
00000000
01000000
00100000
00000000
,
10000000
00000000
00010000
00100000
00000000
01000000
00000000
00000000
10000000
00000000
00000000
00000000
00010000
00000000
00100000
00001000
,
00100000
00000000
00000000
00000000
00001000
00000000
00010000
00000000
00000100
00000000
00001000
00000100
00000000
00001000
00000100
00000000
,
00000010
00000000
00000001
00000010
00000000
00000000
00000001
00000100
00000001
00000000
00001000
00000000
00000100
00000000
00010000
00000000
,
00001000
00000000
00010000
00001000
00000000
00000000
00001000
00100000
00001000
00000000
00100000
00000000
00010000
00000000
01000000
00000000
,
00000000
00000000
00000000
00000000
10010000
00000000
00000000
00000000
00100000
00000000
01000000
00100000
00000000
01000000
00100000
00000000
,
00000000
00000000
01000000
00000000
00001000
00000000
00010000
00000000
00000100
00000000
00001000
00000010
00000000
00001000
00000010
00000000
,
00000000
00000000
00001000
00000000
00000100
00000000
00010000
00000000
00001000
00000000
00100000
00001000
00000000
00100000
00001000
00000000
,
00000000
00000000
00100000
00000000
00010000
00000000
01000000
00000000
00100000
00000000
00000000
00100000
10000000
00000000
00000000
10000000
,
01000000
00000000
00000000
01000000
00100000
00000000
00000000
00100000
00001000
00000000
00001000
00100000
00000000
00100000
00010000
00000000
,
00000000
00000000
01000000
00000000
00100000
00000000
10000000
00000000
01000000
00000000
00100000
00010000
00000000
00010000
00100000
00000000
,
00000000
00000000
00001000
00000000
00010000
00000000
00000010
00000000
00000000
00000000
00000100
00000001
00000000
00000001
00000100
00000000
,
00000000
00000000
00000001
00000000
00001000
00000000
00000100
00000000
00010000
00000000
00001000
00010000
00000000
00010000
00001000
00000000
,
00000000
00000000
01000000
00000000
00010000
00000000
10000000
00000000
00100000
00000000
01000000
00010000
00000000
00010000
01000000
00000000
,
00000000
00000000
00001000
00000000
00010000
00000000
00000010
00000000
00000100
00000000
00000001
00001000
00000000
00001000
00000010
00000000
,
00000000
00000000
00001000
00000000
00000100
00000000
00010000
00000000
00000000
00000000
00001000
00100000
00000000
00100000
00010000
00000000
,
00000000
00000000
10000000
00000000
01000000
00000000
00100000
00000000
00010000
00000000
00000000
00010000
01000000
00000000
00000000
01000000
,
00100000
00000000
00000000
00100000
10000000
00000000
00000000
10000000
01000000
00000000
01000000
00100000
00000000
00100000
01000000
00000000
,
00000000
00000000
00010000
00000000
00100000
00000000
00001000
00000000
00000000
00000000
00010000
00000100
00000000
00000100
00010000
00000000
,
00000000
00000000
00000010
00000000
00000100
00000000
00000001
00000000
00000000
00000000
00001000
00000100
00000000
00000100
00001000
00000000
,
00000000
00000100
00010000
00001000
01000000
00010000
01010000
00000000
,
00100000
10000000
01100000
00000000
20000000
00000000
00010000
00000000
,
00100000
00000000
30010000
01000000
00002000
00000000
00010000
00000000
,
00100000
00000000
00013000
00000100
00002000
00000000
00000001
00000000
,
00000010
00000000
00003001
00000100
00000020
00000000
00001000
00000000
,
00000100
00000000
00000000
00000000
00010030
00000000
00000000
00000000
00011000
00000000
00000000
00000000
00000000
00000000
00001000
00100000
,
00010000
00000000
00000000
00000000
10000000
00000000
00000000
00000000
01000000
00000000
00000000
00000000
00000000
00000000
00100000
00001000
,
00010000
00000000
00000000
00000000
00000010
00000000
00000000
00000000
00001000
00000000
00000000
00000000
00000000
00000000
00000001
00000100
,
00000010
00000000
00000000
00000000
00000000
00000000
00001000
00000100
00010000
00000000
00000000
00000000
00011000
00000000
00000000
00000000
,
01010000
00000000
00000000
00000000
01100000
00000000
00000000
00000000
20000000
00000000
00000000
00010000
00000000
00000000
30010000
10000000
,
00010000
10000000
00100000
00000000
01000000
00000000
00001000
00000000
00020000
00000000
00000000
00000010
00000000
00000000
00030010
00001000
,
00000010
00001000
00000001
00000000
00001000
00000000
00000100
00000000
00000010
00000000
00000001
00000000
00001000
00000000
00000100
00000000
,
00010000
00001000
00010000
00001000
00010000
00001000
00010000
00002000
00020000
00000000
00000000
00000000
00000000
00000000
00000000
00000000
,
00000000
00000000
00000000
00000000
,
00000000
00000000
00033000
00000000
;

//---------------dance-double - ----------------
#NOTES:
     dance-double:
     :
     Easy:
     5:
     0.221330,0.300583,0.088763,0.225941,0.000000,192.000000,181.000000,11.000000,28.000000,0.000000,0.000000,0.221330,0.300583,0.088763,0.225941,0.000000,192.000000,181.000000,11.000000,28.000000,0.000000,0.000000:
00000000
00000000
00000000
00000000
,
00000000
00000000
00000000
00000000
,
00000000
00000000
00000000
00000000
,
00000000
00000000
00000000
00000000
,
00000000
00000000
00000000
00000000
,
00000000
00000000
00000000
00000000
,
00000000
00000000
00000000
00000000
,
00000000
00000000
00000000
00000000
,
00000000
00000000
00000000
00000000
,
00100000
00000000
00010000
00000000
,
01000000
00000000
10000000
00000000
,
00010000
00000000
00100000
00000000
,
00001000
00000000
00010000
00000000
,
00000100
00000000
00001000
00000000
,
00000010
00000000
00000001
00000000
,
00000200
00000000
00000300
00000000
,
00010000
00001000
00010000
00001000
,
00020000
00000000
00000000
00000000
,
00032000
00000000
00000000
00003000
,
00000000
00001000
00001000
00001000
,
00010000
00010000
00010000
00000000
,
00001000
00000000
00100000
00000000
,
00010000
01000000
10000000
00000000
,
00100000
00000000
00001000
00000000
,
00010000
00001000
00000100
00000000
,
00000020
00000030
00000200
00000300
,
00000001
00000100
00001000
00000000
,
00000010
00000010
00000010
00000010
,
00001000
00000100
00000010
00000001
,
00001000
00001000
00000100
00010000
,
00001000
00001000
00100000
00010000
,
01000000
01000000
00100000
00100000
,
10000000
00010000
01100000
00000000
,
00010000
00100000
00001000
00010000
,
00002000
00003000
00011000
00000000
,
00011000
00000000
00010000
00000100
,
00001000
00001000
00000010
00000001
,
00001000
00001000
00000100
00000001
,
00000001
00000100
00001000
00001000
,
00010000
00100000
10000000
10000000
,
01000000
00100000
00002000
00003000
,
00010000
00000100
00002000
00003000
,
00000001
00000010
00000100
00001000
,
00000010
00000010
00001001
00000000
,
00000100
00000100
00001001
00000000
,
00000000
00011000
00100000
00100000
,
00010000
01000000
00100000
00100000
,
10000000
01000000
00010000
00000000
,
00001000
00000000
00000100
00000001
,
00000010
00001000
00000100
00000100
,
00010000
00001000
01000000
01000000
,
00010000
10000000
00100000
00100000
,
00001000
00010000
00000010
00000010
,
00002002
00003003
00000010
00001000
,
00002200
00003300
00000010
00000001
,
00000202
00000303
00000010
00000010
,
00001000
00001000
00000100
00010000
,
00001000
01000000
00200000
00300000
,
02000000
03000000
00020000
00030000
,
20000000
30000000
00010000
00100000
,
01000000
10000000
00100000
00100000
,
01000000
01000000
20000000
30000000
,
00100000
00000000
00002000
00003000
,
00010000
00000000
00000020
00000030
,
00001000
00000000
00000002
00000003
,
00001000
00000000
00000010
00000000
,
00001000
00000000
00000100
00000000
,
00000001
00000000
00000010
00000000
,
00000000
00000000
00010000
00001000
,
00010000
00001000
00020000
00000000
,
00030000
00000000
00002000
00000000
,
00003000
00000000
00022000
00000000
,
00033000
00000000
00022000
00000000
,
00000000
00000000
00000000
00000000
,
00000000
00000000
00033000
00000000
;

//---------------dance-double - ----------------
#NOTES:
     dance-double:
     :
     Medium:
     8:
     0.341217,0.420816,0.217872,0.121040,0.100867,296.000000,269.000000,27.000000,15.000000,0.000000,0.000000,0.341217,0.420816,0.217872,0.121040,0.100867,296.000000,269.000000,27.000000,15.000000,0.000000,0.000000:
00000000
00000000
00000000
00000000
,
00000000
00000000
00000000
00000000
,
00000000
00000000
00000000
00000000
,
00000000
00000000
00000000
00000000
,
00000000
00000000
00000000
00000000
,
00000000
00000000
00000000
00000000
,
00000000
00000000
00000000
00000000
,
00000000
00000000
00000000
00000000
,
00000000
00000000
00000000
00000000
,
00100000
00000000
00000000
00100000
00000000
00000000
00100000
00000000
00000000
00000000
00000000
00000000
00001000
00000000
00000000
00000000
,
00010000
00000000
00000000
00010000
00000000
00000000
00010000
00000000
00000000
00000000
00000000
00000000
00000100
00000000
00000000
00000000
,
00001000
00000000
00000000
00001000
00000000
00000000
00001000
00000000
00000000
00000000
00000000
00000000
00000010
00000000
00000000
00000000
,
00000100
00000001
00001000
00000100
,
00010000
00000000
00000000
00010000
00000000
00000000
00010000
00000000
00000000
00000000
00000000
00000000
00001000
00000000
00000000
00000000
,
00100000
00000000
00010000
00000000
,
01000000
00000000
00100000
00000000
10000000
00010000
10000000
00000000
,
01100000
01100000
10010000
10010000
,
20000000
00100000
00100000
30100000
,
00020000
00100000
00100000
00130000
,
00000000
01000000
00100000
01000000
00100000
00000000
10000000
00000000
,
01000000
00100000
00010000
00001000
,
00000000
00010000
00001000
00010000
00001000
00000000
00010000
00000000
,
00000010
00000100
00000001
00001000
,
00000000
00000100
00010000
00000100
00010000
00000000
00001000
00000000
,
00100000
00000000
00010000
00000000
01000000
00000000
00100000
01000000
,
00000000
10000000
00010000
10000000
00000000
00010000
00100000
00000000
,
20000000
00000000
30010000
00000000
,
00000000
00000000
00100000
00000000
00001000
00000000
00100000
00000000
00001000
00000000
00000000
00001000
00000000
00000000
00000000
00000000
,
00010000
00000000
00000000
00010000
00000000
00000000
00010000
00000000
00000000
00000000
00000100
00000000
00001000
00000000
00000010
00000000
,
00000000
00000000
00000100
00000000
00000001
00000000
00000100
00000000
00000001
00000000
00000000
00000001
00000000
00000000
00000000
00000000
,
00001000
00000100
00010000
00001000
,
00100000
00000000
00000000
00100000
00000000
00000000
00010000
00000000
01000000
00000000
00000000
00000000
00100000
00000000
00000000
00000000
,
10000000
00000000
00000000
10000000
00000000
00000000
00100000
00000000
01000000
00000000
00000000
00000000
00000000
00000000
00000000
00000000
,
00010000
00100000
00001000
00010000
,
00000100
00000000
00000000
00000100
00000000
00000000
00001000
00000000
00000010
00000000
00000000
00000000
00000000
00000000
00000000
00000000
,
00001001
00000000
00001100
00000011
,
00000001
00000100
00001000
00010000
,
00100000
10000000
01100000
01000000
,
00010000
00100000
10000000
01000000
,
00010000
00100000
00001000
00000000
,
00010000
00000000
00000000
00010000
00000000
00000000
00010000
00000000
00000100
00000000
00000000
00000100
00000000
00000000
00000100
00000000
,
00001000
00000000
00000000
00001000
00000000
00000000
00000000
00000000
00001001
00000000
00000000
00000000
00000000
00000000
00000000
00000000
,
00000001
00000000
00000000
00000001
00000000
00000000
00000000
00000000
00000100
00000000
00000000
00000100
00000000
00000000
00000000
00000000
,
00000010
00001000
00011000
00000000
,
00100000
00010000
00011000
00000000
,
00000000
00000000
00000000
00000000
01100000
00000000
00000000
00000000
00100000
00000000
00000000
00100000
00000000
00000000
00100000
00000000
,
00000000
00000000
10000000
00000000
01000000
00000000
00100000
00000000
00010000
00000000
00000000
00010000
00000000
00000000
00010000
00000000
,
00000000
00000000
00000000
00000000
00100000
00000000
00000000
00000000
00000000
00000000
00000000
00001000
00000000
00000000
00001000
00000000
,
00000000
00010000
00000100
00001000
00000000
00000000
00000010
00000000
,
00000100
00000000
00000000
00000000
00001001
00000000
00000000
00000000
00000010
00000000
00000000
00000010
00000000
00000000
00000010
00000000
,
00000000
00000000
00000000
00000000
00001000
00000000
00000100
00000000
00000000
00000000
00000000
00010000
00000000
00000000
00001000
00000000
,
00000000
00000000
00100000
00000000
00010000
00000000
00000000
00000000
00000000
00000000
00000000
01000000
00000000
00000000
00100000
00000000
,
00000000
01000000
00100000
00000000
02000000
00000000
03000000
00000000
,
00100000
00000000
00000000
00000000
10010000
00000000
00000000
00000000
00100000
00000000
00000000
00100000
00000000
00000000
00100000
00000000
,
00000000
00000000
10000000
00000000
01000000
00000000
00100000
00000000
00010000
00000000
00000000
00010000
00000000
00000000
00010000
00000000
,
00000000
00000000
00100000
00000000
00001000
00000000
00010000
00000000
00000000
00000000
00000000
00000100
00000000
00000000
00000100
00000000
,
00000000
00001000
00000100
00000010
00000001
00000000
00000101
00000000
,
00001100
00000000
00000000
00000000
00000101
00000000
00000000
00000000
00001000
00000000
00000000
00001000
00000000
00000000
00001000
00000000
,
00000000
00000100
00010000
00001000
00000000
00100000
00010000
01000000
,
00100000
00000000
10000000
01000000
00100000
00000000
00010000
00000000
,
00001000
00010000
00001100
00000110
,
00000011
00000110
00000020
00001000
,
00001000
00002030
00000100
00000100
,
00000100
00003200
00010000
00010000
,
00010000
00000000
00000000
00000000
00020000
00000300
00000000
00000000
00001000
00000000
00000000
00000000
00001000
00000000
00000000
00000000
,
00001000
00000000
00031000
00000000
00100000
00000000
00000000
00010000
,
01000000
00000000
00100000
00000000
10000000
00000000
00000000
00010000
,
00100000
01000000
20020000
00000000
,
30030000
00000000
11000000
01100000
,
00110000
01100000
20000000
01000000
,
30100000
00000000
00010000
00100000
00002000
00000000
00010000
00000000
,
00103000
00000000
00001000
00010000
00000200
00000000
00001000
00000000
,
00010300
00000000
00000010
00000100
00002002
00000000
00000000
00000000
,
00000000
00000000
00000000
00000000
,
00000000
00000000
00003003
00000000
;

//---------------dance-single - ----------------
#NOTES:
     dance-single:
     :
     Medium:
     8:
     0.416147,0.510990,0.346981,0.096832,0.157352,361.000000,318.000000,43.000000,12.000000,0.000000,0.000000,0.416147,0.510990,0.346981,0.096832,0.157352,361.000000,318.000000,43.000000,12.000000,0.000000,0.000000:
// measure 0
0000
0000
0000
0000
,  // measure 1
0000
0000
0000
0000
,  // measure 2
0000
0000
0000
0000
,  // measure 3
0000
0000
0000
0000
,  // measure 4
0000
0000
0000
0000
,  // measure 5
0000
0000
0000
0000
,  // measure 6
0000
0000
0000
0000
,  // measure 7
0000
0000
0000
0000
,  // measure 8
0000
0000
0000
0000
,  // measure 9
0100
0000
0000
0100
0000
0000
0100
0000
0000
0000
1000
0000
0001
0000
1000
0000
,  // measure 10
0010
0000
0000
0010
0000
0000
0010
0000
0000
0000
1000
0000
0010
0000
0100
0000
,  // measure 11
0001
0000
0000
0001
0000
0000
0001
0000
0000
0000
0100
0000
0010
0000
1000
0000
,  // measure 12
0001
0101
1100
0101
,  // measure 13
1000
0000
0000
1000
0000
0000
0010
0000
0000
0000
1000
0000
0100
0000
0010
0000
,  // measure 14
0000
0100
0010
0001
0000
0100
0010
1000
,  // measure 15
0001
1100
0010
0101
,  // measure 16
1010
1100
0011
0001
,  // measure 17
2010
0010
0010
3010
,  // measure 18
0102
0100
0100
0103
,  // measure 19
0000
0000
0010
0000
0100
0000
0010
0000
0100
0000
0000
0001
0000
0000
0100
0000
,  // measure 20
0010
0000
0000
1000
0000
0000
0010
0000
0000
0000
1000
0000
0100
0000
0010
0000
,  // measure 21
0000
0000
1000
0000
0001
0000
1000
0000
0010
0000
0000
0010
0000
0000
0010
0000
,  // measure 22
0100
0000
0000
0100
0000
0000
0100
0000
0000
0000
0001
0000
0010
0000
0100
0000
,  // measure 23
0000
0000
0010
0000
0010
0000
0010
0000
0100
0000
0000
0010
0000
0000
0100
0000
,  // measure 24
0010
0000
0000
0010
0000
0000
0010
0000
0000
0000
1000
0000
0001
0000
1000
0000
,  // measure 25
0000
0001
0100
0001
0000
0010
0001
0100
,  // measure 26
0010
0000
0000
0010
0000
0000
0010
0000
0100
0000
0000
0000
1001
0000
0000
0000
,  // measure 27
0000
0000
0100
0000
0010
0000
0100
0000
0010
0000
0000
0010
0000
0000
0010
0000
,  // measure 28
1000
0000
0000
1000
0000
0000
1000
0000
0000
0000
0001
0000
0100
0000
0010
0000
,  // measure 29
0000
0000
0100
0000
0010
0000
0100
0000
0010
0000
0000
0010
0000
0000
0010
0000
,  // measure 30
1000
0000
0000
0000
0000
0000
0001
0000
0100
0000
0000
0100
0000
0000
0100
0000
,  // measure 31
0010
0000
0000
0010
0000
0000
0010
0000
1000
0000
0000
1000
0000
0000
1000
0000
,  // measure 32
0001
0000
0000
0001
0000
0000
0001
0000
0100
0000
0000
0000
0000
0000
0010
0000
,  // measure 33
1000
0000
0000
1000
0000
0000
0010
0000
0100
0000
0000
0000
0110
0000
0000
0000
,  // measure 34
0001
0000
0000
0001
0000
0000
0001
0000
0000
0000
0000
0000
0110
0000
0000
0000
,  // measure 35
1001
0000
1100
0011
,  // measure 36
0100
0000
0000
0100
0000
0000
0100
0000
0000
0000
0001
0000
0100
0000
0001
0000
,  // measure 37
1000
0000
0000
1000
0000
0000
1000
0000
0000
0000
0010
0000
0100
0000
0010
0000
,  // measure 38
1000
0000
0000
1000
0000
0000
1000
0000
0000
0000
0010
0000
0100
0000
0001
0000
,  // measure 39
1000
0000
0000
1000
0000
0000
1000
0000
0000
0000
0000
0000
0001
0000
0100
0000
,  // measure 40
0010
0000
0000
0010
0000
0000
0010
0000
1000
0000
0000
1000
0000
0000
1000
0000
,  // measure 41
0001
0000
0000
0100
0000
0000
0000
0000
1001
0000
0000
0000
0000
0000
0010
0000
,  // measure 42
0100
0000
0000
0000
1001
0000
0000
0000
0001
0000
0000
0001
0000
0000
0001
0000
,  // measure 43
1000
0010
2002
3003
,  // measure 44
0001
0100
2002
3003
,  // measure 45
0000
0000
0000
0000
1001
0000
0000
0000
0001
0000
0000
0001
0000
0000
0100
0000
,  // measure 46
0000
0000
0000
0000
1010
0000
0000
0000
0100
0000
0000
0100
0000
0000
0001
0000
,  // measure 47
0000
0000
1000
0000
0010
0000
1000
0000
0000
0000
0000
0001
0000
0000
0100
0000
,  // measure 48
0000
0001
0100
0001
0000
0000
1100
0000
,  // measure 49
0010
0000
0000
0000
0011
0000
0000
0000
0100
0000
0000
0100
0000
0000
0010
0000
,  // measure 50
0000
1000
0001
1000
0000
0010
0100
0010
,  // measure 51
0000
0000
1000
0000
0100
0000
0010
0000
0000
0000
0000
0001
0000
0000
0001
0000
,  // measure 52
0000
0001
0100
0010
1000
0000
0110
0000
,  // measure 53
1001
0000
0000
0000
0110
0000
0000
0000
1000
0000
0000
1000
0000
0000
1000
0000
,  // measure 54
0000
0000
0001
0000
0010
0000
0100
0000
1000
0000
0000
1000
0000
0000
1000
0000
,  // measure 55
0000
0000
0100
0000
0010
0000
1000
0000
0001
0000
0000
0001
0000
0000
0001
0000
,  // measure 56
0000
0100
0010
1000
1000
0000
0100
0000
,  // measure 57
0110
0000
0000
0000
1001
0000
0000
0000
0001
0000
0000
0001
0000
0000
0001
0000
,  // measure 58
0000
0000
0100
0000
0010
0000
1000
0000
0000
0000
0000
0001
0000
0000
0001
0000
,  // measure 59
0000
0000
1000
0000
0010
0000
0100
0000
0000
0000
0000
0001
0000
0000
0001
0000
,  // measure 60
0000
0010
0101
0110
,  // measure 61
1010
0110
2001
0010
,  // measure 62
0100
0010
3002
0010
,  // measure 63
0100
1000
0203
0010
,  // measure 64
0001
0010
0320
1000
,  // measure 65
0100
0000
0130
0000
1001
0000
0000
0001
,  // measure 66
0010
0000
0100
0000
1000
0000
0000
1000
,  // measure 67
0100
0010
0001
0000
,  // measure 68
1001
0000
0011
0110
,  // measure 69
1100
0000
0110
0000
0011
0000
0100
0010
,  // measure 70
0100
0010
1000
0000
0110
0000
1000
0001
,  // measure 71
1000
0001
0100
0000
0010
0010
1000
1000
,  // measure 72
0001
0100
0010
1000
2002
0000
0000
0000
,  // measure 73
0000
0000
0000
0000
,  // measure 74
0000
0000
3003
0000
;

//---------------dance-single - ----------------
#NOTES:
     dance-single:
     :
     Easy:
     5:
     0.215566,0.300583,0.048416,0.121040,0.000000,187.000000,181.000000,6.000000,15.000000,0.000000,0.000000,0.215566,0.300583,0.048416,0.121040,0.000000,187.000000,181.000000,6.000000,15.000000,0.000000,0.000000:
// measure 0
0000
0000
0000
0000
,  // measure 1
0000
0000
0000
0000
,  // measure 2
0000
0000
0000
0000
,  // measure 3
0000
0000
0000
0000
,  // measure 4
0000
0000
0000
0000
,  // measure 5
0000
0000
0000
0000
,  // measure 6
0000
0000
0000
0000
,  // measure 7
0000
0000
0000
0000
,  // measure 8
0000
0000
0000
0000
,  // measure 9
0010
0000
0000
1000
,  // measure 10
0001
0000
0000
0001
,  // measure 11
1000
0000
0010
0000
,  // measure 12
1000
0100
0010
0001
,  // measure 13
0100
0000
0000
0010
,  // measure 14
0100
0000
0001
0000
,  // measure 15
1000
0000
0010
0000
,  // measure 16
1000
0100
0010
0001
,  // measure 17
0200
0000
0300
0000
,  // measure 18
0020
0000
0030
0000
,  // measure 19
0000
0010
0010
0010
,  // measure 20
1000
0001
1000
0001
,  // measure 21
0000
0100
0100
0100
,  // measure 22
0001
0010
0100
1000
,  // measure 23
0000
0010
0010
0010
,  // measure 24
1000
0001
0010
0100
,  // measure 25
1000
0000
0001
0000
,  // measure 26
1000
0010
0100
0001
,  // measure 27
0000
0100
0100
0100
,  // measure 28
0001
0010
1000
0100
,  // measure 29
0000
0010
0010
0010
,  // measure 30
0001
0100
1000
0010
,  // measure 31
0100
0100
0010
0010
,  // measure 32
1000
0001
0100
0000
,  // measure 33
0010
0010
0100
0100
,  // measure 34
0001
1000
0010
0000
,  // measure 35
1001
0000
1001
1001
,  // measure 36
2000
3000
0001
0100
,  // measure 37
0002
0003
1000
0010
,  // measure 38
2000
3000
0001
0010
,  // measure 39
0002
0003
0100
0010
,  // measure 40
1000
1000
0001
0001
,  // measure 41
0100
0100
0100
0000
,  // measure 42
0001
0001
1000
1000
,  // measure 43
0010
0010
0010
0000
,  // measure 44
0100
0100
0100
0000
,  // measure 45
0000
1001
0001
0010
,  // measure 46
1000
0000
0001
0100
,  // measure 47
1000
0000
0010
0010
,  // measure 48
0100
0100
0001
0010
,  // measure 49
0100
1000
0001
0010
,  // measure 50
0100
0000
1000
0100
,  // measure 51
0010
0000
0001
0000
,  // measure 52
1000
0000
0010
0010
,  // measure 53
0010
0000
1000
0100
,  // measure 54
0001
0000
1000
0010
,  // measure 55
0001
0000
1000
0100
,  // measure 56
0010
0001
0100
0100
,  // measure 57
0010
0010
0001
0010
,  // measure 58
0100
0000
1000
0100
,  // measure 59
0010
0000
0001
0000
,  // measure 60
1000
0000
0010
0100
,  // measure 61
0010
0100
0002
0000
,  // measure 62
0000
0000
2003
0000
,  // measure 63
0000
0000
3020
0000
,  // measure 64
0000
0000
0230
0000
,  // measure 65
0000
0000
0301
0000
,  // measure 66
1000
0100
0010
0000
,  // measure 67
0100
0010
0001
0000
,  // measure 68
1001
0000
0010
0100
,  // measure 69
0010
0100
0002
0000
,  // measure 70
0003
0000
2000
0000
,  // measure 71
3000
0000
0020
0000
,  // measure 72
0030
0000
2002
0000
,  // measure 73
0000
0000
0000
0000
,  // measure 74
0000
0000
3003
0000
;

//---------------dance-single - ----------------
#NOTES:
     dance-single:
     :
     Beginner:
     1:
     0.080693,0.120233,0.008069,0.032277,0.000000,70.000000,69.000000,1.000000,4.000000,0.000000,0.000000,0.080693,0.120233,0.008069,0.032277,0.000000,70.000000,69.000000,1.000000,4.000000,0.000000,0.000000:
// measure 0
0000
0000
0000
0000
,  // measure 1
0000
0000
0000
0000
,  // measure 2
0000
0000
0000
0000
,  // measure 3
0000
0000
0000
0000
,  // measure 4
0000
0000
0000
0000
,  // measure 5
0000
0000
0000
0000
,  // measure 6
0000
0000
0000
0000
,  // measure 7
0000
0000
0000
0000
,  // measure 8
0000
0000
0000
0000
,  // measure 9
0010
0000
0000
0000
,  // measure 10
1000
0000
0000
0000
,  // measure 11
0100
0000
0000
0000
,  // measure 12
0001
0000
0000
0000
,  // measure 13
0010
0000
0000
0000
,  // measure 14
0100
0000
0000
0000
,  // measure 15
0010
0000
0000
0000
,  // measure 16
0100
0000
0100
0000
,  // measure 17
0100
0000
0000
0000
,  // measure 18
0000
0000
0000
0000
,  // measure 19
0001
0000
0000
0000
,  // measure 20
0001
0000
0000
0000
,  // measure 21
1000
0000
0000
0000
,  // measure 22
1000
0000
0000
0000
,  // measure 23
0001
0000
0000
0000
,  // measure 24
1000
0000
0000
0000
,  // measure 25
0010
0000
0000
0000
,  // measure 26
0100
0000
0100
0000
,  // measure 27
0100
0000
0000
0000
,  // measure 28
0100
0000
0000
0000
,  // measure 29
0010
0000
0000
0000
,  // measure 30
0010
0000
0000
0000
,  // measure 31
1000
0000
0000
0000
,  // measure 32
0010
0000
0000
0000
,  // measure 33
0100
0000
0000
0000
,  // measure 34
0001
0000
0000
0000
,  // measure 35
0001
0000
0000
0000
,  // measure 36
1000
0000
0000
0000
,  // measure 37
0100
0000
0000
0000
,  // measure 38
0010
0000
0000
0000
,  // measure 39
0001
0000
0000
0000
,  // measure 40
0010
0000
0010
0000
,  // measure 41
0010
0000
0000
0000
,  // measure 42
0100
0000
0100
0000
,  // measure 43
0100
0000
0000
0000
,  // measure 44
0010
0000
0000
0000
,  // measure 45
0000
0000
1000
0000
,  // measure 46
0000
0000
0001
0000
,  // measure 47
0000
0000
1000
0000
,  // measure 48
0000
0000
0001
0000
,  // measure 49
0001
0000
0001
0000
,  // measure 50
0000
0000
1000
0000
,  // measure 51
0000
0000
0010
0000
,  // measure 52
0000
0000
0100
0000
,  // measure 53
0000
0000
0010
0000
,  // measure 54
0000
0000
0010
0000
,  // measure 55
0000
0000
1000
0000
,  // measure 56
0000
0000
0001
0000
,  // measure 57
0001
0000
0001
0000
,  // measure 58
0000
0000
1000
0000
,  // measure 59
0000
0000
0100
0000
,  // measure 60
0000
0000
0010
0000
,  // measure 61
0010
0000
0020
0000
,  // measure 62
0000
0000
0030
0000
,  // measure 63
0000
0000
0200
0000
,  // measure 64
0000
0000
0300
0000
,  // measure 65
0000
0000
0010
0000
,  // measure 66
0000
0000
0100
0000
,  // measure 67
0000
0000
0001
0000
,  // measure 68
0000
0000
1000
0000
,  // measure 69
1000
0000
1000
0000
,  // measure 70
0000
0000
0001
0000
,  // measure 71
0000
0000
0100
0000
,  // measure 72
0000
0000
2002
0000
,  // measure 73
0000
0000
0000
0000
,  // measure 74
0000
0000
3003
0000
;
