#TITLE:ZENDEGI DANCE;
#SUBTITLE:;
#ARTIST:ARM×BEMANI Sound Team "U1 overground";
#TITLETRANSLIT:;
#SUBTITLETRANSLIT:;
#ARTISTTRANSLIT:;
#GENRE:;
#CREDIT:;
#BANNER:ZENDEGI DANCE.png;
#BACKGROUND:ZENDEGI DANCE-bg.png;
#LYRICSPATH:;
#CDTITLE:;
#MUSIC:ZENDEGI DANCE.ogg;
#OFFSET:0.206000;
#SAMPLESTART:44.440002;
#SAMPLELENGTH:12.000000;
#SELECTABLE:YES;
#BPMS:0.000000=160.000000
;
#STOPS:
;
#BGCHANGES:;
#KEYSOUNDS:;
#ATTACKS:;

//---------------dance-single - ----------------
#NOTES:
     dance-single:
     :
     Hard:
     14:
     0.623223,0.834480,0.265617,0.362205,0.301838,542.000000,509.000000,33.000000,45.000000,0.000000,0.000000,0.623223,0.834480,0.265617,0.362205,0.301838,542.000000,509.000000,33.000000,45.000000,0.000000,0.000000:
0000
0000
0000
0000
,
0000
0000
0000
0000
,
0000
0000
0000
0000
,
0000
0000
0000
0000
,
0000
0000
0000
0000
,
0000
0000
0000
0000
,
0010
0000
0000
0010
0000
0000
0100
0000
0002
0000
0000
0000
0010
0000
0000
0000
,
0100
0000
1003
0001
1000
0010
0100
0100
,
0100
0000
0000
0100
0000
0000
0010
0000
2000
0000
0000
0000
0100
0000
0000
0000
,
0001
0000
3001
1000
0010
0000
0110
0000
,
1000
0000
0000
1000
0000
0000
0000
0000
1000
0000
0100
0000
0010
0000
0001
0000
,
1000
0100
0010
0001
0001
0010
0100
1000
,
0000
0000
0001
0010
0001
0010
0001
0010
0001
0000
0000
0000
1000
0000
0100
0000
,
0010
0000
0001
0000
0100
0010
0100
0010
0200
0000
0000
0000
0300
0000
0000
0000
,
0010
0000
1001
0000
1000
0100
0001
0000
,
1000
0000
0100
0000
0010
0000
0001
0100
0000
0000
0001
0000
0010
0000
0100
0000
,
0010
0000
0010
0000
1000
0000
0001
0000
1000
0010
0000
0010
1000
0000
0001
0000
,
0100
0000
0010
0100
0010
0000
1000
0000
0001
0100
0001
0100
0001
0000
0000
0000
,
2200
0000
3300
0001
1000
0100
0010
0001
,
0100
0000
0000
0100
0010
0000
1000
0000
0100
0000
0010
0000
0011
0000
0000
0000
,
0202
0000
0303
1000
0001
0010
0100
1000
,
0010
0000
0100
0010
0100
0000
0001
0000
1001
0000
0000
0000
0110
0000
0000
0000
,
1000
0000
0001
0000
0100
0010
0100
0010
0100
0000
0001
0000
1000
0000
0010
0000
,
0010
0000
0010
0000
1000
0100
1000
0100
1000
0000
0001
0000
0010
0000
0001
0000
,
0100
0000
0100
0000
0010
0100
0010
0100
0010
0000
1000
0000
0100
0000
0010
0000
,
0001
0000
0001
0000
0100
0010
0100
0010
0100
0000
0001
0000
1000
0000
0010
0000
,
1000
0100
1000
0000
0001
0100
0001
0000
0010
0001
0010
0000
0001
1000
0001
0000
,
0100
0010
0100
0000
0001
0010
0001
0000
1000
0100
1000
0100
1000
0100
1000
0000
,
0020
0000
0000
0030
,
0002
0000
0203
0000
2300
0000
3010
0100
,
1001
0000
1001
0000
0010
0100
1001
0000
,
0010
0000
0001
0000
0100
0000
0010
0100
0000
0000
0001
0000
0010
0000
0100
0000
,
1000
0000
1000
0000
0100
0000
0010
0000
0001
0100
0000
0100
0001
0000
1000
0000
,
0010
0000
0100
0001
0100
0000
0010
0000
1000
0100
1000
0100
1000
0000
0000
0000
,
0202
0000
0000
0000
0303
0000
1000
0000
0001
0010
0001
0000
1000
0100
1000
0000
,
0010
0000
0000
0010
0100
0000
0001
0000
1000
0000
0010
0000
0110
0000
0000
0000
,
2002
0000
3003
0001
1000
0010
0100
0010
,
1000
0000
0001
0010
0001
0000
1000
0000
0020
0000
0000
0000
1030
0000
0100
0000
,
1100
0000
0011
0000
0100
0010
1001
0000
,
0001
0000
0010
0000
0100
0000
0010
0001
0000
0000
0100
0000
0010
0000
1000
0000
,
0001
0000
0001
0000
0100
0000
0010
0000
1000
0100
0000
0100
1000
0000
0001
0000
,
0100
0000
0010
1000
0010
0000
0100
0000
0001
1000
0001
1000
0001
0000
0000
0000
,
0220
0000
0330
0001
0010
0100
0010
0001
,
1000
0000
0000
1000
0010
0000
0100
0000
0001
0000
0100
0000
1001
0000
0000
0000
,
0220
0000
0330
0001
1000
0010
0100
0001
,
2000
3002
0200
0303
,
0020
1000
0100
0130
,
2000
0100
0001
3010
,
0002
0010
0100
1003
,
0020
0100
1030
0101
,
0010
1000
0010
1000
0001
0010
0100
1000
,
0001
0100
0001
0100
1000
0100
0010
0001
,
0100
0010
0100
0010
1000
0001
1000
0100
,
0020
0032
0023
0032
,
0103
0000
0000
0100
0000
0000
0010
0000
1001
0000
0000
0000
1000
0000
0100
0000
,
0010
0001
0010
0100
1000
0000
0110
0000
,
0010
0000
0000
0010
0000
0000
0100
0000
1001
0000
0000
0000
0001
0000
0010
0000
,
0100
1000
0100
0010
0001
0000
0110
0000
,
1000
0000
0000
1000
0000
0000
0001
0000
1000
0000
0100
0000
0010
0000
0001
0000
,
1000
0100
0010
0001
0001
0010
0100
1000
,
0000
0001
0000
0001
0000
1000
0100
0010
,
0001
1000
0000
0000
0100
0000
0010
0000
0001
1000
0000
0000
0010
0000
1000
0000
,
0001
0010
0001
0010
0001
0000
0000
0000
1000
0100
0000
0100
1000
0000
0000
0000
,
0002
2003
3020
0130
,
0220
0000
0330
0001
1000
0100
0010
0001
,
0100
0000
0000
0100
0010
0000
1000
0000
0001
0000
0001
0000
1001
0000
0000
0000
,
0100
0010
0100
0010
1000
0001
1000
0001
,
2000
3002
0023
0130
,
1000
0010
1000
0010
1000
0100
0010
0000
,
0001
0000
0010
0000
0100
0000
1000
0001
0000
0000
1000
0000
0100
0000
0010
0000
,
0001
0010
0001
0010
0001
0000
1000
0000
0010
0100
0000
0100
0010
0000
1000
0000
,
0001
0000
0100
0001
0100
0000
0010
0000
1000
0001
1000
0001
1000
0000
0000
0000
,
0110
0000
0000
0000
0001
0000
1000
0000
0010
0100
0010
0000
0100
0010
0100
0000
,
0001
0000
0000
0001
1000
0000
0100
0000
0010
0000
0001
0000
0110
0000
0000
0000
,
1001
0000
0000
0010
0001
0100
0001
0010
,
1001
0000
0000
0100
1000
0010
1000
0100
,
1000
0001
1000
0000
0010
0100
0010
0000
1000
0100
1000
0000
0001
0010
0001
0000
,
2200
3300
0022
0033
,
2002
0000
0000
0000
,
0000
0000
0000
3003
;

//---------------dance-double - ----------------
#NOTES:
     dance-double:
     :
     Hard:
     14:
     0.614024,0.834480,0.257568,0.330009,0.261593,534.000000,502.000000,32.000000,41.000000,0.000000,0.000000,0.614024,0.834480,0.257568,0.330009,0.261593,534.000000,502.000000,32.000000,41.000000,0.000000,0.000000:
00000000
00000000
00000000
00000000
,
00000000
00000000
00000000
00000000
,
00000000
00000000
00000000
00000000
,
00000000
00000000
00000000
00000000
,
00000000
00000000
00000000
00000000
,
00000000
00000000
00000000
00000000
,
10000000
00000000
01100000
00000000
00001000
00000000
00010000
00000100
,
00001000
00000000
00000001
00000000
00000010
00000000
00000100
00000000
00001000
00000000
00000100
00000000
00010000
00001000
00010000
00001000
,
00010000
00000000
00001000
00000000
00100000
00010000
01000000
00100000
,
10000000
00000000
01000000
00000000
00100000
00000000
00010000
00000000
01000000
00000000
00100000
00000000
10000000
00100000
10000000
00100000
,
10000000
00000000
00000000
00010000
00000000
00000000
00010000
00000000
10000000
00000000
01000000
00000000
00100000
00000000
00010000
00000000
,
10000000
01000000
00100000
00010000
00001000
00010000
00100000
01000000
,
00000000
00000000
00000000
00000000
,
11000000
00000000
00110000
00000000
00011000
00000000
00001000
00000100
,
00000010
00000000
00000010
00000000
00000100
00000010
00000001
00000000
,
00001000
00000000
00000100
00000000
00010000
00000000
00001000
00010000
00000000
00000000
00001000
00000000
00100000
00000000
00010000
00000000
,
01000000
00100000
01000000
00100000
01000000
00000000
00010000
00000000
10000000
01000000
00000000
01000000
10000000
00000000
00100000
00000000
,
01000000
00000000
00001000
00000000
00010000
00000000
00000100
00000000
00001000
00000010
00001000
00000010
00001000
00000000
00000000
00000000
,
00000220
00000000
00000330
00000001
00001000
00000100
00000010
00000001
,
00001000
00000000
00000000
00001000
00000100
00000000
00000100
00000000
00010000
00000000
00001000
00000000
00011000
00000000
00000000
00000000
,
00220000
00000000
00330000
00010000
01000000
00100000
10000000
01000000
,
00100000
00001000
00010000
00001000
00022000
00000000
00033000
00000000
,
00010000
00000010
00000100
00000100
00000100
00000001
00001000
00000100
,
00010000
00001000
01000000
01000000
01000000
00010000
00100000
00001000
,
00010000
00000010
00000100
00000100
00000100
00000001
00000100
00000010
,
00010000
00001000
01000000
01000000
01000000
00100000
10000000
01000000
,
00100000
00010000
00100000
00000000
00001000
00010000
00001000
00000000
00100000
00010000
00100000
00000000
01000000
10000000
01000000
00000000
,
00100000
00001000
00100000
00000000
00001000
00010000
00001000
00000000
00010000
00000100
00010000
00000100
00010000
00000100
00010000
00000000
,
00002000
00000000
00000000
00003000
,
00200000
00320000
02030000
23000000
,
30100000
00000000
10100000
00000000
10000000
01000000
00100000
00000000
,
00001000
00000000
00010000
00000000
00000100
00000000
00001000
00000100
00000000
00000000
00000010
00000000
00000001
00000000
00000100
00000000
,
00000010
00001000
00000010
00001000
00000010
00000000
00000100
00000000
00000001
00001000
00000000
00001000
00000001
00000000
00001000
00000000
,
00000100
00000000
00010000
00000000
00001000
00000000
01000000
00000000
00100000
10000000
00100000
10000000
00100000
00000000
00000000
00000000
,
22000000
00000000
33000000
10000000
01000000
00100000
00001000
00010000
,
00000100
00000000
00000000
00000100
00001000
00000000
00000001
00000000
00001000
00000000
00000100
00000000
00000011
00000000
00000000
00000000
,
00000200
00000000
00000300
00001000
00010000
00100000
00010000
00001000
,
00010000
00000000
00001000
00100000
00001000
00000000
01000000
00000000
00020000
00000000
00000000
00000000
10030000
00000000
10000000
00000000
,
10010000
00000000
11000000
00000000
00100000
00001000
00010000
00000000
,
00000100
00000000
00001000
00000000
00000001
00000000
00000010
00000001
00000000
00000000
00001000
00000000
00000100
00000000
00010000
00000000
,
00001000
00010000
00001000
00010000
00001000
00000000
00100000
00000000
00010000
01000000
00000000
01000000
00010000
00000000
10000000
00000000
,
01000000
00000000
00100000
00010000
00100000
00000000
00001000
00000000
00010000
00001000
00010000
00001000
00010000
00000000
00000000
00000000
,
00200000
00000000
00300000
00010000
00001000
00000010
00000100
00000001
,
00001000
00000000
00000000
00001000
00000100
00000000
00010000
00000000
00001000
00000000
01000000
00000000
00100000
00000000
00000000
00000000
,
20020000
00000000
30030000
10000000
01000000
00100000
01000000
10000000
,
00010000
00100000
00001000
00010000
00010000
00000000
00011000
00000000
,
00002000
00000010
00000001
00003100
,
00000020
00001000
00000100
00001030
,
00020000
00000100
00000010
00032000
,
00100000
01000000
00013000
00011000
,
00001000
01000000
00010000
00100000
01000000
10000000
01000000
00100000
,
00010000
00100000
00001000
00010000
00000100
00001000
00000001
00000100
,
00000010
00001000
00000010
00000001
00000010
00001000
00000100
00010000
,
00002000
00023000
00032000
00023000
,
00031000
00000000
00110000
00000000
01100000
00000000
10000000
01000000
,
00100000
00000000
00010000
00000000
00001000
00000000
00010000
00000000
00100000
00000000
00001000
00000000
00010000
00001000
00010000
00001000
,
00010000
00000000
00001100
00000000
00000010
00000001
00000100
00000010
,
00001000
00000000
00000010
00000000
00010000
00000000
00000010
00000000
00001000
00000000
00000100
00000000
00000010
00000001
00000010
00000001
,
00000010
00000000
00000000
00000010
00000000
00000000
00000010
00000000
00000001
00000000
00000100
00000000
00000010
00000000
00001000
00000000
,
00000001
00000100
00000010
00001000
00001000
00000100
00000010
00000001
,
00000000
00001010
00000000
00001010
00000000
00001000
00000100
00010000
,
00001000
00010000
00000000
00000000
00000100
00000000
00010000
00000000
00001000
00010000
00000000
00000000
00000100
00000000
00010000
00000000
,
00001000
00100000
00001000
00100000
00001000
00000000
00100000
00000000
00010000
01000000
00000000
01000000
00010000
00000000
10000000
00000000
,
02000000
03002000
00023000
00030020
,
00000130
00000000
00000000
00000001
00000010
00000100
00001000
00000100
,
00000010
00000000
00000000
00000010
00001000
00000000
00001000
00000000
00000100
00000000
00000100
00000000
00010100
00000000
00000000
00000000
,
00002000
02003000
03200000
20300000
,
31000000
00000000
00100000
00000000
00010000
00000000
00100000
00000000
01000000
00100000
01000000
00100000
01000000
00000000
00100000
00000000
,
10000000
01000000
10000000
00100000
10000000
01000000
00100000
00000000
,
00001000
00000000
00010000
00000000
00000100
00000000
00010000
00001000
00000000
00000000
00010000
00000000
00000100
00000000
00000010
00000000
,
00000001
00000010
00000001
00000010
00000100
00000000
00001000
00000000
00000100
00000010
00000000
00000010
00000100
00000000
00001000
00000000
,
00000100
00000000
00010000
00001000
00010000
00000000
00001000
00000000
00100000
00010000
00100000
00010000
01000000
00000000
00000000
00000000
,
00200000
00000000
00000000
00000000
00300000
00000000
10000000
00000000
00010000
00100000
00010000
00000000
10000000
01000000
10000000
00000000
,
00100000
00000000
00000000
00100000
01000000
00000000
00001000
00000000
00001000
00000000
00010000
00000000
00011000
00000000
00000000
00000000
,
00001010
00000000
00000000
00000001
00000010
00000100
00001000
00000000
,
00110000
00000000
00000000
10000000
01000000
00100000
00010000
00000000
,
00001100
00110000
11000000
01010000
,
00022000
00033000
00000202
00000303
,
00022000
00000000
00000000
00000000
,
00000000
00000000
00000000
00033000
;

//---------------dance-double - ----------------
#NOTES:
     dance-double:
     :
     Medium:
     10:
     0.467992,0.545622,0.305862,0.193176,0.024147,407.000000,369.000000,38.000000,24.000000,0.000000,0.000000,0.467992,0.545622,0.305862,0.193176,0.024147,407.000000,369.000000,38.000000,24.000000,0.000000,0.000000:
00000000
00000000
00000000
00000000
,
00000000
00000000
00000000
00000000
,
00000000
00000000
00000000
00000000
,
00000000
00000000
00000000
00000000
,
00000000
00000000
00000000
00000000
,
00000000
00000000
00000000
00000000
,
10000000
00000000
00010000
00000000
00010000
00000000
10000000
00100000
,
00010000
00100000
00010000
00100000
10000000
00000000
00100000
00001000
,
00010000
00000000
00000010
00000000
00000010
00000000
00001000
00000010
,
00000001
00000010
00000001
00000010
00001000
00000000
00000100
00000000
,
00022000
00000000
00033000
00000000
00001000
00100000
00001000
00000000
,
00100000
00010000
00100000
00000000
00001000
00100000
00001000
00000000
,
00000000
00000000
00000000
00000000
,
10000000
00000000
01000000
00000000
00100000
00000000
00010000
10000000
,
00010000
00000000
00010000
00000000
10000000
01000000
00100000
00000000
,
00100000
00001000
00010000
00000000
00011000
00000000
00010000
00000100
,
00001000
00000000
00000000
00000000
00001001
00000000
00000000
00000000
00000010
00000100
00000000
00000100
00000010
00000000
00000000
00000000
,
00001000
00000001
00001000
00000001
00000100
00000100
00000100
00000000
,
00001001
00000000
00000000
00000001
00000100
00000000
00000110
00000000
,
00000010
00000000
00001000
00000100
00010000
00000100
00001000
00000000
,
00011000
00000000
00000000
00001000
00100000
00010000
00100000
00000000
,
00010000
01000000
20020000
30030000
,
00100000
00000000
10000000
10000000
10000000
00000000
01000000
00000000
,
00010000
00000000
00100000
00100000
00100000
00000000
00001000
00000000
,
00010000
00000000
00000100
00000100
00000100
00000000
00001000
00000000
,
00000010
00000000
00000001
00000001
00000001
00000000
00000100
00000000
,
00001000
00000100
00001000
00000000
00000001
00000010
00000001
00000000
,
00000100
00000010
00000100
00000010
00000100
00000010
00000100
00000010
,
00000000
00000000
00000000
00000000
,
00000020
00000032
00000203
00002300
,
00003100
00000000
00000100
00000000
00000100
00010000
00001000
00000000
,
00001000
01000000
00010000
00000000
10010000
00000000
10000000
01000000
,
00100000
00000000
00100000
00000000
00100000
00000000
00000000
00000000
10000000
00010000
00000000
00010000
10000000
00000000
00000000
00000000
,
00100000
01000000
00100000
01000000
00010000
00010000
00010000
00000000
,
10010000
00000000
00000000
00100000
00001000
00010000
00001000
00000000
,
00010000
00000000
00000100
00001000
00000010
00000010
00000010
00000000
,
00001001
00000000
00000000
00000010
00001000
00000100
00010000
00000000
,
00001000
00001000
00001000
00001000
00001000
00000000
00011000
00000000
,
00100000
00000000
01010000
00000000
00100000
10000000
00100000
00000000
,
01000000
00010000
01000000
00000000
10010000
00000000
00110000
00000000
,
00100000
00000000
00001000
00000000
00010000
00000000
00000000
00000000
00010000
00001000
00000000
00001000
00010000
00000000
00000000
00000000
,
00000100
00001000
00000010
00001000
00000100
00000100
00000100
00000000
,
00000011
00000000
00000000
00001000
00000100
00000000
00010000
00000000
,
00001000
00000000
00001000
00100000
00010000
00100000
00001000
00000000
,
00110000
00000000
00000000
00010000
00100000
01000000
10000000
00000000
,
00100000
01000000
00100000
01000000
00100000
00000000
00000000
00000000
,
20000000
00000000
30010000
00100000
,
00002000
00000000
00013000
00000010
,
00000200
00000000
00000301
00001000
,
00000200
00000000
00010300
00011000
,
00100000
00010000
00100000
00010000
00100000
00010000
00100000
00010000
,
10000000
01000000
10000000
01000000
10000000
01000000
00100000
00010000
,
00100000
00001000
00100000
00001000
00010000
00000100
00010000
00000100
,
00002000
00003002
00002003
00003002
,
00002003
00000000
00000010
00000000
00000010
00000000
00003010
00001000
,
00000010
00001000
00000010
00000100
00000010
00000000
00001000
00000000
,
00000200
00000000
00010000
00000000
00010000
00000000
00010300
00001000
,
00010000
00001000
00010000
00001000
00010000
00000000
00001000
00000000
,
00200000
00000000
00300000
00000000
00010000
01000000
00010000
00000000
,
10000000
01000000
10000000
00000000
00010000
01000000
00010000
00000000
,
00000000
10010000
00000000
10010000
00000000
10000000
01000000
00100000
,
00010000
00000000
01000000
00100000
00010000
00000000
01000000
00001000
,
00010000
00000000
00010000
00000100
00001000
00000000
00001000
00000100
,
00000010
00000001
00000100
00001000
,
00010000
00000000
00000000
00001000
00010000
00000000
00011000
00000000
,
00100000
00000000
00010000
01000000
10000000
01000000
00010000
00000000
,
00110000
01010000
10010000
01100000
,
20000000
30020000
00230000
00300000
,
00011000
00000000
00011000
00000000
00001000
00000100
00000010
00000000
,
00000001
00000010
00000100
00000000
00001000
00000000
00010100
00000000
,
00001000
00100000
00010000
00000000
01000000
00100000
10000000
00000000
,
10000000
01000000
00100000
00010000
01000000
01000000
01000000
00000000
,
00110000
00000000
00000000
10000000
01000000
00000000
00110000
00000000
,
00001000
00000000
00010000
00000100
00001000
00000010
00000100
00000000
,
00001001
00000000
00000000
00000010
00001000
00000100
00010000
00000000
,
00011000
00000000
00000000
00100000
00010000
01000000
00100000
00000000
,
11000000
01100000
00110000
01100000
,
11000000
00000000
00110000
00000000
,
00022000
00000000
00000000
00000000
,
00000000
00000000
00000000
00033000
;

//---------------dance-single - ----------------
#NOTES:
     dance-single:
     :
     Medium:
     11:
     0.525485,0.577717,0.370254,0.233421,0.048294,457.000000,411.000000,46.000000,29.000000,0.000000,0.000000,0.525485,0.577717,0.370254,0.233421,0.048294,457.000000,411.000000,46.000000,29.000000,0.000000,0.000000:
0000
0000
0000
0000
,
0000
0000
0000
0000
,
0000
0000
0000
0000
,
0000
0000
0000
0000
,
0000
0000
0000
0000
,
0000
0000
0000
0000
,
1000
0000
0110
0000
0110
0000
1000
0100
,
0010
0100
0010
0100
1000
0001
0001
0001
,
1000
0000
0110
0000
0110
0000
0001
0010
,
0100
0010
0100
0010
0001
1000
1000
1000
,
0010
0000
0000
0000
1000
0100
0010
0000
,
1000
0100
0010
0000
0001
0010
0100
0000
,
0000
0000
0000
0000
,
0011
0000
1100
0000
0110
0000
1000
0100
,
0010
0000
0010
0000
0100
0010
0001
0000
,
1000
0100
0010
0001
0100
0000
1001
0000
,
0010
0000
0100
0000
0010
0000
0000
0000
0100
0010
0000
0010
0100
0000
0000
0000
,
0001
1000
0001
1000
0010
0010
0010
0000
,
1001
0000
0000
1000
0100
0010
0001
0010
,
0100
0000
0001
1000
0001
1000
0010
0000
,
1001
0000
0000
0001
0010
0100
1000
0100
,
0020
0230
0020
0330
,
0001
1000
0010
0010
0010
0000
0000
1000
,
0001
0100
0010
0010
0010
0000
0000
0001
,
1000
0010
0100
0100
0100
0000
0000
1000
,
0001
0100
0010
0010
0010
0000
1000
0000
,
0001
0010
0001
0010
0100
1000
0100
1000
,
0001
0010
0100
1000
1000
0100
0010
0001
,
0000
0000
0000
0000
,
0200
0000
2300
0000
3020
0000
0031
0010
,
1000
0000
1000
0000
0001
0010
0100
0000
,
1000
0100
0010
0001
1000
0000
0110
0000
,
0001
0000
0010
0000
0001
0000
0000
0000
1000
0010
0000
0010
1000
0000
0000
0000
,
0001
0010
0100
0010
0001
0001
1001
0000
,
0110
0000
0000
0001
0100
0010
1000
0000
,
0101
0000
1000
0100
0010
0001
0100
0000
,
1001
0000
0010
0001
0100
0001
1000
0001
,
0010
0010
0010
0010
0010
0000
1001
0000
,
1100
0000
0011
0000
1000
0100
0010
0000
,
0100
0010
0100
0001
1000
0000
0011
0000
,
1000
0000
0100
0000
0010
0000
0000
0000
0001
0100
0000
0100
0001
0000
0000
0000
,
1000
0010
0100
0100
0001
0100
1001
0000
,
0011
0000
0000
1000
0100
0010
0100
1000
,
0001
0000
1000
0100
0010
0100
1000
0000
,
0101
0000
0000
1000
0100
0010
0001
0100
,
0010
0100
0001
0010
0100
0000
1001
0000
,
2000
0010
0010
3010
,
0200
0001
0001
0301
,
0020
1000
1000
1030
,
0002
0100
0103
1001
,
0010
0001
0010
0001
0010
0001
1000
0100
,
0010
0100
0010
0100
0010
0100
1000
0001
,
0100
0010
0100
0010
1000
0100
1000
0100
,
0020
0032
0023
0230
,
1300
0000
0101
0000
0101
0000
1000
0010
,
0001
0010
0001
0010
1000
0000
0110
0000
,
0001
0000
0110
0000
0110
0000
0001
0100
,
1000
0100
1000
0100
0001
0000
0110
0000
,
2000
0000
3000
0000
0001
0010
0100
0000
,
0001
0010
0100
0000
0010
0100
1000
0000
,
0000
1001
0000
1001
0000
1000
0100
0010
,
0001
0000
0100
0010
0001
0000
1000
0100
,
0010
0000
0010
0000
1000
0000
0001
0000
0100
0010
0000
0010
0100
0000
0001
0000
,
2000
0000
3020
0000
0032
0000
0103
0010
,
0110
0000
0000
0001
0010
0001
0100
0001
,
1000
0000
0000
1000
0001
0000
0000
0000
0100
0000
0100
0000
0100
0000
0000
0000
,
0002
0203
2300
3020
,
0130
0010
0100
0010
0200
0000
0301
1000
,
0001
0000
1100
0000
0001
0010
0100
0000
,
1000
0100
0010
0001
0100
0000
1001
0000
,
0010
0000
0100
0000
0010
0000
0100
0000
0001
1000
0000
1000
0001
0000
1000
0000
,
0001
0010
0100
1000
0010
0010
0010
0000
,
1001
0000
0000
1000
0100
0010
0100
1000
,
0001
0000
0000
0001
0100
0000
0010
0000
1000
0000
1000
0000
1001
0000
0000
0000
,
1100
0000
0000
0001
0010
0100
1000
0000
,
0011
0000
0000
1000
0100
0010
0001
0000
,
0110
1001
1100
0011
,
2002
3003
0220
0330
,
2002
0000
0000
0000
,
0000
0000
0000
3003
;

//---------------dance-double - ----------------
#NOTES:
     dance-double:
     :
     Easy:
     7:
     0.311611,0.417240,0.120735,0.217323,0.000000,271.000000,256.000000,15.000000,27.000000,0.000000,0.000000,0.311611,0.417240,0.120735,0.217323,0.000000,271.000000,256.000000,15.000000,27.000000,0.000000,0.000000:
00000000
00000000
00000000
00000000
,
00000000
00000000
00000000
00000000
,
00000000
00000000
00000000
00000000
,
00000000
00000000
00000000
00000000
,
00000000
00000000
00000000
00000000
,
00000000
00000000
00000000
00000000
,
00000000
00010000
00010000
01000000
,
10000000
00100000
00010000
00000000
,
00000000
00001000
00001000
00000010
,
00000001
00000100
00001000
00000000
,
00020000
00030000
00001000
00001000
,
00010000
00010000
00001000
00001000
,
00000000
00000000
00000000
00000000
,
00100000
00010000
01000000
10000000
,
00100000
00000000
00100000
00000000
10000000
00010000
10000000
00000000
,
01000000
01000000
10010000
00000000
,
00200000
00300000
00002000
00003000
,
00010000
00000000
00010000
00000000
00010000
00010000
00010000
00000000
,
00000100
00000000
00000000
00000000
00000001
00001000
00000001
00000000
,
00000010
00000000
00001000
00000000
00000100
00000100
00000100
00000000
,
00000001
00000000
00000100
00001000
,
00010000
00001000
00000100
00000000
,
00010000
00010000
00011000
00000000
,
00000001
00000001
00001001
00000000
,
00010000
00010000
00011000
00000000
,
10000000
10000000
10010000
00000000
,
10000000
01000000
00010000
00001000
,
00000010
00000001
00000100
00001000
,
00000000
00000000
00000000
00000000
,
00020000
00032000
00023000
00032000
,
00103000
00000000
00100000
00000000
00100000
00100000
00100000
00000000
,
00010000
01000000
10000000
00100000
,
00001000
00001000
00010000
00010000
,
00001000
00000000
00010000
00000000
00000010
00000010
00000010
00000000
,
00001001
00000000
00000010
00001000
,
00000100
00000000
00000001
00000000
00000010
00000010
00000010
00000000
,
00001001
00000000
00000100
00010000
,
00001000
00010000
00001000
00010000
00001000
00000000
00010000
00000000
,
00000100
00000000
00000100
00000000
00000100
00000100
00000100
00000000
,
00001000
00000010
00000001
00000100
,
00010000
00010000
00001000
00001000
,
00010000
00000000
00001000
00000000
01000000
01000000
01000000
00000000
,
10010000
00000000
01000000
00010000
,
00100000
00000000
10000000
00000000
01000000
01000000
01000000
00000000
,
10010000
00000000
00100000
00001000
,
00010000
00001000
00010000
00001000
00010000
00000000
00000000
00000000
,
00002000
00000000
00003000
00000000
,
00020000
00000000
00030000
00000000
,
00002000
00000000
00003000
00000000
,
00020000
00000000
00030000
00000000
,
00001000
00000100
00000010
00000001
,
00000100
00001000
00010000
00100000
,
10000000
01000000
00100000
00010000
,
20000000
30020000
20030000
30020000
,
20030000
00100000
00100000
30100000
,
10000000
01000000
00010000
00000000
,
00002000
00010000
00010000
00013000
,
00000100
00001000
00000010
00000001
,
00000100
00000000
00000001
00000100
,
00000001
00000100
00001000
00000100
,
00000000
00000010
00000000
00000010
00000000
00000010
00000000
00001000
,
00000001
00000000
00000000
00001000
00000001
00000000
00000000
00000000
,
00000220
00000330
00022000
00033000
,
00001000
00100000
00010000
01000000
,
10000000
00000000
00100000
00100000
,
10000000
01000000
00010000
00100000
,
00002000
00003000
00020000
00030000
,
00001000
00001000
00001000
00010000
,
00000100
00000000
00000100
00000000
00001000
00000001
00001000
00000000
,
00000001
00001000
00000001
00000000
00001000
00000000
00000100
00000000
,
00010000
00010000
00010000
00000000
00001000
00001000
00001000
00000000
,
00100000
00000000
00010000
00000000
01000000
01000000
01000000
00000000
,
20020000
30030000
10000000
01000000
,
00010000
00000000
00001000
00000000
00000100
00000100
00000100
00000000
,
00000001
00000000
00000100
00001000
,
00010000
00000000
10000000
01000000
,
00010000
00100000
00001000
00010000
,
00011000
00000000
00011000
00000000
,
00022000
00000000
00000000
00000000
,
00000000
00000000
00000000
00033000
;

//---------------dance-single - ----------------
#NOTES:
     dance-single:
     :
     Easy:
     7:
     0.362205,0.481431,0.241470,0.217323,0.000000,315.000000,285.000000,30.000000,27.000000,0.000000,0.000000,0.362205,0.481431,0.241470,0.217323,0.000000,315.000000,285.000000,30.000000,27.000000,0.000000,0.000000:
// measure 0
0000
0000
0000
0000
,  // measure 1
0000
0000
0000
0000
,  // measure 2
0000
0000
0000
0000
,  // measure 3
0000
0000
0000
0000
,  // measure 4
0000
0000
0000
0000
,  // measure 5
0000
0000
0000
0000
,  // measure 6
0000
0010
0010
1000
,  // measure 7
0100
0001
0010
0000
,  // measure 8
0000
0100
0100
1000
,  // measure 9
0010
0001
0100
0000
,  // measure 10
2002
3003
1000
0100
,  // measure 11
1000
0100
0001
0100
,  // measure 12
0000
0000
0000
0000
,  // measure 13
0001
0010
0100
1000
,  // measure 14
0010
0000
0010
0000
1000
0001
1000
0000
,  // measure 15
0010
0010
2002
3003
,  // measure 16
0200
0300
0020
0030
,  // measure 17
1000
0000
0001
0000
0100
0100
0100
0000
,  // measure 18
1001
0000
0000
0000
0010
0010
0010
0000
,  // measure 19
1000
0000
0100
0000
0001
0001
0001
0000
,  // measure 20
1001
0000
0010
1000
,  // measure 21
0100
0001
0110
0000
,  // measure 22
0010
0000
0010
0010
0010
0000
0000
0000
,  // measure 23
0100
0000
0100
0100
0100
0000
0000
0000
,  // measure 24
0001
0000
0001
0001
0001
0000
0000
0000
,  // measure 25
1000
0000
1000
1000
1000
0000
0000
0000
,  // measure 26
0010
0010
0010
0000
0100
0100
0100
0000
,  // measure 27
0001
0001
0001
0000
1000
1000
1000
0000
,  // measure 28
2002
0000
0000
3003
,  // measure 29
0010
0010
1001
0100
,  // measure 30
1001
0000
1001
0000
1000
0001
1000
0000
,  // measure 31
0010
0010
0010
0000
1001
0000
0000
0000
,  // measure 32
0100
0100
0100
0000
0010
0010
0010
0000
,  // measure 33
1000
0000
0001
0000
1000
1000
1000
0000
,  // measure 34
1001
0000
0010
0001
,  // measure 35
0100
0000
1000
0000
0010
0010
0010
0000
,  // measure 36
1001
0000
1000
0001
,  // measure 37
0100
0010
0100
0010
0100
0000
0000
0000
,  // measure 38
1001
0000
1001
0000
0001
1000
0001
0000
,  // measure 39
0100
0100
0100
0000
1001
0000
0000
0000
,  // measure 40
0010
0010
0010
0000
0100
0100
0100
0000
,  // measure 41
0001
0000
1000
0000
0001
0001
0001
0000
,  // measure 42
1001
0000
0100
1000
,  // measure 43
0010
0000
0001
0000
0100
0100
0100
0000
,  // measure 44
1001
0000
0001
1000
,  // measure 45
0010
0100
0010
0100
0010
0000
0000
0000
,  // measure 46
1000
0100
0010
0001
,  // measure 47
0001
0010
0100
1000
,  // measure 48
0001
0010
0100
1000
,  // measure 49
1000
0100
0020
0030
,  // measure 50
1000
0001
0100
0110
,  // measure 51
0001
1000
0010
0110
,  // measure 52
1000
0100
0010
0001
,  // measure 53
0200
0320
0230
0320
,  // measure 54
0230
0001
0001
0301
,  // measure 55
0010
1000
0100
0001
,  // measure 56
0020
1000
1000
1030
,  // measure 57
0010
0001
0100
1000
,  // measure 58
0020
0000
0030
0000
0100
0010
0100
0000
,  // measure 59
0001
1000
0001
0000
0100
0010
0100
0000
,  // measure 60
0000
0010
0000
0010
0000
0010
0000
1000
,  // measure 61
0001
0000
0000
1000
0001
0000
0000
0000
,  // measure 62
1000
0100
1000
0000
0001
0100
0001
0000
,  // measure 63
0220
0000
0330
0000
,  // measure 64
0010
0000
1000
0110
,  // measure 65
0001
0000
0001
0000
1000
0100
0010
0000
,  // measure 66
0002
0023
0230
2300
,  // measure 67
3020
0000
0000
0030
,  // measure 68
1001
0000
1001
0000
1000
0001
1000
0000
,  // measure 69
0010
0010
2002
3003
,  // measure 70
0100
0010
0100
0000
0010
0010
0010
0000
,  // measure 71
1000
0001
1000
0000
0001
0001
0001
0000
,  // measure 72
0110
0000
1000
0100
,  // measure 73
0001
0000
0010
0000
0100
0100
0100
0000
,  // measure 74
1001
0000
0000
0000
0010
0010
0010
0000
,  // measure 75
1001
0000
0000
0000
0100
0100
0100
0000
,  // measure 76
1000
0100
0010
0001
,  // measure 77
1001
0000
0110
0000
,  // measure 78
2002
0000
0000
0000
,  // measure 79
0000
0000
0000
3003
;

//---------------dance-single - ----------------
#NOTES:
     dance-single:
     :
     Beginner:
     4:
     0.169029,0.256763,0.024147,0.072441,0.000000,147.000000,144.000000,3.000000,9.000000,0.000000,0.000000,0.169029,0.256763,0.024147,0.072441,0.000000,147.000000,144.000000,3.000000,9.000000,0.000000,0.000000:
// measure 0
0000
0000
0000
0000
,  // measure 1
0000
0000
0000
0000
,  // measure 2
0000
0000
0000
0000
,  // measure 3
0000
0000
0000
0000
,  // measure 4
0000
0000
0000
0000
,  // measure 5
0000
0000
0000
0000
,  // measure 6
0000
0010
0010
0000
,  // measure 7
0010
0000
0010
0000
,  // measure 8
0000
0100
0100
0000
,  // measure 9
0100
0000
0100
0000
,  // measure 10
0000
0000
1000
0000
,  // measure 11
0001
0000
1000
0000
,  // measure 12
0000
0000
0000
0000
,  // measure 13
0000
0000
0000
0000
,  // measure 14
0010
0000
0010
0000
,  // measure 15
0010
0010
0010
0000
,  // measure 16
1000
0000
0001
0000
,  // measure 17
1000
0000
0001
0001
,  // measure 18
0001
0000
0010
0000
,  // measure 19
0100
0000
1000
1000
,  // measure 20
1000
0000
0010
0000
,  // measure 21
0100
0000
1001
0000
,  // measure 22
0020
0000
0030
0000
,  // measure 23
0200
0000
0300
0000
,  // measure 24
0002
0000
0003
0000
,  // measure 25
2000
0000
3000
0000
,  // measure 26
0010
0000
0100
0000
,  // measure 27
0001
0000
1000
0000
,  // measure 28
0000
0000
0000
0000
,  // measure 29
0000
0000
0000
0000
,  // measure 30
1000
0000
1000
0000
,  // measure 31
1000
1000
1000
0000
,  // measure 32
0001
0000
0001
0000
,  // measure 33
1000
0000
1000
1000
,  // measure 34
1000
0000
0001
0000
,  // measure 35
0001
0000
0001
0001
,  // measure 36
0001
0000
1000
0000
,  // measure 37
0100
0100
0100
0000
,  // measure 38
0001
0001
0001
0000
,  // measure 39
0100
0000
0100
0000
,  // measure 40
0010
0010
0010
0000
,  // measure 41
1000
0000
1000
0000
,  // measure 42
1000
0000
0001
0000
,  // measure 43
1000
1000
1000
0000
,  // measure 44
0001
0000
0100
0000
,  // measure 45
0010
0010
0010
0000
,  // measure 46
1000
0000
0000
0000
,  // measure 47
0001
0000
0000
0000
,  // measure 48
1000
0000
0000
0000
,  // measure 49
0001
0000
1000
0000
,  // measure 50
0001
0000
0100
0100
,  // measure 51
0100
0000
1000
1000
,  // measure 52
1000
0000
0010
0000
,  // measure 53
0010
0010
0010
0010
,  // measure 54
0020
0000
0000
0000
,  // measure 55
0030
0000
0000
0000
,  // measure 56
0200
0000
0000
0000
,  // measure 57
0300
0000
0000
0000
,  // measure 58
0010
0000
0100
0000
,  // measure 59
0001
0000
1000
0000
,  // measure 60
0000
0000
0000
0000
,  // measure 61
0001
0000
0001
0000
,  // measure 62
1000
0000
1000
0000
,  // measure 63
1001
0000
0000
0000
,  // measure 64
0010
0000
1000
0000
,  // measure 65
0100
0000
0001
0000
,  // measure 66
0100
0100
0100
0100
,  // measure 67
0200
0000
0300
0000
,  // measure 68
0001
0001
0001
0000
,  // measure 69
1000
0000
1000
0000
,  // measure 70
0001
0000
0001
0000
,  // measure 71
0100
0100
0100
0100
,  // measure 72
0100
0000
0010
0000
,  // measure 73
1000
1000
1000
1000
,  // measure 74
1000
0000
0001
0001
,  // measure 75
0001
0000
0100
0000
,  // measure 76
0010
0010
0010
0010
,  // measure 77
0010
0000
0100
0000
,  // measure 78
2002
0000
0000
0000
,  // measure 79
0000
0000
0000
3003
;
