#TITLE:XX20;
#SUBTITLE:;
#ARTIST:TT Sound Team "TWO DECADES";
#TITLETRANSLIT:;
#SUBTITLETRANSLIT:;
#ARTISTTRANSLIT:;
#GENRE:;
#CREDIT:;
#BANNER:XX20.png;
#BACKGROUND:XX20-bg.png;
#LYRICSPATH:;
#CDTITLE:;
#MUSIC:XX20.ogg;
#OFFSET:2.532001;
#SAMPLESTART:50.564888;
#SAMPLELENGTH:12.000000;
#LASTBEATHINT:3.574669;
#SELECTABLE:YES;
#DISPLAYBPM:137.000000:274.000000;
#BPMS:0.000000=140.000000
,14.500000=69.000000
,14.666667=138.000000
,15.000000=129.000000
,16.500000=48.000000
,16.625000=128.000000
,16.750000=48.000000
,16.875000=128.000000
,17.500000=195.000000
,18.333334=47.000000
,19.000000=68.500000
,20.000000=69.000000
,23.000000=70.000000
,24.000000=68.599998
,27.000000=137.000000
,43.000000=274.000000
,167.000000=260.000000
,167.500000=230.000000
,168.000000=200.000000
,168.500000=170.000000
,169.000000=150.000000
,169.750000=180.000000
,236.500000=90.000000
,237.000000=89.000000
,238.000000=90.000000
,238.500000=95.000000
,239.000000=105.000000
,239.500000=115.000000
,239.833328=124.999992
,240.333328=135.000000
,240.666672=145.000000
,241.000000=165.000000
,241.500000=185.000000
,242.000000=204.699997
,242.500000=224.600006
,243.000000=244.300003
,244.000000=274.000000
,308.000000=137.000000
,310.500000=134.000000
,312.000000=274.000000
,376.125000=137.000000
,390.250000=105.000000
,390.500000=90.000000
,390.750000=75.000000
,391.000000=60.000000
,391.875000=274.000000
;
#STOPS:169.750000=1.208000
;
#BGCHANGES:;
#KEYSOUNDS:;
#ATTACKS:;

//---------------dance-single - ----------------
#NOTES:
     dance-single:
     :
     Challenge:
     19:
     1.060207,1.345248,0.425095,0.177123,0.531368,838.000000,790.000000,48.000000,20.000000,0.000000,0.000000,1.060207,1.345248,0.425095,0.177123,0.531368,838.000000,790.000000,48.000000,20.000000,0.000000,0.000000:
0000
0000
0000
0000
,
0000
0000
0000
0000
,
1000
0100
0001
0100
1000
0010
0001
0010
,
1000
0001
1000
0001
0220
0000
0000
0000
,
0000
0000
0000
0330
,
0000
0000
0000
0000
0000
0000
0000
0000
0000
0000
0000
0000
0002
0000
0003
0001
,
2000
0000
3000
1000
0020
0030
0010
0100
0200
0000
0310
0010
1000
0000
0001
0000
,
1000
0100
0001
0000
1000
0000
0010
0000
1000
0010
0001
0000
0010
0000
0100
0000
,
0001
0100
1000
0000
0100
0000
0010
0000
1000
0100
0001
0000
0100
0010
0001
0000
,
1000
0000
1000
0000
0010
0100
1000
0000
0010
0000
0010
0000
1000
0000
0000
1000
,
0000
0000
0000
0000
0000
0000
0001
0000
0000
0100
0000
0000
0000
0000
0000
0001
0000
0000
0010
0000
0000
0100
0000
0000
1000
0000
0100
0000
0010
0000
0001
0000
0010
0000
0100
0000
1000
0000
0000
0000
0000
0000
0100
0000
0000
0000
0000
0000
,
0010
0100
1000
0100
0001
0100
1000
0100
,
0010
0000
0001
0000
1000
0010
1000
0000
0010
0000
0100
0000
0001
0000
0010
0000
,
0100
0010
0001
1000
0010
1000
0001
0010
,
0100
0000
1000
0000
0010
0100
0010
0000
1000
0000
0001
0000
1000
0000
0100
0000
,
0010
0001
0100
1000
0100
0001
0010
1000
,
0010
0000
0001
0000
1000
0010
1000
0000
0010
0000
0100
0000
0001
0000
1000
0000
,
0100
1000
0010
0100
0010
1000
0010
0001
,
0010
0000
1000
0000
0010
0000
0100
0010
0100
0000
0010
0000
1000
0000
0100
0000
,
0010
0100
1000
1000
0001
0001
1000
0100
,
0010
0000
0001
0000
0100
0010
0100
0000
0010
0000
1000
0000
0010
0000
0100
0000
,
0001
1000
1000
0001
0100
0010
0010
0100
,
0001
0000
0010
0000
0001
0010
0001
0000
0100
0000
0010
0000
1000
0000
0100
0000
,
0010
0000
0001
0000
0100
0010
0100
0000
0001
0000
1000
0000
0001
0000
1000
0000
,
0010
0000
0100
0000
0001
0100
0001
0000
0100
0000
0010
0000
1000
0000
0010
0000
,
0001
0010
0100
0001
0100
1000
0100
0010
,
1000
0001
1000
1000
1001
0000
0101
0001
,
0001
1000
0100
0010
0001
1000
1100
1000
,
1000
0000
0001
0000
0010
0000
0100
0000
1000
0000
0010
0000
0100
0010
0100
0000
,
0010
0100
0010
1000
0100
0010
0001
0001
,
0010
0100
1000
0001
0001
1000
1000
0010
,
0100
0001
0001
0100
0010
1000
1000
0001
,
0010
0000
0100
0000
0100
0000
0010
0000
0001
0000
1000
0000
0010
1000
0010
0000
,
1000
0000
0001
0000
0001
0000
1000
0000
0100
0000
1000
0000
0001
1000
0001
0000
,
0100
0000
1000
0000
0100
0000
0001
0000
1000
0000
0010
0000
1000
0010
1000
0010
,
1000
0000
0001
0000
0010
0000
0100
0000
1000
0000
0100
0000
0010
0001
0010
0001
,
0010
0000
0001
0000
0100
0000
0010
0000
1000
0000
0001
0000
1000
0001
1000
0000
,
0100
0010
0001
0010
0100
1000
0001
0010
,
0100
0000
0010
0000
0001
0000
0100
0000
1000
0000
0100
0000
0001
1000
0001
0000
,
1000
0000
0100
0000
0010
0000
0001
0000
0100
0010
0100
0000
0010
0100
0010
0000
,
1000
0000
0000
0010
0000
0000
0001
0000
0000
0010
0000
0000
1000
0000
0000
0001
0000
0000
1000
0000
0100
0000
1000
0000
,
0010
0000
0001
0000
0010
0000
1000
0000
0100
0000
0010
0000
0100
0000
0010
0000
0001
0000
0100
0000
0000
0010
0000
0000
,
1000
0000
0002
0000
2000
0000
3003
1001
0010
0000
0010
0000
0010
0000
0010
0000
,
0010
0000
1000
0000
0001
0000
0101
0000
0001
0010
0100
0010
0001
0000
1000
0000
,
0101
0000
1000
0000
0011
0000
1000
0000
0001
0010
0100
1000
0001
0000
1001
0000
,
0110
0000
1001
0000
0010
0000
0011
0000
0001
0100
0010
0100
0001
0000
1000
0000
,
0011
0000
1000
0000
0101
0000
1000
0000
0001
0010
0100
1000
0001
0000
1000
0100
,
0001
0000
1000
0000
0100
0000
0001
0000
1000
0000
0010
0000
0001
0000
1000
0010
,
0100
0010
0110
0000
1001
0000
0110
0000
0000
0000
2002
0000
0000
0000
3003
0000
,
0000
0000
0010
0000
0000
0001
0000
0000
0100
0000
0000
1000
0000
0010
0100
0100
,
0100
0010
0000
1000
1000
0000
0001
0001
,
0001
0000
1000
0000
0010
0000
0001
0000
1000
0000
0100
0000
0001
0000
1000
0001
,
0100
0000
0000
0010
0000
0000
0110
0000
0000
0000
0000
0000
1001
0000
0000
0000
0000
0000
0110
0000
0000
0000
0000
0000
0000
0000
0000
0000
0000
0000
1000
0000
0000
0001
0000
0000
1000
0000
0000
0001
0000
0000
1000
0000
0010
0000
0100
0000
,
0010
0000
0100
0000
0010
0000
0100
0000
0000
0000
0000
0000
0001
0000
0000
0000
0000
0000
0101
0000
0000
0000
0000
0000
0001
0000
0000
0010
0000
0000
0100
0000
0000
1000
0000
0000
0100
0000
0000
0010
0000
0000
0001
0000
0000
0000
0000
0000
,
1000
0001
1000
0101
1000
0011
0101
1001
,
0000
0000
0001
0000
0010
0000
1000
0000
0001
0000
0100
0000
1000
0000
0001
0100
,
0010
0000
0000
1000
0000
0000
1001
0000
0000
0000
0000
0000
0110
0000
0000
0000
0000
0000
1001
0000
0000
0000
0000
0000
0000
0000
0000
0000
0000
0000
1000
0000
0000
0001
0000
0000
1000
0000
0000
0001
0000
0000
0100
0000
0010
0000
1000
0000
,
0010
0000
1000
0000
0010
0000
1000
0000
0000
0000
0000
0000
0001
0000
0000
0000
0000
0000
1000
0000
0000
0000
0000
0000
0100
0000
0000
0000
0000
0000
0010
0000
0000
0001
0000
0000
0100
0000
0000
0001
0000
0000
0010
0000
0000
0000
0000
0000
,
0100
0000
0010
0001
0100
0010
1000
0000
0001
0010
0100
1000
0100
0010
0001
0100
,
1000
0100
0002
0000
0000
0000
1003
0000
2002
0000
0000
0000
0000
0000
0000
0000
,
0000
0000
0000
0000
0000
0000
0000
3003
,
0010
0000
0010
0000
1000
0100
0010
0001
,
0000
0001
0000
0010
0100
0000
0001
0010
,
0100
0000
0010
0010
0010
1000
0000
0001
,
0000
1000
0100
0010
0001
0010
0100
1000
,
0001
0000
0001
0000
0010
0100
0010
1000
,
0000
1000
1000
0001
1000
0000
0010
0100
,
0001
0000
1001
0000
0001
0010
0100
1000
,
0001
1001
1010
1001
,
1000
0100
1000
0100
0001
0100
0001
0100
,
0001
0000
0010
0000
0001
0000
0010
0000
1000
0000
0010
0000
1000
0010
1000
0010
,
1000
0001
1000
0001
1000
0100
1000
0100
,
0010
0000
0001
0000
0010
0000
0001
0000
1000
0000
0001
0000
1000
0001
1000
0001
,
1000
0001
0100
0010
1000
0001
1000
1000
,
1001
0001
0100
0010
0100
0001
0001
0001
,
1001
1000
0010
0010
0110
0100
0001
0001
,
1001
1000
1001
0000
1001
0001
1001
0000
,
0120
0000
1000
1000
0000
0001
0001
0031
,
1000
0010
1000
0010
0001
0010
1000
0010
,
0100
0001
0100
0001
0100
1000
0100
0001
,
1000
0001
1000
0001
0010
0100
0010
0001
,
1000
0001
0010
0001
1000
0100
0010
0001
,
1000
0010
1000
0010
0001
0010
0001
0010
,
1000
0010
0001
0010
1000
0100
0010
0001
,
1000
0100
1000
0100
0001
0100
0001
0100
,
1000
1100
0110
0011
,
1000
0100
0001
0100
1000
0010
0001
0010
,
1000
0010
1000
0100
0001
0100
1000
0001
,
0100
1000
0100
0001
0010
1000
0010
0001
,
0100
1000
0100
0001
0010
0001
0100
1000
,
0100
0001
1000
0010
0001
0010
1000
0100
,
0001
0100
1000
0100
0010
0001
0010
1000
,
0001
0100
1000
0100
0001
0100
0001
1000
0010
0001
0010
1000
,
0001
0100
0001
0010
0100
1000
0001
1000
,
1001
0000
1001
0000
0001
0100
0000
0100
0000
0100
0000
0200
0000
0000
0310
0010
,
0010
0000
1000
0000
0001
0010
0000
0010
0000
0010
0000
0020
0000
0000
0100
0100
,
0130
0000
0200
0000
0001
0001
0000
0010
0000
0010
0000
0020
0000
0030
0310
1000
,
0001
0000
0001
0000
1000
1000
0000
1000
0000
0001
0001
0001
2002
0000
0000
0000
,
3003
0000
0000
0000
;

//---------------dance-single - ----------------
#NOTES:
     dance-single:
     :
     Hard:
     17:
     0.945077,1.215062,0.354246,0.283397,0.411811,747.000000,707.000000,40.000000,32.000000,0.000000,0.000000,0.945077,1.215062,0.354246,0.283397,0.411811,747.000000,707.000000,40.000000,32.000000,0.000000,0.000000:
// measure 0
0000
0000
0000
0000
,  // measure 1
0000
0000
0000
0000
,  // measure 2
0000
0000
0000
0000
,  // measure 3
0000
0000
2002
0000
,  // measure 4
0000
0000
3003
1001
,  // measure 5
0000
0000
0000
0000
0000
0000
0000
0000
0000
0000
0000
0000
0000
0000
0000
0000
0000
0000
0000
0000
0000
0000
0000
0000
0001
0000
0000
0001
0000
0000
0001
0000
,  // measure 6
1000
0000
0000
1000
0000
0000
1000
0000
0010
0000
0000
0010
0000
0000
0010
0000
0100
0000
0000
0100
0000
0000
0100
0000
0002
0000
0000
0000
0000
0000
0010
0000
,  // measure 7
0000
0000
0013
0000
0200
0000
0000
1000
0000
0000
1300
0000
0002
0000
0000
0100
,  // measure 8
0000
0000
0103
0000
0020
0000
0000
1000
0000
0000
1030
0000
0020
0000
0000
0100
,  // measure 9
0000
0000
0130
0000
0002
0000
0000
1000
0000
0000
1003
0000
0001
0000
0000
1100
,  // measure 10
0000
0000
0011
0000
0000
1000
0100
0010
0001
0000
1000
0000
0001
0000
0000
0000
,  // measure 11
1000
0100
0010
0100
1000
0100
0010
0000
,  // measure 12
0100
0010
0001
0010
0100
0010
0001
1000
,  // measure 13
0010
1000
0001
1000
0010
1000
0001
0000
,  // measure 14
1000
0100
0010
0100
1000
0100
0010
0001
,  // measure 15
0100
0001
0010
0001
0100
0001
0010
0000
,  // measure 16
0001
0100
1000
0100
0001
0100
0010
0100
,  // measure 17
0010
1000
0010
0100
0010
0100
0010
0000
,  // measure 18
1000
0100
0010
0001
1001
0000
0010
1000
,  // measure 19
0100
1000
0010
0100
0001
0100
0010
0000
,  // measure 20
0001
0100
1000
0100
0001
0000
0010
0001
,  // measure 21
0100
0001
0010
0001
1000
0001
0100
0000
,  // measure 22
0010
1000
0100
0010
0001
0000
1000
0100
,  // measure 23
1000
0001
1000
0100
1000
0001
0010
0000
,  // measure 24
0001
0100
1000
0100
0001
0000
1000
0100
,  // measure 25
0010
0001
1000
0100
0010
0001
0100
0100
,  // measure 26
0010
0010
1000
0001
1001
0000
1002
0000
,  // measure 27
1003
0000
0001
0100
0010
2000
0001
0001
,  // measure 28
3001
0000
0001
0100
0010
0100
0002
0000
,  // measure 29
0013
0000
0001
0100
0010
0100
0001
0100
,  // measure 30
1000
0100
0001
0100
0010
1000
0002
0100
,  // measure 31
0103
0000
0010
1000
0100
0010
0002
0010
,  // measure 32
0013
0000
0001
0010
0100
2000
0010
0010
,  // measure 33
3010
0000
0010
1000
0001
1000
0100
0010
,  // measure 34
0001
0010
0100
1000
0001
0001
1001
0000
,  // measure 35
1100
0000
0001
0010
0001
0100
0101
0000
,  // measure 36
1100
0000
0001
0010
0001
0100
0110
0000
,  // measure 37
1001
0000
0001
0010
0001
0100
0010
0010
,  // measure 38
1000
1000
0001
1000
1001
0000
0010
0000
,  // measure 39
1010
0000
0001
0100
0010
0100
0001
0000
,  // measure 40
1010
0000
0001
0010
0100
1000
0020
0100
,  // measure 41
0130
0000
0001
0010
0100
1000
0000
0010
,  // measure 42
0100
0000
0001
0000
1000
0000
0000
1001
0000
0000
0000
0000
0000
0000
0000
0000
,  // measure 43
0000
0000
0001
0000
1000
0000
0101
0000
1000
0010
1000
0010
1000
0000
0001
0000
,  // measure 44
1100
0000
0001
0000
0010
0000
0001
0000
1000
0100
0010
0100
1000
0000
0001
0000
,  // measure 45
0101
0000
0100
0000
0010
0000
1010
0000
0010
0100
0001
0100
0010
0000
1000
0000
,  // measure 46
0101
0000
1000
0000
0010
0000
0001
0000
1000
0010
1000
0010
1000
0000
0001
0100
,  // measure 47
0001
0100
0010
0000
1000
0000
0001
0000
1000
0010
1000
0010
0100
0000
0001
0100
,  // measure 48
0001
0100
0010
0000
1000
0000
0101
0000
1000
0001
1000
0001
1000
0000
0001
0010
,  // measure 49
0001
0100
0001
0000
0100
0000
0010
1000
0010
0100
0010
0000
1000
0000
0001
0010
,  // measure 50
0001
0100
0001
0000
1000
0000
0110
0000
2002
0000
3003
0000
1001
0000
0001
0010
,  // measure 51
0100
0010
0001
0000
1000
0000
0010
0100
1000
0100
0010
0100
1000
0100
0010
0000
,  // measure 52
1000
0000
0001
0010
0100
0010
0001
0010
0100
0000
0020
0000
0100
0000
0100
0000
,  // measure 53
0130
0000
0010
1000
0100
1000
0010
1000
0100
0000
0010
0001
0100
0001
0010
0001
,  // measure 54
0100
0000
0001
0100
0001
0000
1000
0100
1000
0000
0001
0010
0100
0010
0001
0010
,  // measure 55
0100
0000
0001
1000
0001
0000
1000
0000
0100
0000
0010
0001
0010
0000
0001
0000
,  // measure 56
0100
0000
0010
0100
0010
0000
1000
0001
1000
0000
2002
0000
3003
0000
1001
0000
,  // measure 57
1000
0000
0001
0000
0010
0000
0100
0000
1000
0100
0010
0001
0010
0100
1000
0000
,  // measure 58
0001
0000
0100
0010
0100
0000
0001
0100
0010
0100
0001
1000
0100
0010
0001
1000
,  // measure 59
0100
1001
0000
0020
0200
0000
0000
0000
,  // measure 60
0000
0000
0000
0330
,  // measure 61
0001
0000
0001
0000
1000
0100
0000
0010
,  // measure 62
0000
0010
0000
0100
0001
0000
1000
0100
,  // measure 63
0010
0000
0001
0001
0001
1000
0000
0010
,  // measure 64
0000
0010
0100
0010
1000
0100
0010
0001
,  // measure 65
1000
0000
0001
0100
0001
0100
0000
0010
,  // measure 66
0000
0010
0000
1000
0100
0000
0010
0001
,  // measure 67
0200
0000
0320
0000
1030
0100
0010
0001
,  // measure 68
0200
0320
2030
3002
,  // measure 69
0013
0001
0010
0001
1000
0100
1000
0100
,  // measure 70
0010
0001
1000
0100
0010
0010
0010
0000
,  // measure 71
0001
0100
0001
0100
0010
1000
0010
1000
,  // measure 72
0001
0100
0010
1000
0001
0001
0001
0000
,  // measure 73
1000
0100
0010
0001
1000
1000
1000
0000
,  // measure 74
0001
0010
0100
1000
0001
0001
0001
0000
,  // measure 75
1100
0000
0011
0000
1000
0100
0010
0001
,  // measure 76
1001
0110
0011
1100
,  // measure 77
0120
0000
1000
1000
0000
0100
0100
0130
,  // measure 78
0100
0001
0100
0001
1000
0100
0010
0001
,  // measure 79
1000
0010
1000
0010
1000
0100
0001
0100
,  // measure 80
1000
0100
1000
0100
0010
0001
0010
0001
,  // measure 81
1000
0010
0001
0010
1000
0100
0001
0100
,  // measure 82
1000
0100
1000
0100
0010
0001
0100
0001
,  // measure 83
0010
0001
0010
0001
1000
0100
0010
0100
,  // measure 84
1000
0001
1000
0001
0100
0010
0100
0010
,  // measure 85
1000
1010
0101
1010
,  // measure 86
0001
0010
0001
0010
1000
0010
1000
0010
,  // measure 87
0001
0100
0001
0100
1000
0100
1000
0100
,  // measure 88
0001
0010
0001
0010
0100
1000
0100
1000
,  // measure 89
0001
0010
0100
1000
1000
0100
0010
0001
,  // measure 90
1000
0010
1000
0010
0001
0010
0001
0010
,  // measure 91
1000
0100
1000
0100
0001
0100
0001
0100
,  // measure 92
1000
0100
0010
0001
0100
0100
0010
0010
,  // measure 93
1000
0001
0010
0100
1000
1000
0001
0001
,  // measure 94
2002
0000
0000
0000
3003
0000
0000
0001
0000
1000
0000
1000
0000
0000
0001
0010
,  // measure 95
0100
0000
1000
0000
0100
0001
0000
1000
0000
0001
0000
0001
0000
1000
0100
0001
,  // measure 96
1000
0000
1000
0000
0001
0010
0000
1000
0000
0001
0000
1000
0000
0001
0010
0100
,  // measure 97
1000
0000
0001
0000
1000
0100
0000
0010
0000
0001
1000
0010
0200
0000
0000
0000
,  // measure 98
0300
0000
0000
0000
;

//---------------dance-single - ----------------
#NOTES:
     dance-single:
     :
     Medium:
     15:
     0.700900,0.824507,0.407382,0.318821,0.022140,554.000000,508.000000,46.000000,36.000000,0.000000,0.000000,0.700900,0.824507,0.407382,0.318821,0.022140,554.000000,508.000000,46.000000,36.000000,0.000000,0.000000:
0000
0000
0000
0000
,
0000
0000
0000
0000
,
0000
0000
0000
0000
,
0000
0000
2002
0000
,
0000
0000
3003
1001
,
0000
0000
0000
0002
,
0023
0230
2300
3002
,
0013
0200
1300
0020
,
1030
0020
0031
2000
,
3100
0000
0000
0000
0002
0000
0000
0000
0103
0000
0000
0000
0101
0000
0000
0101
,
0000
0000
1100
0000
0000
1100
0000
0000
0010
0100
0010
0100
0010
0000
0000
0000
,
1000
0000
0001
0010
0001
0100
0001
0000
,
1000
0100
1000
0010
1000
0000
0001
0000
,
1000
0000
0010
0100
0010
0100
0010
0000
,
1000
0001
1000
0001
1000
0000
0001
0000
,
0010
0000
0100
1000
0100
1000
0100
0000
,
0010
0001
0010
0001
0010
0000
0001
0000
,
0100
0000
0010
1000
0010
1000
0001
0000
,
1000
0100
1000
0100
0010
0001
0010
0000
,
0001
0000
0100
0010
0100
0001
0100
0000
,
0010
1000
0010
0100
0010
0000
1000
0000
,
0001
0000
0010
0001
0100
0001
1000
0000
,
0010
1000
0001
1000
0100
0000
1000
0000
,
0100
0000
0010
0001
0100
0001
0010
0000
,
0001
1000
0100
1000
0001
0000
1000
0001
,
1000
0000
0010
0100
0010
0000
1000
0100
,
0010
0001
1000
0100
0010
0001
1000
0000
,
1001
0000
0001
0010
0100
1000
0010
0000
,
0110
0000
1000
0100
0010
0001
2000
0000
,
3010
0000
0001
0010
0100
0000
0001
1000
,
0001
1000
0010
0100
0010
0000
2000
0000
,
3100
0000
0010
0001
0100
0001
0020
0000
,
0031
0000
0100
0010
1000
0001
2000
0000
,
3100
0000
0010
0001
0100
0000
0010
1000
,
0010
1000
0001
0000
1001
0000
1000
0000
,
1010
0000
1000
0100
0010
0001
0100
0000
,
0110
0000
0001
0010
0100
1000
0020
0000
,
0130
0000
0001
1000
0010
0000
1000
0001
,
1000
0001
1000
0100
0010
0001
1000
0000
,
1100
0000
0001
0010
0100
1000
0001
0000
,
0011
0000
1000
0100
0010
0001
2000
0000
,
3010
0000
0001
0010
0100
1000
0000
1000
,
0100
0000
0010
0000
0001
0000
0000
1001
0000
0000
0000
0000
0000
0000
0000
0000
,
0000
0001
1000
0100
0000
1000
0001
0100
,
0100
0000
0001
0010
1000
0001
0100
1000
,
1000
0000
0001
0001
0000
1000
0100
0010
,
0001
0000
0001
0100
1000
0001
0010
1000
,
0000
0011
0000
1100
0000
0110
0000
0011
,
0000
1001
0000
0110
0000
2002
0000
3003
,
0000
0010
0001
0100
0000
0100
0100
0100
,
0000
0010
1000
0100
0000
0100
0100
0100
,
0000
0001
0010
0000
0001
0010
0100
1000
,
0010
0110
0000
1001
0000
0110
0000
0000
,
0000
0001
1000
0100
0000
1000
0001
1000
,
0001
1000
0100
0010
0001
1000
1000
1000
,
0000
0001
0100
0000
1000
0100
0010
0001
,
1000
1001
0000
0110
0000
2002
0000
3003
,
0000
0001
0010
0100
0000
0010
0100
1000
,
0000
0010
0010
0010
0010
0010
0010
0010
,
0000
2002
0000
0000
0000
0000
0000
0000
,
0000
0000
0000
3003
,
0010
0000
0010
0000
1000
0100
0000
0020
,
0000
0030
0000
0000
0001
0000
1000
0000
,
0001
0000
0001
0000
0001
0100
0000
0020
,
0000
0030
0000
1000
0100
0000
0010
0000
,
0001
0000
0100
0000
0010
1000
0000
0002
,
0000
0003
0000
0000
1000
0000
0001
0010
,
0001
0000
1000
0000
0010
0100
0010
0100
,
0010
1000
0110
1001
,
0010
0001
0010
0000
0001
1000
0001
0000
,
1000
0100
1000
0000
0010
0001
0010
0000
,
0001
0100
0001
0000
1000
0100
0010
0000
,
1000
0100
1000
0000
0001
0010
0100
0000
,
0001
1000
0001
1000
0010
1000
0010
0000
,
1000
0100
1000
0100
1000
0001
1000
0000
,
0001
0010
0001
0000
1000
0100
1000
0000
,
0001
0010
0100
0010
0001
0010
0100
0000
,
0220
0000
0000
0000
0330
1000
0001
1000
,
0001
0000
1100
0000
0001
0010
0100
0010
,
0001
0000
1000
0000
0010
0100
1000
0100
,
0010
0000
1000
0000
0001
0100
0001
0100
,
0000
0010
1000
0010
1000
0000
1001
0000
,
0100
0000
1010
0000
0001
0010
0001
0010
,
0001
0000
1100
0000
0010
0100
0010
0100
,
0010
0000
1001
0000
0100
0010
1000
0010
,
0100
1100
0110
0011
,
1000
0100
1000
0000
0001
0010
0001
0000
,
1000
0100
0010
0000
0010
0100
1000
0000
,
0001
0100
0001
0000
1000
0010
1000
0000
,
0001
0010
0100
0000
0100
0010
0001
0000
,
1000
0001
1000
0001
1000
1000
1000
0000
,
0001
1000
0001
1000
0001
0001
0001
0000
,
1100
0000
0011
0000
1000
0100
0010
0100
,
1000
0101
1010
0110
,
2002
0000
3003
0000
0001
0100
1000
0000
,
0010
0000
1001
0000
1000
0100
0001
0000
,
0020
0030
0200
0300
,
0002
2003
0002
0000
,
3003
0000
0000
0000
;

//---------------dance-single - ----------------
#NOTES:
     dance-single:
     :
     Easy:
     11:
     0.482027,0.694321,0.407382,0.345389,0.000000,381.000000,335.000000,46.000000,39.000000,0.000000,0.000000,0.482027,0.694321,0.407382,0.345389,0.000000,381.000000,335.000000,46.000000,39.000000,0.000000,0.000000:
0000
0000
0000
0000
,
0000
0000
0000
0000
,
0000
0000
0000
0000
,
0000
0000
2002
0000
,
0000
0000
3003
1001
,
0000
0000
0000
0010
,
0001
0100
1000
0020
,
0030
2000
3000
0200
,
0300
0002
0003
0020
,
0000
0002
0033
2000
,
0000
0200
3300
0010
,
1000
0100
1000
0010
,
0001
0100
0001
0010
,
1000
0100
0010
0001
,
0010
0100
1000
0010
,
1000
0100
1000
0010
,
0001
0100
0001
0010
,
0001
0010
0100
1000
,
0010
0010
0010
1000
,
0100
1100
0100
0001
,
0010
0011
0010
0001
,
0100
0010
0010
1000
,
0100
0010
0010
1000
,
0001
0101
0001
1000
,
0010
0110
0010
1000
,
0100
0010
0001
0220
,
0000
0000
0330
0001
,
0100
0001
1000
0010
,
0001
1000
0100
0010
,
0001
0010
0100
1000
,
0001
0010
0100
0010
,
0010
1000
0001
0001
,
0001
1000
0100
0010
,
0010
0010
0010
1000
,
1000
1001
0010
1000
,
0100
0011
0010
0100
,
1000
1000
0001
0010
,
0100
0110
0010
0001
,
1000
0100
0010
0001
,
0001
1000
0010
1000
,
1000
0001
0100
0010
,
0010
0001
1000
2002
,
0000
0000
0000
0000
0000
0000
0000
3003
0000
0000
0000
0000
0000
0000
0000
0000
,
0000
1000
0000
0000
0000
0010
0100
0001
,
0000
0001
0000
0000
0000
0010
0100
1000
,
0000
1000
0000
0001
0000
0010
0100
0001
,
0000
0001
0000
1000
0000
0010
0100
1000
,
0000
1000
0100
0001
0000
0010
0100
0001
,
0000
0001
0100
1000
0000
0010
0100
1000
,
0000
1000
0010
0001
0000
0010
0100
0001
,
0000
0001
0010
1000
0000
0010
0000
0110
,
0000
0100
0001
0001
0000
0001
0001
0001
,
0000
0100
1000
1000
0000
1000
1000
1000
,
0000
0100
0001
0001
0001
0001
0001
0001
,
0000
0100
1000
1000
1000
1000
1000
1000
,
0000
0011
0000
0100
0000
1000
0000
0010
,
0000
1010
0000
0100
0000
0001
0000
0010
,
0000
1100
0000
0001
0000
0110
0000
1001
,
0000
0101
0000
1000
0000
0110
0000
1001
,
0000
0220
0000
0000
0000
0000
0000
0000
,
0000
0000
0000
0330
,
2000
0000
3000
0000
,
0002
0000
0003
0000
,
0200
0000
0300
0000
,
0020
0000
0030
0000
,
2000
0000
3100
0000
,
0020
0000
0031
0000
,
0100
0010
0100
0010
,
0100
0000
1001
0000
,
0001
0010
0001
0010
,
1000
0100
1000
0100
,
0001
0010
0001
0010
,
0001
0100
1000
0100
,
0001
0100
0001
0100
,
1000
0010
1000
0010
,
1000
0100
0010
0001
,
0100
0100
0010
0010
,
2002
0000
0000
3003
,
0001
1000
1001
1001
,
1000
0001
1001
1001
,
0010
0100
0110
0110
,
0100
0010
0110
0110
,
0010
1000
0001
1000
,
0100
0010
0001
1000
,
0010
0010
0100
0100
,
0001
0010
0101
0000
,
1000
0100
1100
1100
,
0001
0100
0101
0101
,
0010
1000
0001
1000
,
0100
0010
0001
1000
,
0110
0110
2002
3003
,
0110
0110
2002
3003
,
0001
0010
0100
1000
,
0110
0110
2002
3003
,
0020
0030
2000
3000
,
0200
0300
0002
0003
,
0020
0030
0002
0003
,
0200
0300
0220
0000
,
0330
0000
0000
0000
;

//---------------dance-single - ----------------
#NOTES:
     dance-single:
     :
     Beginner:
     7:
     0.277071,0.390556,0.150554,0.212547,0.000000,219.000000,202.000000,17.000000,24.000000,0.000000,0.000000,0.277071,0.390556,0.150554,0.212547,0.000000,219.000000,202.000000,17.000000,24.000000,0.000000,0.000000:
0000
0000
0000
0000
,
0000
0000
0000
0000
,
0000
0000
0000
0000
,
0000
0000
0020
0000
,
0000
0000
0030
0010
,
0000
0000
0000
0001
,
0010
1000
0100
1100
,
0000
0000
0000
0101
,
0000
0000
0000
1000
,
0000
0100
0000
0010
,
0000
0001
0000
1000
,
0000
0001
0000
1000
,
0000
0010
0000
1000
,
0000
0100
0000
1000
,
0000
0010
0000
0100
,
0000
0001
0000
0100
,
0000
0010
0000
0100
,
0000
1000
0000
0001
,
0000
1000
0000
0100
,
0000
0001
0000
0100
,
0000
0010
0000
0001
,
0000
1000
0000
0010
,
0000
1000
0000
0001
,
0000
0010
0000
0001
,
0000
0100
0000
0020
,
0000
0000
0000
0030
,
0000
0000
0000
0010
,
0000
0010
0000
0100
,
0000
0100
0000
0010
,
0000
0100
0000
0010
,
0000
1000
0000
0100
,
0000
0100
0000
1100
,
0000
1100
0000
0010
,
0000
0100
0000
1001
,
0000
0100
0000
0010
,
0000
0100
0000
1000
,
0000
0001
0000
1000
,
0000
0100
0000
0010
,
0000
0001
0000
1000
,
0000
0001
0000
1000
,
0000
0001
0000
0001
,
0000
1000
0000
0200
,
0000
0000
0000
0000
0000
0000
0000
0300
0000
0000
0000
0000
0000
0000
0000
0000
,
0000
0010
0000
0010
0000
0000
0010
0000
,
0010
0000
0010
0000
0000
0010
0000
0010
,
0000
0000
0000
0100
0000
0000
0100
0000
,
0100
0000
0100
0000
0000
0100
0000
0000
,
0000
1000
0000
1000
0000
0000
0001
0000
,
0001
0000
0001
0000
0000
1000
0000
1000
,
0000
0000
0000
0001
0000
0000
0001
0000
,
0001
0000
0001
0000
0000
2002
0000
3003
,
0000
1000
0000
1000
0000
0000
0000
0001
,
0000
0000
0000
1000
0000
0001
0000
1000
,
0000
0000
0000
0001
0000
0000
0000
1000
,
0000
0000
0000
0001
0000
0100
0000
1000
,
0000
1000
0000
1000
0000
0000
0000
0001
,
0000
0000
0000
1000
0000
0100
0000
0001
,
0000
0001
0000
0001
0000
0000
0000
1000
,
0000
0000
0000
0001
0000
0010
0000
0100
,
0000
2000
0000
0000
0000
0000
0000
0000
,
0000
3000
0000
0000
,
2000
0000
0000
0000
,
3002
0000
0000
0000
,
0203
0000
0000
0000
,
0320
0000
0000
0000
,
0230
0000
0000
0000
,
0302
0000
0000
0000
,
0023
0000
0000
0000
,
2030
0000
0000
0000
,
3001
0001
0001
0000
,
1000
0000
1001
0000
,
1000
1000
1000
0000
,
0001
0000
1001
0000
,
0010
0010
0010
0000
,
0100
0100
0100
0000
,
0010
0010
0010
0010
,
0010
0010
0010
0000
,
2002
0000
0000
3003
,
1000
0000
0001
0000
,
1000
1000
1000
0000
,
0001
0000
1000
0000
,
0001
0001
0001
0000
,
1000
0001
1000
0000
,
0001
1000
0001
0000
,
0101
0000
1100
0000
,
0011
0000
1010
0000
,
0001
0001
0001
0000
,
1001
0000
0110
0000
,
1000
1000
1000
0000
,
1001
0000
0110
0000
,
0010
0010
0010
0000
,
0100
0100
0100
0000
,
0001
0001
0001
0000
,
1000
1000
1000
0000
,
0020
0000
2030
0000
,
3200
0000
0302
0000
,
0023
0000
0032
0000
,
0203
0000
0020
0000
,
0330
0000
0000
0000
;
