#TITLE:Wolf 1061;
#SUBTITLE:;
#ARTIST:Xceon;
#TITLETRANSLIT:;
#SUBTITLETRANSLIT:;
#ARTISTTRANSLIT:;
#GENRE:;
#CREDIT:;
#BANNER:Wolf 1061.png;
#BACKGROUND:Wolf 1061-bg.png;
#LYRICSPATH:;
#CDTITLE:;
#MUSIC:Wolf 1061.ogg;
#OFFSET:1.351000;
#SAMPLESTART:53.787125;
#SAMPLELENGTH:12.000000;
#LASTBEATHINT:1.012051;
#SELECTABLE:YES;
#BPMS:0.000000=173.000000
;
#STOPS:
;
#BGCHANGES:4.000=Wolf 1061.avi=1.000=0=0=0=StretchNoLoop====,
99999=-nosongbg-=1.000=0=0=0 // don't automatically add -songbackground-
;
#KEYSOUNDS:;
#ATTACKS:;

//---------------dance-single - ----------------
#NOTES:
     dance-single:
     :
     Hard:
     12:
     0.640006,0.629564,0.039299,0.337968,0.294739,570.000000,565.000000,5.000000,43.000000,0.000000,0.000000,0.640006,0.629564,0.039299,0.337968,0.294739,570.000000,565.000000,5.000000,43.000000,0.000000,0.000000:
// measure 0
0000
0000
0000
0000
,  // measure 1
0000
0000
0000
0000
,  // measure 2
2002
0000
0000
0000
3003
0000
0001
0100
,  // measure 3
0020
0000
1000
0000
1030
0010
0100
0002
,  // measure 4
1000
0000
1000
0000
1003
0010
0100
0020
,  // measure 5
1000
1000
1000
0230
,  // measure 6
0001
0000
0001
0000
0301
1000
0001
0200
,  // measure 7
0010
0000
0010
0000
0310
0100
0001
2000
,  // measure 8
0001
0000
0001
0000
3010
0100
0010
2000
,  // measure 9
0001
0001
0001
0001
,  // measure 10
3020
0000
0100
0000
0130
0000
0100
0010
,  // measure 11
2000
0000
0001
0000
3001
0100
0010
2000
,  // measure 12
0001
0000
0001
0000
3001
1000
0100
0020
,  // measure 13
0001
0000
0001
0000
0031
0100
0010
0200
,  // measure 14
0001
0000
0001
0000
0301
1000
0010
2000
,  // measure 15
0100
0000
0100
0000
3100
0010
0001
0200
,  // measure 16
0010
0000
0010
0000
0310
1000
0010
0100
,  // measure 17
0001
1000
0001
1000
0010
0100
0010
0100
,  // measure 18
0010
1000
0010
0100
0002
0000
1003
0000
,  // measure 19
0001
0000
0000
0100
0000
0000
0001
0000
0000
0001
0000
0000
1000
0000
0100
0000
,  // measure 20
0010
0000
0000
0100
0000
0000
0010
0000
0000
0010
0000
0000
1000
0000
0001
0000
,  // measure 21
0100
0000
0000
0100
0000
0000
0010
0000
0000
0010
0000
0000
1000
0000
0001
0000
,  // measure 22
1000
0000
0000
1000
0000
0000
0010
0000
0000
0010
0000
0000
1000
0000
0100
0000
,  // measure 23
0010
0000
0000
0100
0000
0000
0010
0000
0000
0010
0000
0000
1000
0000
0001
0000
,  // measure 24
0100
0000
0000
0010
0000
0000
0100
0000
0000
0100
0000
0000
0001
0000
0100
0000
,  // measure 25
0010
0000
0000
1000
0000
0000
0010
0000
0000
0010
0000
0000
1000
0000
0010
0000
,  // measure 26
0100
0010
0100
0010
1000
0100
0010
0001
,  // measure 27
1000
0000
0000
0001
0000
0000
1000
0000
0000
0001
0000
0000
0100
0000
0010
0000
,  // measure 28
1000
0000
0000
0010
0000
0000
1000
0000
0000
0010
0000
0000
0100
0000
0001
0000
,  // measure 29
0010
0000
0000
0001
0000
0000
0100
0000
0000
0001
0000
0000
0100
0000
0010
0000
,  // measure 30
1000
0000
0000
0100
0000
0000
0010
0000
0000
0001
0000
0000
0100
0000
0010
0000
,  // measure 31
1000
0000
0000
0001
0000
0000
0100
0000
0000
0010
0000
0000
0100
0000
0001
0000
,  // measure 32
1000
0000
0000
0010
0000
0000
0100
0000
0000
0001
0000
0000
1000
0000
0100
0000
,  // measure 33
1000
0001
0010
0100
1000
0100
0010
0001
,  // measure 34
1000
0001
1000
0100
1000
0010
1000
0001
,  // measure 35
0100
0010
0100
0010
1000
0001
1000
0001
,  // measure 36
0010
0100
0010
0100
1000
0100
0010
0001
,  // measure 37
1000
0010
1000
0010
0100
0001
0100
0001
,  // measure 38
2000
0010
0010
3010
0200
0001
0001
0301
,  // measure 39
2002
0000
0000
0000
3003
0000
0001
0010
,  // measure 40
0100
0010
0001
2000
0000
3010
0100
0010
,  // measure 41
1000
0001
0100
0020
0000
1030
0010
0100
,  // measure 42
0001
0100
0010
2000
0000
3010
1000
0010
,  // measure 43
1000
0100
0010
0002
0000
0103
0001
0100
,  // measure 44
0010
1000
0010
0200
0000
0310
1000
0001
,  // measure 45
0010
0001
1000
0020
0000
0130
0010
1000
,  // measure 46
0001
1000
0100
0020
0000
0130
1000
0100
,  // measure 47
0010
0001
0100
0020
0000
1030
0010
0100
,  // measure 48
0020
0000
1000
0000
1030
0001
1000
0020
,  // measure 49
1000
0000
1000
0000
0130
0010
1000
0100
,  // measure 50
0020
0000
0001
0000
0031
0100
0010
2000
,  // measure 51
0001
0000
0001
0000
3001
0100
0010
1000
,  // measure 52
0001
0010
0100
2000
0000
3100
0010
0001
,  // measure 53
1000
0100
0010
0002
0000
0013
0100
1000
,  // measure 54
0001
0010
0100
0010
0001
1000
0100
0010
,  // measure 55
0001
0000
0000
0000
1001
0000
0000
0000
0010
0000
0000
1001
0000
0000
0100
0000
,  // measure 56
0000
0000
0010
0000
0000
0010
0000
1000
0010
0000
0000
0100
0000
0000
0001
0100
,  // measure 57
0000
0000
0010
0000
0000
0010
0000
0100
0010
0000
0000
1000
0000
0000
1000
0001
,  // measure 58
0000
0000
1000
0000
0000
0010
0000
1000
0010
0000
0000
0100
0000
0000
0001
0100
,  // measure 59
0000
0000
0010
0000
0000
0010
0000
0100
0010
0000
0000
0100
0000
0000
0001
0100
,  // measure 60
0000
0000
0010
0000
0000
1000
0000
0001
1000
0000
0000
0001
0000
0000
0100
0001
,  // measure 61
0000
0000
1000
0000
0000
0010
0000
1000
0010
0000
0000
0100
0000
0000
0001
0100
,  // measure 62
0000
0000
0010
0000
0000
0010
0000
0100
0010
0000
0000
0100
0000
0000
0010
0100
,  // measure 63
0000
0000
0001
0000
0000
0001
0000
1000
0001
0000
0000
1000
0000
0000
0010
0100
,  // measure 64
0010
1000
0001
1000
0001
1000
0100
0010
,  // measure 65
0001
1000
0010
1000
0010
1000
0001
0100
,  // measure 66
0010
1000
0001
1000
0010
0100
0010
1000
,  // measure 67
0001
0100
1000
0100
0001
0010
1000
0010
,  // measure 68
0001
0001
0001
0001
1000
0100
0010
0001
,  // measure 69
1000
1000
1000
1000
0001
0010
0100
1000
,  // measure 70
0010
0100
0010
0100
0001
0010
0100
1000
,  // measure 71
0010
1000
0100
0010
0001
0010
0100
1000
,  // measure 72
0010
0000
1000
0010
0000
0000
0100
0000
0001
0100
0000
0000
0010
0000
1000
0000
,  // measure 73
0010
0000
1000
0010
0000
0000
1000
0000
0010
1000
0000
0000
0001
0000
0100
0000
,  // measure 74
0010
0000
0100
0010
0000
0000
0100
0000
0001
0100
0000
0000
0001
0000
0100
0000
,  // measure 75
0010
0000
0100
0010
0000
0000
0100
0000
0010
0100
0000
0000
0001
0000
1000
0000
,  // measure 76
0010
0000
1000
0010
0000
0000
1000
0000
0010
1000
0000
0000
0010
0000
0100
0000
,  // measure 77
0010
0000
0100
0010
0000
0000
0100
0000
0010
0100
0000
0000
0001
0000
1000
0000
,  // measure 78
0010
0000
0100
0010
0000
0000
0100
0000
0001
0100
0000
0000
0001
0000
0100
0000
,  // measure 79
0010
0000
0000
0100
0000
0000
1001
0000
0000
0100
0000
0000
0010
0000
0001
0000
,  // measure 80
1000
0001
0100
0020
0000
1030
0100
0010
,  // measure 81
0001
0100
0010
2000
0000
3001
0010
0100
,  // measure 82
1000
0010
0100
0020
0000
1030
0001
0010
,  // measure 83
0001
1000
0100
0020
0000
0031
0100
0010
,  // measure 84
1000
0001
0010
0002
0000
0103
0010
1000
,  // measure 85
0100
0010
0001
0200
0000
0310
1000
0002
,  // measure 86
0200
0000
0000
0000
,  // measure 87
0000
0000
0000
0000
,  // measure 88
0000
0000
0000
0000
,  // measure 89
0303
0000
0000
0000
;

//---------------dance-double - ----------------
#NOTES:
     dance-double:
     :
     Hard:
     12:
     0.617549,0.629564,0.133615,0.322248,0.251511,550.000000,533.000000,17.000000,41.000000,0.000000,0.000000,0.617549,0.629564,0.133615,0.322248,0.251511,550.000000,533.000000,17.000000,41.000000,0.000000,0.000000:
00000000
00000000
00000000
00000000
,
00000000
00000000
00000000
00000000
,
00022000
00000000
00000000
00000000
00033000
00000000
00010000
00000100
,
00020000
00000000
00001000
00000000
00031000
00100000
00010000
01000000
,
00200000
00000000
10000000
00000000
10300000
00100000
01000000
00010000
,
00200000
00010000
00010000
00302000
,
00010000
00000000
00010000
00000000
00013000
00000100
00001000
00000010
,
00000200
00000000
00000001
00000000
00000301
00000100
00000010
00001000
,
00000200
00000000
00001000
00000000
00001300
00000010
00000100
00000002
,
00001000
00000000
00002000
00000003
00000100
00000000
00003200
00000000
,
00000010
00000000
00000320
00000000
00000001
00000000
00000031
00000100
,
00000020
00000000
00000100
00000000
00000130
00000001
00000100
00000020
,
00001000
00000000
00001000
00000000
00001030
00000100
00010000
00002000
,
00010000
00000000
00010000
00000000
00013000
00001000
00100000
00010000
,
02000000
00000000
00100000
00000000
03100000
10000000
01000000
00100000
,
00020000
00000000
00100000
00000000
00130000
00001000
00010000
00000010
,
00002000
00000000
00000010
00000000
00003010
00000100
00000001
00001000
,
00000100
00000010
00000001
00001000
00000100
00001000
00000100
00010000
,
00001000
00010000
00001000
01000000
00020000
00000000
10030000
00000000
,
10000000
00000000
00000000
00100000
00000000
00000000
00010000
00000000
00000000
00100000
00000000
00000000
10000000
00000000
00000000
00000000
,
00010000
00000000
00000000
00100000
00000000
00000000
00001000
00000000
00000000
00010000
00000000
00000000
00000010
00000000
00000000
00000000
,
00001000
00000000
00000000
00000010
00000000
00000000
00000001
00000000
00000000
00000010
00000000
00000000
00001000
00000000
00000000
00000000
,
00000001
00000000
00000000
00000100
00000000
00000000
00001000
00000000
00000000
00000100
00000000
00000000
00010000
00000000
00000000
00000000
,
00001000
00000000
00000000
01000000
00000000
00000000
00010000
00000000
00000000
01000000
00000000
00000000
00001000
00000000
00000000
00000000
,
00010000
00000000
00000000
00000100
00000000
00000000
00001000
00000000
00000000
00000100
00000000
00000000
00010000
00000000
00000000
00000000
,
00001000
00000000
00000000
01000000
00000000
00000000
00100000
00000000
00000000
10000000
00000000
00000000
00100000
00000000
00000000
00000000
,
01000000
00010000
01000000
00010000
10000000
00100000
10000000
00000000
,
00100000
00000000
00000000
10000000
00000000
00000000
00100000
00000000
00000000
00010000
00000000
00000000
00100000
00000000
00000000
00000000
,
00001000
00000000
00000000
00010000
00000000
00000000
00000010
00000000
00000000
00010000
00000000
00000000
00001000
00000000
00000000
00000000
,
00000100
00000000
00000000
00001000
00000000
00000000
00000100
00000000
00000000
00000001
00000000
00000000
00000100
00000000
00000000
00000000
,
00000010
00000000
00000000
00001000
00000000
00000000
00000100
00000000
00000000
00001000
00000000
00000000
00000010
00000000
00000000
00000000
,
00010000
00000000
00000000
00001000
00000000
00000000
01000000
00000000
00000000
00010000
00000000
00000000
10000000
00000000
00000000
00000000
,
00010000
00000000
00000000
00100000
00000000
00000000
00001000
00000000
00000000
00010000
00000000
00000000
00000010
00000000
00000000
00000000
,
00001000
00000100
00000001
00000100
00001000
00000010
00000100
00000010
,
00001000
00000100
00000001
00000100
00001000
00010000
00000100
00010000
,
00001000
00010000
00001000
00010000
00001000
00100000
00010000
01000000
,
00100000
10000000
00100000
10000000
00100000
01000000
00100000
01000000
,
00100000
00000000
00000000
10010000
00000000
10010000
00000000
10000000
,
00100000
01000000
00010000
01000000
10000000
01000000
00100000
00010000
,
02000000
00000000
00000000
00000000
03000000
00000000
00010000
00100000
,
00002000
00000000
00010000
00000000
00013000
00000100
00001000
00000010
,
00000200
00000000
00000001
00000000
00000301
00000100
00000010
00001000
,
00000100
00000010
00000001
00002000
00000000
00003100
00010000
00000100
,
00001000
00000100
00010000
00002000
00000000
00103000
00010000
01000000
,
00200000
00000000
10000000
00000000
10300000
00100000
01000000
00020000
,
01000000
00000000
01000000
00000000
01030000
00010000
00100000
00001000
,
00010000
00001000
00100000
00020000
00000000
10030000
01000000
00100000
,
00010000
00100000
00001000
00200000
00000000
00310000
00100000
00001000
,
00020000
00000000
00000100
00000000
00030100
00001000
00000010
00000100
,
00000002
00000000
00001000
00000000
00001003
00000001
00000100
00001000
,
00000200
00000000
00000010
00000000
00000310
00001000
00000100
00020000
,
00001000
00000000
00001000
00000000
00030100
00010000
00001000
00010000
,
00000100
00001000
00000001
00000100
00000000
00000010
00001000
00000100
,
00010000
00001000
01000000
00020000
00000000
10030000
01000000
00100000
,
00010000
00100000
01000000
10000000
00010000
00100000
01000000
10000000
,
00010000
00000000
00100000
00000000
00001000
00000000
00000000
00000000
00011000
00000000
00000000
00011000
00000000
00000000
00010000
00000000
,
00000010
00000000
00001000
00000000
00000000
00000001
00000000
00000001
00000100
00000000
00000000
00000010
00000000
00000000
00001000
00000000
,
00000100
00000000
00010000
00000000
00000000
00001000
00000000
00001000
00010000
00000000
00000000
00001000
00000000
00000000
01000000
00000000
,
00010000
00000000
10000000
00000000
00000000
00010000
00000000
00010000
01000000
00000000
00000000
00001000
00000000
00000000
00010000
00000000
,
00000010
00000000
00001000
00000000
00000000
00000001
00000000
00000001
00000100
00000000
00000000
00000010
00000000
00000000
00000010
00001000
,
00000000
00000000
00000100
00000000
00000000
00001000
00000000
00000100
00001000
00000000
00000000
00000100
00000000
00000000
00010000
00000000
,
00001000
00000000
00100000
00000000
00000000
00001000
00000000
00100000
00010000
00000000
00000000
01000000
00000000
00000000
10000000
00000000
,
00010000
00000000
10000000
00000000
00000000
00010000
00000000
00100000
00010000
00000000
00000000
00100000
00000000
00000000
00001000
00000000
,
00000000
00000000
00010000
00000000
00000000
00000100
00000000
00001000
00000100
00000000
00000000
00000010
00000000
00000000
00000001
00000000
,
00000100
00000010
00000100
00000010
00001000
00000100
00000010
00000001
,
00001000
00000100
00001000
00000100
00000010
00000001
00001000
00000100
,
00010000
00001000
00010000
00001000
01000000
00010000
10000000
00010000
,
00100000
00001000
00100000
00001000
00010000
00000100
00001000
00000001
,
00000010
00000100
00001000
00000100
00000010
00000001
00001000
00000010
,
00010000
00001000
00010000
00100000
00010000
00100000
01000000
10000000
,
00100000
01000000
00100000
01000000
00010000
00100000
01000000
10000000
,
00010000
00100000
00001000
00010000
00000010
00001000
00000100
00000001
,
00000100
00000000
00000000
00000110
00000000
00000000
00000001
00000000
00000000
00001001
00000000
00000000
00001000
00000000
00000100
00000000
,
00010000
00000000
00000000
00011000
00000000
00000000
00001000
00000000
00000000
01001000
00000000
00000000
00010000
00000000
00100000
00000000
,
01000000
00000000
00000000
11000000
00000000
00000000
00100000
00000000
00000000
00110000
00000000
00000000
00100000
00000000
00001000
00000000
,
00010000
00000000
00000000
00010100
00000000
00000000
00000100
00000000
00000000
00001100
00000000
00000000
00000010
00000000
00000100
00000000
,
00000001
00000000
00000000
00001001
00000000
00000000
00001000
00000000
00000000
00001100
00000000
00000000
00000100
00000000
00010000
00000000
,
00001000
00000000
00000000
00101000
00000000
00000000
00100000
00000000
00000000
00110000
00000000
00000000
00010000
00000000
01000000
00000000
,
10000000
00010000
10000000
00010000
00100000
00001000
00100000
00001000
,
00010000
00000010
00001000
00000010
00000100
00000010
00001000
00000001
,
00001000
00000100
00000010
00000002
00000000
00001003
00000100
00010000
,
00001000
01000000
00010000
20000000
00000000
30100000
01000000
00001000
,
00010000
00000010
00001000
00000200
00000000
00000310
00000001
00000100
,
00000010
00001000
00000100
00000020
00000000
00000031
00001000
00000100
,
00010000
00001000
00000100
00020000
00000000
00031000
00010000
00001000
,
00100000
00010000
01000000
00200000
00000000
10300000
00010000
00200000
,
00002000
00000000
00000000
00000000
,
00000000
00000000
00000000
00000000
,
00000000
00000000
00000000
00000000
,
00303000
00000000
00000000
00000000
;

//---------------dance-single - ----------------
#NOTES:
     dance-single:
     :
     Beginner:
     4:
     0.160563,0.314782,0.055018,0.275090,0.000000,143.000000,136.000000,7.000000,35.000000,0.000000,0.000000,0.160563,0.314782,0.055018,0.275090,0.000000,143.000000,136.000000,7.000000,35.000000,0.000000,0.000000:
// measure 0
0000
0000
0000
0000
,  // measure 1
0000
0000
0000
0000
,  // measure 2
0000
0000
0000
0000
,  // measure 3
0020
0000
0030
0000
,  // measure 4
2000
0000
3000
0000
,  // measure 5
0200
0000
0000
0000
,  // measure 6
0300
0000
0000
0000
,  // measure 7
0020
0000
0030
0000
,  // measure 8
0002
0000
0003
0000
,  // measure 9
0200
0000
0000
0000
,  // measure 10
0300
0000
0000
0000
,  // measure 11
0002
0000
0003
0000
,  // measure 12
2000
0000
3000
0000
,  // measure 13
0020
0000
0030
0000
,  // measure 14
0200
0000
0300
0000
,  // measure 15
0002
0000
0003
0000
,  // measure 16
2000
0000
3000
0000
,  // measure 17
2002
0000
3003
0000
,  // measure 18
0010
0000
1001
0000
,  // measure 19
0010
0000
0010
0000
,  // measure 20
0001
0000
0001
0000
,  // measure 21
0100
0000
0100
0000
,  // measure 22
1000
0000
1000
0000
,  // measure 23
0010
0000
1000
0000
,  // measure 24
0010
0000
0001
0000
,  // measure 25
0100
0000
0001
0000
,  // measure 26
0100
0000
1000
0000
,  // measure 27
0010
0000
0010
0000
,  // measure 28
0001
0000
0100
0000
,  // measure 29
0010
0000
0010
0000
,  // measure 30
1000
0000
0100
0000
,  // measure 31
0001
0000
0100
0000
,  // measure 32
1000
0000
0001
0000
,  // measure 33
0010
0000
1000
0000
,  // measure 34
0001
0000
0100
0000
,  // measure 35
1000
0000
0100
0000
,  // measure 36
0010
0000
0001
0000
,  // measure 37
0100
0000
0000
0000
,  // measure 38
0010
0000
0100
0000
,  // measure 39
2002
0000
3003
0000
,  // measure 40
0002
0000
0003
0000
,  // measure 41
2000
0000
3000
0000
,  // measure 42
0002
0000
0000
0000
,  // measure 43
0003
0000
0000
0000
,  // measure 44
2000
0000
3000
0000
,  // measure 45
0002
0000
0003
0000
,  // measure 46
2000
0000
0000
0000
,  // measure 47
3000
0000
0000
0010
,  // measure 48
0020
0000
0030
0000
,  // measure 49
0200
0000
0300
0000
,  // measure 50
0020
0000
0030
0000
,  // measure 51
2000
0000
3000
0000
,  // measure 52
0002
0000
0003
0000
,  // measure 53
0200
0000
0300
0000
,  // measure 54
0020
0000
0030
0000
,  // measure 55
0100
0000
1001
0000
,  // measure 56
0001
0001
0001
0000
,  // measure 57
1000
1000
1000
0000
,  // measure 58
0010
0010
0010
0000
,  // measure 59
0100
0100
0100
0000
,  // measure 60
0010
0010
0010
0000
,  // measure 61
1000
1000
1000
0000
,  // measure 62
0001
0001
0001
0000
,  // measure 63
1000
1000
1000
0000
,  // measure 64
0001
0000
0100
0000
,  // measure 65
1000
0000
0010
0000
,  // measure 66
0001
0000
0100
0000
,  // measure 67
0001
0000
0010
0000
,  // measure 68
1000
0000
0100
0000
,  // measure 69
0010
0000
0001
0000
,  // measure 70
1001
0000
1001
0000
,  // measure 71
0010
0010
0010
0010
,  // measure 72
0010
0000
0001
0000
,  // measure 73
0100
0000
1000
0000
,  // measure 74
0010
0000
1000
0000
,  // measure 75
0100
0000
0001
0000
,  // measure 76
1000
0000
0010
0000
,  // measure 77
0001
0000
0100
0000
,  // measure 78
0001
0000
1000
0000
,  // measure 79
0100
0000
0010
0000
,  // measure 80
0002
0000
0003
0000
,  // measure 81
2000
0000
3000
0000
,  // measure 82
0020
0000
0030
0000
,  // measure 83
0200
0000
0300
0000
,  // measure 84
0001
0000
0000
0000
,  // measure 85
1000
0000
0000
0000
,  // measure 86
2002
0000
0000
0000
,  // measure 87
0000
0000
0000
0000
,  // measure 88
0000
0000
0000
0000
,  // measure 89
3003
0000
0000
0000
;

//---------------dance-double - ----------------
#NOTES:
     dance-double:
     :
     Medium:
     9:
     0.434530,0.454685,0.055018,0.275090,0.231862,387.000000,380.000000,7.000000,35.000000,0.000000,0.000000,0.434530,0.454685,0.055018,0.275090,0.231862,387.000000,380.000000,7.000000,35.000000,0.000000,0.000000:
00000000
00000000
00000000
00000000
,
00000000
00000000
00000000
00000000
,
00022000
00000000
00033000
00000100
,
00002200
00000000
00000000
00000000
00003300
00001000
00000010
00000200
,
00000000
00000000
00000000
00000300
00000000
00000001
00001000
00000020
,
00000000
00001030
00000001
00001000
,
00000001
00000100
00001000
00010000
,
00022000
00000000
00000000
00000000
00033000
00100000
00010000
00200000
,
00000000
00000000
00000000
00000000
00300000
00010000
01000000
00200000
,
00000000
10300000
01000000
00100000
,
00010000
00000000
00100000
00000000
01000000
00000000
10000000
00010000
,
00200000
00000000
00000000
00000000
00000000
00301000
00010000
00002000
,
00000000
00000000
01000000
00000000
00000000
01003000
00010000
20000000
,
00000000
00000000
00100000
00000000
00000000
30100000
01000000
00002000
,
00000000
00000000
00010000
00000000
00000000
00013000
00000010
00000200
,
00000000
00000000
00000001
00000000
00000000
00000310
00000001
00002000
,
00000000
00000000
00000010
00000000
00000000
00003010
00001000
00000200
,
00000000
00001300
00000001
00001000
,
00002200
00000000
00003300
00000000
,
00000100
00000000
00000000
00000100
00000000
00000000
00000100
00000000
00000000
00000001
00000000
00000000
00001000
00000000
00000000
00000000
,
00000010
00000000
00000000
00000010
00000000
00000000
00000010
00000000
00000000
00001000
00000000
00000000
00000001
00000000
00000000
00000000
,
00001000
00000000
00000000
00001000
00000000
00000000
00000100
00000000
00000000
00000100
00000000
00000000
00010000
00000000
00000000
00000000
,
00001000
00000000
00000000
00001000
00000000
00000000
00100000
00000000
00000000
00100000
00000000
00000000
00010000
00000000
00000000
00000000
,
10000000
00000000
00000000
10000000
00000000
00000000
01000000
00000000
00000000
00100000
00000000
00000000
00010000
00000000
00000000
00000000
,
00010000
00000000
00000000
00010000
00000000
00000000
00100000
00000000
00000000
01000000
00000000
00000000
00001000
00000000
00000000
00000000
,
00010000
00000000
00000000
00010000
00000000
00000000
00000100
00000000
00000000
00001000
00000000
00000000
00000010
00000000
00000000
00000000
,
00001000
00000000
00000000
00001000
00000000
00000000
00000010
00000000
00000000
00000001
00000000
00000000
00000100
00000000
00000000
00000000
,
00000010
00000000
00000000
00000010
00000000
00000000
00001000
00000000
00000000
00000100
00000000
00000000
00010000
00000000
00000000
00000000
,
00001000
00000000
00000000
00001000
00000000
00000000
01000000
00000000
00000000
00100000
00000000
00000000
10000000
00000000
00000000
00000000
,
00100000
00000000
00000000
00100000
00000000
00000000
01000000
00000000
00000000
00001000
00000000
00000000
00010000
00000000
00000000
00000000
,
00000010
00000000
00000000
00000010
00000000
00000000
00001000
00000000
00000000
00000100
00000000
00000000
00000001
00000000
00000000
00000000
,
00000010
00000000
00000000
00000010
00000000
00000000
00000001
00000000
00000000
00000100
00000000
00000000
00001000
00000000
00000000
00000000
,
00000100
00000000
00000000
00000100
00000000
00000000
00010000
00000000
00000000
00001000
00000000
00000000
00010000
00000000
00000000
00000000
,
00001000
00010000
00001000
00000000
00010000
00001000
00010000
00000000
,
00001000
01000000
00100000
10000000
,
00010000
10000000
00010000
00000000
10000000
00010000
10000000
00000000
,
00100000
01000000
00100000
00000000
01000000
00100000
01000000
00000000
,
00010000
00100000
00001000
00010000
,
00000010
00000100
00000010
00000100
00000010
00000100
00000010
00000000
,
00002002
00000000
00003003
00000010
,
00002000
00000000
00000010
00000000
00000000
00003010
00000100
00000002
,
00000000
00000000
00001000
00000000
00000000
00001003
00000100
00020000
,
00000000
00031000
00100000
00010000
,
01000000
00000000
00100000
00000000
10000000
00010000
10000000
00020000
,
00000000
00000000
00100000
00000000
00000000
00130000
00001000
00020000
,
00000000
00000000
00000010
00000000
00000000
00030010
00001000
00000002
,
00000000
00000100
00000100
00000103
,
00001001
00000000
00001000
00000000
00000100
00000000
00000010
00000001
,
00000020
00000000
00000001
00000000
00000031
00000100
00000010
00002000
,
00000000
00000000
00000100
00000000
00000000
00003100
00010000
00002000
,
00000000
00000000
01000000
00000000
00000000
01003000
00010000
20000000
,
00000000
00000000
00100000
00000000
00000000
30100000
01000000
00020000
,
00000000
00000000
00100000
00000000
00000000
00130000
00001000
00020000
,
00000000
00000000
00000100
00000000
00000000
00030100
00001000
00000001
,
00001000
00000001
00001000
00000001
00000100
00000010
00000100
00000010
,
00000100
00000000
00000000
00000000
00000000
00000000
00000000
00000000
00000001
00000000
00000000
00000001
00000000
00000000
00000001
00000000
,
00000000
00000000
00001000
00000000
00000000
00000100
00000000
00000000
00000010
00000000
00000000
00000001
00000000
00000000
00000100
00000000
,
00000000
00000000
00000001
00000000
00000000
00000010
00000000
00000000
00001000
00000000
00000000
00000100
00000000
00000000
00001000
00000000
,
00000000
00000000
00000100
00000000
00000000
00010000
00000000
00000000
00001000
00000000
00000000
00010000
00000000
00000000
00000100
00000000
,
00000000
00000000
00010000
00000000
00000000
00001000
00000000
00000000
01000000
00000000
00000000
00100000
00000000
00000000
00010000
00000000
,
00000000
00000000
10000000
00000000
00000000
01000000
00000000
00000000
00100000
00000000
00000000
00001000
00000000
00000000
00010000
00000000
,
00000000
00000000
00000100
00000000
00000000
00001000
00000000
00000000
00000010
00000000
00000000
00000001
00000000
00000000
00000100
00000000
,
00000000
00000000
00000010
00000000
00000000
00001000
00000000
00000000
00000100
00000000
00000000
00010000
00000000
00000000
00001000
00000000
,
00000000
00000000
00100000
00000000
00000000
00010000
00000000
00000000
01000000
00000000
00000000
10000000
00000000
00000000
00010000
00000000
,
10000000
00000000
01000000
00000000
00100000
00010000
00100000
00000000
,
00001000
00000000
00010000
00000000
00000010
00001000
00000010
00000000
,
00000001
00000000
00000010
00000000
00001000
00000100
00001000
00000000
,
00000100
00000000
00010000
00000000
00001000
00100000
00010000
00000000
,
00010000
01000000
00010000
00000000
10000000
01000000
10000000
00000000
,
00010000
00100000
00010000
00000000
00001000
00010000
00001000
00000000
,
00010000
00000010
00001000
00000000
00000001
00001000
00000100
00000000
,
00010000
00001000
00100000
01010000
,
10000000
00000000
00000000
10000000
00000000
00000000
00100000
00000000
00000000
00010000
00000000
00000000
01000000
00000000
00000000
00000000
,
00001000
00000000
00000000
00001000
00000000
00000000
00010000
00000000
00000000
00000010
00000000
00000000
00000100
00000000
00000000
00000000
,
00000001
00000000
00000000
00000001
00000000
00000000
00000010
00000000
00000000
00000100
00000000
00000000
00001000
00000000
00000000
00000000
,
00001000
00000000
00000000
00001000
00000000
00000000
00010000
00000000
00000000
00000100
00000000
00000000
00010000
00000000
00000000
00000000
,
00001000
00000000
00000000
01000000
00000000
00000000
00100000
00000000
00000000
01000000
00000000
00000000
00001000
00000000
00000000
00000000
,
10000000
00000000
00000000
01000000
00000000
00000000
00100000
00000000
00000000
00010000
00000000
00000000
00100000
00000000
00000000
00000000
,
00001000
00000000
00000000
00010000
00000000
00000000
00000100
00000000
00000000
00001000
00000000
00000000
00000001
00000000
00000000
00000000
,
00000001
00000010
00000001
00000010
00000100
00001000
00000100
00001000
,
00000000
00000000
00000000
00000000
00000000
00000100
00010000
00001000
,
00000000
00000000
00000000
00000000
00000000
00100000
00010000
01000000
,
00000000
00000000
00000000
00000000
00000000
00100000
10000000
00010000
,
00000000
00000000
00000000
00000000
00000000
00100000
00001000
00010000
,
00000000
00000000
00000000
00000000
00000000
00000001
00000100
00000010
,
00000000
00000000
00000000
00000000
00000000
00001000
00000100
00020000
,
00002000
00000000
00000000
00000000
,
00000000
00000000
00000000
00000000
,
00000000
00000000
00000000
00000000
,
00033000
00000000
00000000
00000000
;

//---------------dance-single - ----------------
#NOTES:
     dance-single:
     :
     Medium:
     9:
     0.453618,0.524636,0.110036,0.322248,0.231862,404.000000,390.000000,14.000000,41.000000,0.000000,0.000000,0.453618,0.524636,0.110036,0.322248,0.231862,404.000000,390.000000,14.000000,41.000000,0.000000,0.000000:
// measure 0
0000
0000
0000
0000
,  // measure 1
0000
0000
0000
0000
,  // measure 2
2002
0000
3003
0010
,  // measure 3
2002
0000
0000
0000
3003
0001
1000
0020
,  // measure 4
0000
0000
0100
0000
0000
0130
0010
2000
,  // measure 5
0000
3001
1000
0001
,  // measure 6
1000
0000
0100
0000
0010
0100
0010
0200
,  // measure 7
0000
0000
0001
0000
0000
0301
1000
0002
,  // measure 8
0000
0000
1000
0000
0000
1003
0010
2000
,  // measure 9
0000
3001
0100
0010
,  // measure 10
1000
0000
0010
0000
0100
0000
0001
1000
,  // measure 11
0002
0000
0100
0000
0000
0103
0001
0200
,  // measure 12
0000
0000
0010
0000
0000
0301
1000
0002
,  // measure 13
0000
0000
0010
0000
0000
1003
0001
0200
,  // measure 14
0000
0000
0010
0000
0000
0301
1000
0020
,  // measure 15
0000
0000
1000
0000
0000
0130
0010
0200
,  // measure 16
0000
0000
0001
0000
0000
0310
1000
0002
,  // measure 17
0000
0103
0001
1000
,  // measure 18
0220
0000
0330
0000
,  // measure 19
0001
0000
0000
0001
0000
0000
0001
0000
0000
0001
0000
0000
1000
0000
0000
0000
,  // measure 20
0010
0000
0000
0010
0000
0000
0010
0000
0000
1000
0000
0000
0001
0000
0000
0000
,  // measure 21
1000
0000
0000
1000
0000
0000
1000
0000
0000
1000
0000
0000
0001
0000
0000
0000
,  // measure 22
0100
0000
0000
0100
0000
0000
0010
0000
0000
0010
0000
0000
1000
0000
0000
0000
,  // measure 23
0001
0000
0000
0001
0000
0000
1000
0000
0000
1000
0000
0000
0001
0000
0000
0000
,  // measure 24
1000
0000
0000
1000
0000
0000
0001
0000
0000
0001
0000
0000
1000
0000
0000
0000
,  // measure 25
0010
0000
0000
0010
0000
0000
0001
0000
0000
0100
0000
0000
1000
0000
0000
0000
,  // measure 26
0010
0000
0000
0010
0000
0000
1000
0000
0000
0100
0000
0000
0001
0000
0000
0000
,  // measure 27
1000
0000
0000
1000
0000
0000
0100
0000
0000
0010
0000
0000
0001
0000
0000
0000
,  // measure 28
0001
0000
0000
0001
0000
0000
0100
0000
0000
0010
0000
0000
1000
0000
0000
0000
,  // measure 29
0010
0000
0000
0010
0000
0000
0100
0000
0000
0001
0000
0000
1000
0000
0000
0000
,  // measure 30
0100
0000
0000
0100
0000
0000
0010
0000
0000
1000
0000
0000
0001
0000
0000
0000
,  // measure 31
0010
0000
0000
0010
0000
0000
0001
0000
0000
0100
0000
0000
1000
0000
0000
0000
,  // measure 32
0010
0000
0000
0010
0000
0000
1000
0000
0000
0100
0000
0000
0001
0000
0000
0000
,  // measure 33
0100
0001
0100
0000
0010
1000
0010
0000
,  // measure 34
0001
0100
0010
1000
,  // measure 35
0001
1000
0001
0000
1000
0001
1000
0000
,  // measure 36
0010
0100
0010
0000
0100
0010
0100
0000
,  // measure 37
0001
0010
0100
1000
,  // measure 38
0010
0100
0010
0100
0010
0100
0010
0000
,  // measure 39
2002
0000
0000
0000
3003
1000
0001
2000
,  // measure 40
0000
0000
0010
0000
0000
3010
0100
0002
,  // measure 41
0000
0000
1000
0000
0000
1003
0001
0200
,  // measure 42
0000
0310
1000
0001
,  // measure 43
0100
0000
0010
0000
1000
0001
1000
0002
,  // measure 44
0000
0000
0010
0000
0000
0013
0001
0200
,  // measure 45
0000
0000
0001
0000
0000
0310
0100
0002
,  // measure 46
0000
1000
1000
1003
,  // measure 47
1001
0000
0010
0000
0100
0000
0001
1000
,  // measure 48
0002
0000
0010
0000
0013
0001
0100
0020
,  // measure 49
0000
0000
1000
0000
0000
1030
0010
0200
,  // measure 50
0000
0000
0001
0000
0000
0301
1000
0020
,  // measure 51
0000
0000
0100
0000
0000
0130
0001
2000
,  // measure 52
0000
0000
0010
0000
0000
3010
0100
0002
,  // measure 53
0000
0000
0100
0000
0000
0103
0010
1000
,  // measure 54
0010
0100
0010
0100
0001
1000
0001
1000
,  // measure 55
0020
0000
0000
0000
0030
0000
0000
0000
1000
0000
0000
1000
0000
0000
1000
0000
,  // measure 56
0000
0000
0001
0000
0000
0010
0000
0000
0100
0000
0000
1000
0000
0000
0010
0000
,  // measure 57
0000
0000
1000
0000
0000
0010
0000
0000
0001
0000
0000
0100
0000
0000
1000
0000
,  // measure 58
0000
0000
0001
0000
0000
0010
0000
0000
1000
0000
0000
0100
0000
0000
0001
0000
,  // measure 59
0000
0000
0010
0000
0000
0100
0000
0000
0001
0000
0000
0010
0000
0000
1000
0000
,  // measure 60
0000
0000
0100
0000
0000
0010
0000
0000
1000
0000
0000
0010
0000
0000
0001
0000
,  // measure 61
0000
0000
0100
0000
0000
1000
0000
0000
0010
0000
0000
0001
0000
0000
0100
0000
,  // measure 62
0000
0000
0010
0000
0000
1000
0000
0000
0100
0000
0000
0001
0000
0000
0100
0000
,  // measure 63
0000
0000
0010
0000
0000
0001
0000
0000
0100
0000
0000
1000
0000
0000
0001
0000
,  // measure 64
1000
0000
0100
0000
0010
0001
0010
0000
,  // measure 65
0001
0100
0001
0000
0010
1000
0010
0000
,  // measure 66
1000
0000
0100
0000
0010
0001
0010
0000
,  // measure 67
0001
0100
0001
0000
0010
1000
0010
0000
,  // measure 68
0001
0100
0001
0100
1000
0100
1000
0000
,  // measure 69
0001
0010
0001
0010
1000
0010
1000
0000
,  // measure 70
0001
0100
0010
0000
1000
0010
0100
0000
,  // measure 71
1001
0110
1010
0101
,  // measure 72
1000
0000
0000
1000
0000
0000
0010
0000
0000
0001
0000
0000
0100
0000
0000
0000
,  // measure 73
0001
0000
0000
0001
0000
0000
0100
0000
0000
1000
0000
0000
0010
0000
0000
0000
,  // measure 74
1000
0000
0000
0001
0000
0000
0100
0000
0000
0010
0000
0000
1001
0000
0000
0000
,  // measure 75
0001
0000
0000
1000
0000
0000
0010
0000
0000
0100
0000
0000
1001
0000
0000
0000
,  // measure 76
0001
0000
0000
0100
0000
0000
0010
0000
0000
0100
0000
0000
1001
0000
0000
0000
,  // measure 77
1000
0000
0000
0100
0000
0000
0010
0000
0000
0001
0000
0000
0110
0000
0000
0000
,  // measure 78
0001
0000
0000
0001
0000
0000
0010
0000
0000
1000
0000
0000
1001
0000
0000
0000
,  // measure 79
1000
0100
1000
0100
0010
0001
0010
0002
,  // measure 80
0000
0000
0003
0000
0000
0001
0100
0020
,  // measure 81
0000
0000
0030
0000
0000
1000
0001
0200
,  // measure 82
0000
0000
0300
0000
0000
0010
1000
0002
,  // measure 83
0000
0000
0003
0000
0000
0010
0100
0002
,  // measure 84
0000
0000
0003
0000
0000
1000
0010
0200
,  // measure 85
0000
0000
0300
0000
0000
0001
1000
0002
,  // measure 86
2000
0000
0000
0000
,  // measure 87
0000
0000
0000
0000
,  // measure 88
0000
0000
0000
0000
,  // measure 89
3003
0000
0000
0000
;

//---------------dance-double - ----------------
#NOTES:
     dance-double:
     :
     Easy:
     6:
     0.352565,0.454685,0.086457,0.172914,0.000000,314.000000,303.000000,11.000000,22.000000,0.000000,0.000000,0.352565,0.454685,0.086457,0.172914,0.000000,314.000000,303.000000,11.000000,22.000000,0.000000,0.000000:
00000000
00000000
00000000
00000000
,
00000000
00000000
00000000
00000000
,
00000000
00000000
00000000
00000000
,
00100000
01000000
00001000
00001000
,
00010000
00000010
00000100
00000100
,
00000001
00001000
00000100
00000100
,
00010000
00001000
01000000
01000000
,
00010000
00100000
10000000
00100000
,
00010000
01000000
10000000
01000000
,
00010000
00010000
10000000
10000000
,
00100000
01000000
00001000
00011000
,
00010000
00000010
00000100
00000100
,
00000001
00000100
00000010
00000010
,
00001000
00000100
00010000
00010000
,
00001000
01000000
00100000
00100000
,
10000000
01000000
00100000
00010000
,
00100000
00001000
00001000
00010000
,
00000020
00000100
00000100
00000130
,
00000001
00000010
00000100
00001001
,
00000010
00001000
00000100
00000100
,
00010000
00001000
01000000
01000000
,
00010000
10000000
01000000
00100000
,
00010000
00100000
01000000
10000000
,
00010000
00010000
00100000
00001000
,
00010000
00010000
00000010
00001000
,
00000001
00000100
00001000
00000100
,
00000001
00000010
00001000
00001000
,
00000100
00010000
00001000
00001000
,
00100000
00010000
01000000
01000000
,
00100000
10000000
01000000
00100000
,
00001000
00010000
00001000
00010000
,
00000010
00000100
00000001
00001000
,
00000010
00000100
00000001
00001000
,
00000100
00000100
00010000
00010000
,
00001000
00001000
01000000
01000000
,
00010000
00100000
01000000
10000000
,
00010000
00100000
00001000
00010000
,
00001000
00010000
00000010
00001000
,
00000001
00000100
00000010
00001000
,
00002002
00000000
00003003
00000010
,
00000200
00000300
00000001
00001000
,
00000200
00000300
00010000
00001000
,
02000000
03000000
00010000
10000000
,
00200000
00300000
10000000
00010000
,
00200000
00300000
00001000
00010000
,
00000020
00000030
00001000
00000010
,
00000002
00000003
00000100
00001000
,
00020000
00030000
00001000
01000000
,
00010000
01000000
10000000
01000000
,
00010000
00100000
00001000
00010000
,
00000010
00001000
00000010
00000001
,
00000100
00001000
00000100
00001000
,
00000200
00010000
00010000
00010300
,
00002000
00100000
00100000
00103000
,
00020000
10000000
10000000
10030000
,
01100000
00000000
10010000
00000000
,
10000000
01000000
00100000
00010000
,
00100000
00001000
00010000
00001000
,
00100000
00010000
01000000
10000000
,
00100000
01000000
00001000
00010000
,
00000010
00001000
00000010
00000001
,
00000100
00001000
00000100
00000001
,
00000010
00001000
00000100
00010000
,
00001000
00001000
00011000
00010000
,
00001000
00100000
00010000
01000000
,
00100000
10000000
01000000
00100000
,
00001000
00010000
00000010
00001000
,
00000001
00000010
00000100
00001000
,
00000010
00000010
00001001
00001001
,
00000100
00000100
00001001
00001001
,
00000010
00001000
00000100
00010000
,
00001000
01000000
00100000
10000000
,
01000000
00010000
01000000
10000000
,
00100000
00010000
00100000
00001000
,
00010000
00000010
00001000
00000010
,
00000001
00000100
00001000
00000100
,
00000001
00000010
00001000
00000100
,
00010000
00001000
01000000
00100000
,
00010000
00100000
01000000
10000000
,
00100000
00010000
01000000
00001000
,
00020000
00000000
00030000
00000000
,
00000020
00000000
00000030
00000000
,
00000002
00000000
00000003
00000000
,
00000200
00000000
00000300
00000000
,
00002000
00000000
00003000
00000000
,
00020000
00000000
00030000
00000000
,
00022000
00000000
00000000
00000000
,
00000000
00000000
00000000
00000000
,
00000000
00000000
00000000
00000000
,
00033000
00000000
00000000
00000000
;

//---------------dance-single - ----------------
#NOTES:
     dance-single:
     :
     Easy:
     7:
     0.416565,0.489661,0.471583,0.125756,0.000000,371.000000,311.000000,60.000000,16.000000,0.000000,0.000000,0.416565,0.489661,0.471583,0.125756,0.000000,371.000000,311.000000,60.000000,16.000000,0.000000,0.000000:
// measure 0
0000
0000
0000
0000
,  // measure 1
0000
0000
0000
0000
,  // measure 2
0000
0000
0000
0000
,  // measure 3
0010
0001
0010
0001
,  // measure 4
1000
0100
1000
0100
,  // measure 5
0001
0010
0001
0010
,  // measure 6
1000
0010
1000
0010
,  // measure 7
0001
0100
1000
0100
,  // measure 8
0001
0010
1000
0010
,  // measure 9
0001
0010
0100
1000
,  // measure 10
1000
0100
0010
0001
,  // measure 11
0010
0001
0100
0100
,  // measure 12
0010
1000
0100
0100
,  // measure 13
0001
0010
0100
0100
,  // measure 14
1000
0010
0100
0100
,  // measure 15
0002
0010
0010
0013
,  // measure 16
2000
0100
0100
3100
,  // measure 17
0010
0001
0100
1000
,  // measure 18
0010
0100
0001
1000
,  // measure 19
1001
1000
0001
0100
,  // measure 20
1001
0001
1000
0010
,  // measure 21
1100
0010
0001
0100
,  // measure 22
0101
0010
1000
0100
,  // measure 23
1001
0100
0001
1000
,  // measure 24
1001
0100
1000
0001
,  // measure 25
0110
0001
0010
0100
,  // measure 26
0110
1000
0100
0010
,  // measure 27
0001
0001
0100
1001
,  // measure 28
1000
1000
0100
1001
,  // measure 29
0010
0001
0100
1001
,  // measure 30
0010
1000
0100
1001
,  // measure 31
0010
0010
0110
1001
,  // measure 32
0100
0100
0110
1001
,  // measure 33
0002
0013
2000
3100
,  // measure 34
0020
0130
0002
1003
,  // measure 35
0001
0010
0100
1000
,  // measure 36
1000
0100
0010
0001
,  // measure 37
1000
0010
0001
0100
,  // measure 38
0001
0010
1000
0100
,  // measure 39
2002
0000
3003
0010
,  // measure 40
1001
0100
0001
0100
,  // measure 41
1001
0010
1000
0010
,  // measure 42
1001
0010
0001
0100
,  // measure 43
1001
0010
1000
0100
,  // measure 44
1010
0100
0001
0010
,  // measure 45
0101
0010
1000
0100
,  // measure 46
1001
0100
0010
1000
,  // measure 47
0011
0100
1000
0010
,  // measure 48
1001
0001
1000
0010
,  // measure 49
1001
1000
0001
0010
,  // measure 50
1001
0100
0001
0010
,  // measure 51
1001
0100
1000
0010
,  // measure 52
0001
0010
1000
0011
,  // measure 53
1000
0010
0001
1010
,  // measure 54
0001
0100
1000
0010
,  // measure 55
1001
0000
0110
0000
,  // measure 56
0001
0100
0010
1001
,  // measure 57
1000
0010
0100
1001
,  // measure 58
0001
0100
1000
1001
,  // measure 59
1000
0100
0001
1001
,  // measure 60
0010
0001
0100
1010
,  // measure 61
0100
0001
0010
1100
,  // measure 62
0010
1000
0001
0110
,  // measure 63
0010
0001
0100
1010
,  // measure 64
0001
0100
1010
0101
,  // measure 65
1000
0100
0011
1100
,  // measure 66
0010
0100
1001
0110
,  // measure 67
0001
0100
1010
0101
,  // measure 68
1000
0100
0001
1001
,  // measure 69
0001
0100
1000
1001
,  // measure 70
0010
0001
0100
1100
,  // measure 71
1000
0100
0001
0011
,  // measure 72
0100
0010
0100
0010
,  // measure 73
1000
0100
0010
0001
,  // measure 74
0010
0100
0010
0100
,  // measure 75
0001
0010
0100
1000
,  // measure 76
0001
0010
1000
0011
,  // measure 77
1000
0010
0001
1100
,  // measure 78
0010
0100
1001
0110
,  // measure 79
0100
0010
1001
0110
,  // measure 80
0002
0000
0003
0000
,  // measure 81
2000
0000
3000
0000
,  // measure 82
0020
0000
0030
0000
,  // measure 83
0200
0000
0300
0000
,  // measure 84
0002
0000
0003
0000
,  // measure 85
2000
0000
3000
0000
,  // measure 86
2002
0000
0000
0000
,  // measure 87
0000
0000
0000
0000
,  // measure 88
0000
0000
0000
0000
,  // measure 89
3003
0000
0000
0000
;
