#VERSION:0.83;
#TITLE:Vinculum stellarum;
#SUBTITLE:;
#ARTIST:iconoclasm;
#TITLETRANSLIT:;
#SUBTITLETRANSLIT:;
#ARTISTTRANSLIT:;
#GENRE:;
#ORIGIN:;
#CREDIT:;
#BANNER:Vinculum stellarum.png;
#BACKGROUND:Vinculum stellarum-bg.png;
#PREVIEWVID:;
#JACKET:Vinculum stellarum-jacket.png;
#CDIMAGE:;
#DISCIMAGE:;
#LYRICSPATH:;
#CDTITLE:;
#MUSIC:Vinculum stellarum.ogg;
#OFFSET:1.109000;
#SAMPLESTART:94.139824;
#SAMPLELENGTH:12.000000;
#SELECTABLE:YES;
#BPMS:0.000=160.000;
#STOPS:;
#DELAYS:;
#WARPS:;
#TIMESIGNATURES:0.000=4=4;
#TICKCOUNTS:0.000=4;
#COMBOS:0.000=1;
#SPEEDS:0.000=1.000=0.000=0;
#SCROLLS:0.000=1.000;
#FAKES:;
#LABELS:0.000=Song Start;
#BGCHANGES:;
#KEYSOUNDS:;
#ATTACKS:
;

//---------------dance-single - ----------------
#NOTEDATA:;
#CHARTNAME:;
#STEPSTYPE:dance-single;
#DESCRIPTION:;
#CHARTSTYLE:;
#DIFFICULTY:Hard;
#METER:15;
#RADARVALUES:0.627064,0.785062,0.144935,0.255361,0.524525,636.000000,615.000000,21.000000,37.000000,0.000000,0.000000,0.000000,0.000000,0.000000,0.627064,0.785062,0.144935,0.255361,0.524525,636.000000,615.000000,21.000000,37.000000,0.000000,0.000000,0.000000,0.000000,0.000000;
#CREDIT:;
#NOTES:
0000
0000
0000
0000
,
0000
0000
0000
0000
,
0000
0000
0000
0000
,
0000
0000
0000
0000
,
0000
0000
0000
0000
,
0000
0000
0000
0000
,
0000
0000
0000
0000
,
0000
0000
0000
0000
,
0000
0000
0000
0000
,
0001
0010
0001
0010
0100
1000
0001
0010
0001
0010
0100
1000
,
0010
0100
0010
1000
0100
0010
0001
0010
0001
1000
0100
0010
,
0001
0010
0001
0010
0001
1000
0100
1000
0100
1000
0010
0100
,
0010
0100
0010
1000
0001
1000
0001
1000
0010
0100
0010
0100
,
0010
0000
0000
1000
0100
0010
0001
0010
0100
1000
0000
0000
,
0100
0000
0000
0001
0010
0100
1000
0100
0010
0001
0000
0000
,
2000
0000
0002
3000
,
0200
0003
0020
0300
,
2000
0030
0002
3000
,
0020
0003
0200
0030
,
0310
0001
0010
0001
1000
0010
1000
0010
,
1000
0100
1000
0100
0010
0001
0010
0001
,
0100
0000
0000
0000
0000
0000
0000
0010
0100
0000
0000
0000
0000
0000
0000
0000
,
1000
0010
0000
0010
0100
0000
0001
0100
0000
0100
0010
0000
1000
0000
0000
0000
,
0001
0100
0001
0000
1000
0000
1000
0000
0010
0100
0010
0000
1000
0000
1000
0000
,
0001
0010
0001
0000
1000
0000
0100
0000
0010
0000
0001
0000
0100
0000
0010
0000
,
1000
0010
1000
0000
0001
0000
0001
0000
1000
0100
1000
0000
0010
0000
0010
0000
,
1000
0001
0010
0100
0010
0001
0100
0100
,
0010
1000
0010
0000
1000
0000
0100
0000
0010
0000
0001
0000
0010
0000
0100
0000
,
1000
0001
1000
0000
0001
0000
0010
0000
0100
0000
0010
0000
0001
0000
1000
0000
,
0010
1000
0010
0000
1000
0000
0001
0000
0010
0000
0100
0000
0010
0000
0001
0000
,
0100
0010
0100
0000
0001
0000
0001
0000
1000
0010
1000
0000
0001
0000
0001
0000
,
1000
0100
0010
0000
0001
0000
0010
0000
0001
0000
1000
0000
0100
0000
0010
0000
,
0001
0010
0100
0000
1000
0000
0001
0000
0010
0000
0100
0000
0010
0000
0001
0000
,
0100
0000
0010
0000
1000
0000
0001
0100
0001
0000
1000
0100
1000
0000
0001
0100
,
0001
0000
0000
1000
0010
0000
0010
0000
0100
0000
0000
0001
0100
0000
0100
0000
,
0010
0000
1000
0010
1000
0000
0001
0000
0001
0000
0100
0000
1000
0000
0100
0000
,
0001
0000
0100
0001
0100
0000
1000
0000
1000
0000
0010
0000
0001
0000
0010
0000
,
2000
3002
0023
0230
,
0301
0010
0000
0010
0100
0000
0100
1000
0000
1000
0100
0000
0010
0001
0010
0000
,
0001
0000
1000
0000
0010
0100
0010
0100
0010
0000
1000
0000
0001
0000
0010
0000
,
0100
0000
0010
0000
0001
0010
0001
0010
0001
0000
0100
0000
0110
0000
0000
1000
,
0001
0000
0010
0001
0100
0100
0010
1000
,
0001
0000
0000
0000
1000
0000
0010
0000
0100
0000
0010
0000
1000
0000
0001
0100
,
0001
0000
0000
0000
1000
0000
0010
0000
0100
0010
0100
0000
0001
0000
0100
0000
,
0010
1000
0010
0000
1000
0000
0100
0000
0010
0001
0010
0000
0001
0000
0100
0000
,
0020
2030
3200
0320
,
0031
0010
0100
0010
0001
1000
0100
0010
,
1001
0000
0000
0001
0010
0100
1000
0000
0000
1100
0000
0000
,
0011
0000
0000
1000
0100
0010
0001
0000
0000
0110
0000
0000
,
1001
0000
0000
0010
0100
0001
1000
0000
0000
0011
0000
0000
,
1100
0101
1100
0110
,
1001
0000
0000
0010
0100
0001
1000
0000
0000
1001
0000
0000
,
0110
0000
0000
0100
0010
1000
0001
0000
0000
0110
0000
0000
,
1001
0000
0000
0010
1000
0001
0100
0000
0000
0110
0000
0000
,
1001
0000
0000
0100
0001
1000
0010
0000
0000
1001
0000
0000
,
0002
0000
2003
0000
,
3020
0000
0230
0000
,
0320
0000
2030
0000
,
3002
0000
0023
0000
,
0230
0000
0302
0000
,
0023
0000
0230
0000
,
2300
0100
0010
3001
,
0200
0000
0020
0330
,
2002
0000
0000
3003
0000
0000
0001
0010
0100
0010
0100
1000
,
0001
0000
1000
0000
0010
0000
0100
0000
0001
0100
0001
0000
1000
0000
0010
0000
,
1000
0000
0100
0000
0010
0000
0001
0000
0100
0010
0100
0000
0001
0000
1000
0000
,
0001
0000
1000
0000
0100
0000
0010
0000
0001
0010
0001
0000
1000
0100
1000
0000
,
0010
0000
0100
0000
0010
0000
1000
0000
0001
0100
0001
0000
0010
1000
0010
0000
,
1000
0100
1000
0000
0010
0000
0001
0000
0100
0010
0100
0000
0010
0000
1000
0000
,
0001
0010
0001
0000
0100
0000
0001
0000
1000
0010
1000
0000
0010
0000
1000
0000
,
0001
0100
0001
0000
1000
0000
0010
0000
0100
0001
0100
0000
0010
0000
1000
0000
,
0001
0010
0001
0000
1000
0100
1000
0000
0010
0100
0010
0100
0010
0000
1000
0000
,
0001
0010
0001
0000
0100
0000
0010
0100
0010
0000
1000
0000
0100
0000
0010
0000
,
0001
0100
0001
0000
1000
0000
0100
1000
0100
0000
1000
0000
0001
0000
0010
0000
,
0100
0010
0100
0000
0001
0000
1000
0010
1000
0010
1000
0000
0001
0000
0100
0000
,
0010
0100
0010
0000
1000
0000
0001
0100
0001
0100
0001
0000
1000
0000
0001
0000
,
0010
0001
0000
0000
0100
0000
0000
0000
0010
1000
0000
0000
0100
0000
0000
0000
,
0001
1000
0000
0000
0010
0000
0000
0000
1000
0001
0000
0000
0100
0000
0000
0000
,
0001
0010
0001
0010
0001
0000
0000
0000
1000
0100
1000
0100
1000
0000
0000
0000
,
0010
0100
0010
0000
1000
0010
1000
0000
0001
0100
0001
0000
0100
0010
0100
0000
,
0020
0000
2000
3030
,
0001
0000
1000
0010
1000
0000
0001
0000
0010
0000
0100
0000
0010
0000
0001
0000
,
1000
0000
0010
0100
0010
0000
1000
0000
0001
0000
0010
0000
0100
0000
0010
0100
,
0010
0000
1000
0010
1000
0000
0001
0000
0100
0000
0010
0000
1000
0000
0100
0000
,
0010
0000
0001
0100
0001
0000
1000
0000
0010
0100
0010
0100
0010
0100
0010
0100
,
0010
0000
1000
0010
1000
0000
0001
0000
0010
0000
0100
0000
0010
0001
0010
0000
,
0001
0000
1000
0100
1000
0000
0001
0000
0010
0000
0100
0000
0010
0001
0010
0001
,
0010
0000
0000
0001
0100
0000
0010
0000
0000
0000
0000
0000
1000
0010
1000
0010
,
1000
0000
0000
0001
0000
0000
0100
0000
0000
0000
0001
0000
0100
0000
0010
0000
,
2002
0000
0000
0000
,
0000
0000
0000
0000
,
3003
0000
0000
0000
;

//---------------dance-single - ----------------
#NOTEDATA:;
#CHARTNAME:;
#STEPSTYPE:dance-single;
#DESCRIPTION:;
#CHARTSTYLE:;
#DIFFICULTY:Medium;
#METER:9;
#RADARVALUES:0.397338,0.502440,0.372689,0.151836,0.000000,403.000000,349.000000,54.000000,22.000000,0.000000,0.000000,0.000000,0.000000,0.000000,0.397338,0.502440,0.372689,0.151836,0.000000,403.000000,349.000000,54.000000,22.000000,0.000000,0.000000,0.000000,0.000000,0.000000;
#CREDIT:;
#NOTES:
0000
0000
0000
0000
,
0000
0000
0000
0000
,
0000
0000
0000
0000
,
0000
0000
0000
0000
,
0000
0000
0000
0000
,
0000
0000
0000
0000
,
0000
0000
0000
0000
,
0000
0000
0000
0000
,
0000
0000
0000
0000
,
0010
0000
1000
0000
,
0100
0000
0001
0000
,
0010
0000
0001
0000
,
0100
0000
1000
0000
,
0010
0000
0100
0000
,
0001
0000
1000
0000
,
0200
0000
0300
0000
,
0020
0000
0030
0000
,
2000
0000
3000
0000
,
0002
0000
0003
0000
,
1000
0001
0000
0001
0000
0001
0000
1000
,
0010
0100
0000
0100
0000
0100
0000
0001
,
0100
0010
0000
0010
0000
0010
0000
0010
,
1000
0000
0001
0000
1000
0001
1000
0000
,
0010
0100
0010
0000
1000
0000
1001
0000
,
0100
0010
0100
0000
0001
0000
1001
0000
,
0010
1000
0100
0000
1000
0000
1001
0000
,
0010
0001
0100
0000
0010
0000
1001
0000
,
0100
0100
0100
0000
0010
0000
1001
0000
,
0010
0010
0010
0000
0100
0000
1001
0000
,
1000
0100
1000
0000
0001
0100
0001
0000
,
0100
0010
0100
0010
0100
0000
1001
0000
,
0010
0001
0100
0000
0010
0000
1001
0000
,
1000
0100
0010
0000
1000
0000
0101
0000
,
0010
0001
0100
0000
0010
0000
1100
0000
,
0010
0100
0001
0000
1000
0000
0110
0000
,
0001
0100
0001
0000
1000
0100
1000
0000
,
0010
1000
0010
0000
0100
0001
0100
0000
,
0001
0010
0100
0000
0010
0100
1000
0000
,
0010
0100
1001
0110
,
2000
0100
0010
3100
,
0002
0010
0100
0013
,
2000
0010
0001
3100
,
0002
0010
1000
0103
,
0010
1000
0100
0000
1100
0000
0101
0000
,
0010
0001
0100
0000
0101
0000
1100
0000
,
0010
0100
0010
0000
1000
0100
0010
0000
,
0100
0010
0001
0000
1000
0000
0100
0000
,
0010
0000
1001
0110
,
1001
0000
1100
0011
,
0110
0000
0101
0000
,
1100
0000
0110
1001
,
0110
0000
1010
0011
,
0110
0000
0101
1100
,
0010
0000
1001
0000
,
1100
0110
0011
0110
,
2001
0000
0010
0000
,
0100
0000
0010
0000
,
3002
0000
0100
0000
,
0010
0000
1000
0000
,
0203
0000
0320
0000
,
2030
0000
3002
0000
,
0023
0000
0230
0000
,
0302
0000
2000
0000
,
3003
0000
0110
0000
,
0001
0100
0001
1000
0001
0100
0001
1000
,
0001
0100
0001
1000
0001
0100
0001
0000
,
1000
0010
1000
0001
1000
0100
1000
0010
,
1000
0001
1000
0100
0010
0001
0100
0000
,
0001
0010
0001
0010
0001
0010
0001
0000
,
1000
0100
1000
0100
1000
0100
1000
0000
,
0010
0010
0100
0000
0100
0100
0010
0000
,
1010
0101
0010
1001
,
0001
0100
0001
0100
0001
1000
0100
0000
,
1000
0010
1000
0010
1000
0001
0010
0000
,
0001
0100
0010
0100
0001
0100
0010
0000
,
1000
0100
0010
0100
1000
0100
0010
0000
,
0001
0100
0010
0000
1000
0100
0010
0000
,
0001
0100
0010
0000
1000
0100
0010
0000
,
0001
0100
0001
0100
0010
1000
0010
1000
,
0001
0100
1000
0000
0001
0010
1000
0000
,
0220
0000
0000
0330
,
0001
0000
1100
0000
0001
0010
0100
0000
,
1000
0000
0101
0000
1000
0100
0010
0000
,
0110
0000
1001
0000
0010
0001
0100
0000
,
0110
0000
1001
0000
0100
0010
1000
0000
,
0001
0100
0010
0000
1000
0100
0001
0000
,
0100
0010
1000
0000
1000
0100
0001
0000
,
0010
0001
0100
0000
0010
1000
0100
0000
,
0010
0110
1001
0110
,
2002
0000
0000
0000
,
0000
0000
0000
0000
,
3003
0000
0000
0000
;

//---------------dance-single - ----------------
#NOTEDATA:;
#CHARTNAME:;
#STEPSTYPE:dance-single;
#DESCRIPTION:;
#CHARTSTYLE:;
#DIFFICULTY:Easy;
#METER:7;
#RADARVALUES:0.324377,0.471037,0.338181,0.276066,0.000000,329.000000,280.000000,49.000000,40.000000,0.000000,0.000000,0.000000,0.000000,0.000000,0.324377,0.471037,0.338181,0.276066,0.000000,329.000000,280.000000,49.000000,40.000000,0.000000,0.000000,0.000000,0.000000,0.000000;
#CREDIT:;
#NOTES:
// measure 0
0000
0000
0000
0000
,  // measure 1
0000
0000
0000
0000
,  // measure 2
0000
0000
0000
0000
,  // measure 3
0000
0000
0000
0000
,  // measure 4
0000
0000
0000
0000
,  // measure 5
0000
0000
0000
0000
,  // measure 6
0000
0000
0000
0000
,  // measure 7
0000
0000
0000
0000
,  // measure 8
0000
0000
0000
0000
,  // measure 9
0100
0000
0001
0000
,  // measure 10
0100
0000
1000
0000
,  // measure 11
0010
0000
0001
0000
,  // measure 12
0010
0000
1000
0000
,  // measure 13
0100
0000
0001
0000
,  // measure 14
0010
0000
1000
0000
,  // measure 15
0200
0000
0000
0000
,  // measure 16
0320
0000
0000
0000
,  // measure 17
2030
0000
0000
0000
,  // measure 18
3002
0000
0000
0003
,  // measure 19
0100
0001
0100
0001
,  // measure 20
0100
1000
0100
1000
,  // measure 21
0100
0001
0100
1000
,  // measure 22
0010
0001
0100
1001
,  // measure 23
1000
0100
1000
1001
,  // measure 24
0010
0001
0100
1001
,  // measure 25
0010
0000
0100
0000
0001
0001
0001
0000
,  // measure 26
0100
0000
0010
0000
1000
1000
1000
0000
,  // measure 27
0010
1000
0100
1001
,  // measure 28
0010
0001
0100
1001
,  // measure 29
0100
0000
0010
0000
1000
0001
1000
0000
,  // measure 30
0010
0010
0100
1001
,  // measure 31
0010
0001
0100
0101
,  // measure 32
0010
1000
0100
1100
,  // measure 33
0010
0101
0010
1100
,  // measure 34
0100
1001
0010
1001
,  // measure 35
0100
0001
0100
0000
0010
1000
0010
0000
,  // measure 36
0100
0010
0100
0000
0001
1000
0001
0000
,  // measure 37
1000
0101
1000
0011
,  // measure 38
0200
0010
0010
0310
,  // measure 39
0002
0010
0010
0010
,  // measure 40
0100
0100
0100
0103
,  // measure 41
2000
0100
0100
0100
,  // measure 42
0010
0010
0010
3010
,  // measure 43
0002
0100
0100
1003
,  // measure 44
2000
0010
0010
3001
,  // measure 45
0200
0310
0020
0130
,  // measure 46
0001
0100
1000
0100
,  // measure 47
2002
3003
2200
3300
,  // measure 48
0022
0033
0220
0330
,  // measure 49
2002
3003
0220
0330
,  // measure 50
1000
0100
0010
0001
,  // measure 51
2200
3300
0022
0033
,  // measure 52
0220
0330
2002
3003
,  // measure 53
2200
3300
0022
0033
,  // measure 54
0001
0010
0100
1000
,  // measure 55
0101
0000
1000
0000
,  // measure 56
0010
0000
0100
0000
,  // measure 57
0001
0000
1000
0000
,  // measure 58
0100
0000
0010
0000
,  // measure 59
0001
0000
0100
0000
,  // measure 60
1000
0000
0010
0000
,  // measure 61
0002
0000
0000
0003
,  // measure 62
2000
0000
0000
3000
,  // measure 63
0010
0000
0000
0000
,  // measure 64
0001
0000
0100
0001
0100
0000
0001
0000
,  // measure 65
1000
0000
0010
1000
0010
0000
1000
0000
,  // measure 66
0010
0100
0010
0000
0100
0000
0100
0000
,  // measure 67
0010
0100
0010
0000
1001
0000
0000
0000
,  // measure 68
0100
0001
0100
0001
0100
0000
0000
0000
,  // measure 69
1000
0010
1000
0010
1000
0000
0000
0000
,  // measure 70
0001
0100
0010
0000
1000
0000
1000
0000
,  // measure 71
0010
0100
0001
0000
1000
0000
0000
0000
,  // measure 72
0100
0100
0110
0110
,  // measure 73
0001
0001
1010
1010
,  // measure 74
0100
0110
1001
0110
,  // measure 75
0001
0100
1000
0010
,  // measure 76
0100
0001
0100
0000
0010
0000
0010
0000
,  // measure 77
1000
0100
1000
0000
0010
0000
0010
0000
,  // measure 78
1000
0100
0010
0000
0100
0010
0001
0000
,  // measure 79
0100
0100
1001
1001
,  // measure 80
0020
0000
0000
0030
,  // measure 81
0001
0100
1000
0110
,  // measure 82
1000
0100
0001
0110
,  // measure 83
0001
1000
0100
0010
,  // measure 84
0001
0100
0001
0000
1000
0010
1000
0000
,  // measure 85
0001
0100
0110
1001
,  // measure 86
1000
0100
0110
1001
,  // measure 87
0010
0110
1000
0101
,  // measure 88
0010
1001
0110
1001
,  // measure 89
0220
0000
0000
0000
,  // measure 90
0000
0000
0000
0000
,  // measure 91
0330
0000
0000
0000
;

//---------------dance-single - ----------------
#NOTEDATA:;
#CHARTNAME:;
#STEPSTYPE:dance-single;
#DESCRIPTION:;
#CHARTSTYLE:;
#DIFFICULTY:Beginner;
#METER:4;
#RADARVALUES:0.153808,0.251220,0.034508,0.013803,0.000000,156.000000,151.000000,5.000000,2.000000,0.000000,0.000000,0.000000,0.000000,0.000000,0.153808,0.251220,0.034508,0.013803,0.000000,156.000000,151.000000,5.000000,2.000000,0.000000,0.000000,0.000000,0.000000,0.000000;
#CREDIT:;
#NOTES:
// measure 0
0000
0000
0000
0000
,  // measure 1
0000
0000
0000
0000
,  // measure 2
0000
0000
0000
0000
,  // measure 3
0000
0000
0000
0000
,  // measure 4
0000
0000
0000
0000
,  // measure 5
0000
0000
0000
0000
,  // measure 6
0000
0000
0000
0000
,  // measure 7
0000
0000
0000
0000
,  // measure 8
0000
0000
0000
0000
,  // measure 9
0100
0000
0000
0000
,  // measure 10
0100
0000
0000
0000
,  // measure 11
0010
0000
0000
0000
,  // measure 12
0010
0000
0000
0000
,  // measure 13
0100
0000
0000
0000
,  // measure 14
0010
0000
0000
0000
,  // measure 15
0100
0000
0000
0000
,  // measure 16
0000
0000
0000
0000
,  // measure 17
1000
0000
0000
0000
,  // measure 18
0000
0000
0000
0000
,  // measure 19
0010
0000
0010
0000
,  // measure 20
0010
0000
0000
0000
,  // measure 21
0100
0000
0100
0000
,  // measure 22
0100
0000
0000
0000
,  // measure 23
1000
0000
0000
0000
,  // measure 24
0010
0000
0000
0000
,  // measure 25
0100
0000
0000
0000
,  // measure 26
0001
0000
0000
0000
,  // measure 27
0010
0000
0100
0000
,  // measure 28
0010
0000
0100
0000
,  // measure 29
1000
0000
0001
0000
,  // measure 30
1000
1000
1000
0000
,  // measure 31
0010
0000
0100
0000
,  // measure 32
0010
0010
0010
0000
,  // measure 33
0100
0000
0010
0000
,  // measure 34
0100
0100
0100
0000
,  // measure 35
0001
0000
1000
0000
,  // measure 36
0001
0001
0001
0000
,  // measure 37
1000
0000
1000
0000
,  // measure 38
1000
1000
1000
0000
,  // measure 39
0001
0000
0010
0000
,  // measure 40
0100
0000
0000
0000
,  // measure 41
1000
0000
0100
0000
,  // measure 42
0010
0000
0000
0000
,  // measure 43
0100
0100
0100
0000
,  // measure 44
0010
0010
0010
0000
,  // measure 45
0100
0000
0010
0000
,  // measure 46
0100
0100
0100
0000
,  // measure 47
1000
0000
1000
1000
,  // measure 48
1000
0000
0001
0001
,  // measure 49
0001
0000
0100
0100
,  // measure 50
0100
0000
0010
0000
,  // measure 51
1001
0000
0001
0001
,  // measure 52
0001
0000
1000
1000
,  // measure 53
1000
0000
1001
0000
,  // measure 54
0010
0010
0010
0000
,  // measure 55
1001
0000
0000
0000
,  // measure 56
0010
0000
0000
0000
,  // measure 57
0001
0000
0000
0000
,  // measure 58
0100
0000
0000
0000
,  // measure 59
1000
0000
0100
0000
,  // measure 60
0010
0000
0001
0000
,  // measure 61
0100
0000
0010
0000
,  // measure 62
1000
0000
0000
0000
,  // measure 63
1001
0000
0000
0000
,  // measure 64
0001
0000
0100
0000
,  // measure 65
1000
0000
0010
0000
,  // measure 66
1000
0000
0100
0000
,  // measure 67
0010
0000
0001
0000
,  // measure 68
0100
0000
0100
0000
,  // measure 69
1000
0000
1000
0000
,  // measure 70
0010
0000
0010
0000
,  // measure 71
0001
0000
0001
0000
,  // measure 72
0100
0100
0100
0000
,  // measure 73
0001
0000
0000
0000
,  // measure 74
0010
0010
0010
0000
,  // measure 75
1000
0000
0000
0000
,  // measure 76
0100
0000
0010
0000
,  // measure 77
1000
0000
0010
0000
,  // measure 78
1000
0000
0100
0000
,  // measure 79
0100
0000
0001
0000
,  // measure 80
0000
0000
0000
0000
,  // measure 81
0001
0000
1000
0000
,  // measure 82
1000
0000
0001
0000
,  // measure 83
0001
0001
0001
0000
,  // measure 84
1000
1000
1000
0000
,  // measure 85
0001
0000
0010
0000
,  // measure 86
1000
0000
0100
0000
,  // measure 87
0010
0010
0010
0000
,  // measure 88
0100
0100
0100
0000
,  // measure 89
2002
0000
0000
0000
,  // measure 90
0000
0000
0000
0000
,  // measure 91
3003
0000
0000
0000
;
