#TITLE:VIVID DEBUT!;
#SUBTITLE:;
#ARTIST:#EmoCosine;
#TITLETRANSLIT:;
#SUBTITLETRANSLIT:;
#ARTISTTRANSLIT:;
#GENRE:;
#CREDIT:;
#BANNER:VIVID DEBUT!.png;
#BACKGROUND:VIVID DEBUT!-bg.png;
#LYRICSPATH:;
#CDTITLE:;
#MUSIC:VIVID DEBUT!.ogg;
#OFFSET:-0.492000;
#SAMPLESTART:88.843658;
#SAMPLELENGTH:13.186813;
#SELECTABLE:YES;
#BPMS:0.000000=182.000000
,44.000000=91.000000
,60.000000=182.000000
,188.000000=91.000000
,204.000000=182.000000
;
#STOPS:
;
#BGCHANGES:;
#KEYSOUNDS:;
#ATTACKS:;

//---------------dance-single - ----------------
#NOTES:
     dance-single:
     :
     Hard:
     16:
     0.894178,1.022427,0.972552,0.074812,0.822929,753.000000,636.000000,117.000000,9.000000,0.000000,0.000000,0.894178,1.022427,0.972552,0.074812,0.822929,753.000000,636.000000,117.000000,9.000000,0.000000,0.000000:
// measure 0
0000
0000
0000
0000
,  // measure 1
0000
0000
0000
0000
,  // measure 2
0000
0000
0000
0000
,  // measure 3
0011
0000
0001
0101
0000
1100
0000
0011
,  // measure 4
0000
1000
0100
0010
1010
0000
0001
0100
,  // measure 5
0110
0000
1000
1001
0000
0011
0000
1100
,  // measure 6
0000
0001
0100
0010
0110
0000
1001
0000
,  // measure 7
0010
0000
1000
0010
1000
0010
1000
0000
0000
0000
0011
0000
0000
0000
1100
0000
,  // measure 8
0000
0001
0100
0010
1000
0001
1000
0100
,  // measure 9
0010
0000
0001
0101
0000
1010
0000
0011
,  // measure 10
0000
0000
1000
0000
0100
0000
0010
0000
0100
0000
0010
0000
0001
1000
0001
1000
,  // measure 11
0002
0000
0000
0000
0103
0010
0100
0010
0000
1010
0000
0100
0001
1000
0100
0010
,  // measure 12
0002
0000
0000
0000
1003
0010
0100
0001
0000
1010
0000
0001
0010
0100
1000
0000
,  // measure 13
1001
0000
0010
0010
1000
0010
0000
0101
0000
1000
0100
0010
0001
0100
0010
0100
,  // measure 14
0001
0000
1000
1010
0000
0101
0000
0220
0000
0000
0000
0000
0330
0000
0000
0000
,  // measure 15
0010
0000
0000
0010
0000
0000
0010
0000
0001
0000
0000
0001
0000
0000
0001
0000
,  // measure 16
0100
0000
0000
0100
0000
0000
0100
0000
1000
0000
0000
1000
0000
0000
1000
0000
,  // measure 17
0010
0000
0000
0010
0000
0000
1000
0000
0100
0000
0000
0100
0000
0000
0001
0000
,  // measure 18
1001
1001
0110
0110
1001
0000
1001
0000
,  // measure 19
0001
0000
0010
0001
0010
0000
0001
0000
1000
0000
0100
1000
0100
0000
0010
0000
,  // measure 20
0001
0000
0100
0010
0100
0000
0001
0000
1000
0000
0001
0100
0001
0000
1000
0000
,  // measure 21
0001
0010
0001
0010
0100
1000
0100
1000
0001
0010
0100
0010
0001
1000
0100
0010
,  // measure 22
0001
0000
1000
0000
0100
0000
0010
0000
0001
0000
0100
0000
0000
0000
0000
0010
0000
0000
0110
0000
0000
0000
0000
0000
,  // measure 23
0001
0000
0001
1000
0001
0000
0001
0010
0001
0000
0000
0011
0000
0000
0110
0000
,  // measure 24
0100
0000
0100
1000
0100
0000
0100
1000
0100
0000
0000
1100
0000
0000
1010
0000
,  // measure 25
1000
0000
1000
0001
1000
0000
1000
0010
1000
0000
0000
1010
0000
0000
0101
0000
,  // measure 26
0100
0000
0100
0001
0100
0000
0100
0010
0100
0000
0010
0100
1000
0100
0010
0000
,  // measure 27
1001
0000
1000
0010
1000
0000
1000
0010
1000
0000
0000
1010
0000
0000
0101
0000
,  // measure 28
0001
0000
0001
1000
0001
0000
0001
0010
0001
0000
0000
0011
0000
0000
0101
0000
,  // measure 29
0100
0000
0100
0001
0100
0000
0100
0010
0100
0000
0000
0110
0000
0000
1001
0000
,  // measure 30
0001
0000
1000
0000
0010
0000
0100
0010
0000
0010
0100
0000
0001
0000
1000
0000
,  // measure 31
0020
0000
0000
0000
0000
0000
0000
0000
1030
0000
0000
1010
0000
0000
0101
0000
,  // measure 32
1000
0000
0100
0010
0100
0000
1000
0100
1000
0000
0000
1100
0000
0000
0101
0000
,  // measure 33
0001
0000
0001
0010
0001
0000
0001
0100
0001
0000
0000
0101
0000
0000
0100
0000
,  // measure 34
0010
0000
1000
0010
0000
1000
0010
0000
1000
0000
0100
0010
0001
0010
0100
0000
,  // measure 35
1000
0000
1000
0100
1000
0000
1000
0001
1000
0000
0000
1001
0000
0000
0110
0000
,  // measure 36
0010
0000
0010
0100
0010
0000
0010
1000
0010
0000
0000
1010
0000
0000
0101
0000
,  // measure 37
0001
0000
0001
1000
0001
0000
0001
0010
0001
0000
0000
0011
0000
0000
0110
0000
,  // measure 38
0001
0000
0000
0010
0000
0000
1000
0000
0001
0000
0000
0100
0000
0000
1000
0000
,  // measure 39
1001
0000
0000
0000
0110
0000
0000
0000
1100
0000
0000
0110
0000
0000
0011
0000
,  // measure 40
0011
0000
0000
0000
1001
0000
0000
0000
0101
0000
0000
1010
0000
0000
1001
0000
,  // measure 41
1001
0000
0000
0000
0110
0000
0000
0000
0011
0000
0000
1100
0000
0000
0011
0000
,  // measure 42
0011
0000
0000
0000
1010
0000
0000
0000
0101
0000
0000
1001
0000
0000
0011
0000
,  // measure 43
0001
0000
0001
0100
0001
0000
1000
0000
0001
0000
0001
1000
0001
0000
1000
0000
,  // measure 44
0010
0000
0010
0100
0010
0000
0010
0000
1000
0000
1000
0001
1000
0000
1000
0000
,  // measure 45
0100
0100
0010
0010
0001
1000
0100
0010
,  // measure 46
0001
0010
0001
0010
0100
1000
0100
1000
0001
0010
0100
1000
0001
0010
0001
0010
,  // measure 47
0002
1003
0000
0001
,  // measure 48
0000
0100
0000
0010
,  // measure 49
2000
0001
0100
3001
,  // measure 50
1000
0000
0100
0100
0000
0010
0000
0001
0000
1000
0001
1000
0000
0010
0100
0000
,  // measure 51
1001
0000
0000
0000
0000
0110
0000
0000
,  // measure 52
0110
0000
1100
0011
,  // measure 53
1001
0000
0000
1100
0000
0000
0101
0000
,  // measure 54
0000
0110
0000
0000
1001
0000
1001
0000
,  // measure 55
0010
0000
0010
1000
0010
0000
0010
1000
0010
1000
0000
0001
0000
0001
0100
0000
,  // measure 56
0001
0000
0001
1000
0001
0000
0001
1000
0001
1000
0000
0010
0000
0010
0100
0000
,  // measure 57
0001
0010
0001
0010
0100
1000
0100
1000
0100
0010
0100
0010
0001
1000
0001
1000
,  // measure 58
0000
0110
0000
1100
1100
0000
0101
0000
,  // measure 59
1000
0000
0100
1000
0100
0000
1000
0100
0010
0001
0000
0001
0000
0001
0100
0000
,  // measure 60
0001
0000
0010
0001
0010
0000
0001
0100
0010
0100
0000
0100
0010
0000
1000
0000
,  // measure 61
0001
0000
0010
0001
0010
0000
0001
0010
0100
1000
0000
0100
0000
1000
0100
0000
,  // measure 62
1000
0100
1000
0100
0010
0000
0010
0001
0000
0001
0100
0001
0100
0010
1000
0010
,  // measure 63
1000
0000
0001
1000
0001
0000
0001
0010
0100
1000
0000
0010
0000
0010
1000
0010
,  // measure 64
1000
0000
0100
0010
0001
0000
0010
0100
1000
0000
0100
0000
0010
0000
0001
0000
,  // measure 65
0101
0000
1100
0101
0000
0110
1001
0110
,  // measure 66
0000
1100
0000
0101
1010
0000
1001
0000
,  // measure 67
0010
0000
0010
0001
0100
0000
0100
0010
1000
0010
0000
0010
0000
0010
1000
0000
,  // measure 68
0100
0000
0010
0000
0001
0000
0001
1000
0010
1000
0000
0001
1000
0000
0010
0000
,  // measure 69
0110
0000
0010
1000
0000
1000
0010
0000
0100
0000
0001
1000
0000
1000
0001
0000
,  // measure 70
1000
0000
0100
0000
0010
0000
0001
1000
0000
0000
0001
1000
0001
1000
0100
0000
,  // measure 71
0010
0000
1000
0000
0100
0000
0010
0000
0001
0100
0000
0100
0000
0100
0010
0000
,  // measure 72
1000
0000
0001
1000
0001
0000
1000
0000
0100
0010
0000
0010
0000
0010
0001
0000
,  // measure 73
1000
0100
1000
0100
0010
0001
0010
0001
0100
0010
0000
0010
0000
0010
1000
0000
,  // measure 74
0000
0101
0000
1100
1100
0000
0011
0000
,  // measure 75
0001
0100
1000
0001
0010
1000
0001
1000
,  // measure 76
0100
0000
1000
0000
0001
0000
0010
0000
0001
0010
0001
0010
0100
1000
0100
1000
,  // measure 77
0010
0000
1010
1010
0000
0101
0000
0110
,  // measure 78
0000
0000
0001
0000
0010
0000
0100
0000
1001
0000
0001
1000
0001
1000
0001
1000
,  // measure 79
0001
0000
1100
0101
0000
0011
0000
1010
,  // measure 80
0000
0001
1000
0110
1001
0000
0110
0000
,  // measure 81
2002
0000
0000
0000
,  // measure 82
3003
0000
0000
0000
;

//---------------dance-single - ----------------
#NOTES:
     dance-single:
     :
     Beginner:
     5:
     0.207810,0.269322,0.041562,0.058187,0.000000,175.000000,170.000000,5.000000,7.000000,0.000000,0.000000,0.207810,0.269322,0.041562,0.058187,0.000000,175.000000,170.000000,5.000000,7.000000,0.000000,0.000000:
0000
0000
0000
0000
,
0000
0000
0000
0000
,
0000
0000
0000
0000
,
1000
0000
0000
0000
,
0001
0000
0000
0000
,
1000
0000
0000
0000
,
0001
0000
0000
0000
,
0100
0000
0000
0000
,
0010
0000
0000
0000
,
0100
0000
0000
0000
,
0010
0000
0000
0000
,
2000
3000
1000
0000
,
0002
0003
0001
0000
,
0200
0300
0100
0000
,
0020
0030
0010
0000
,
0010
0000
0000
0000
,
0001
0000
0000
0000
,
0100
0000
0000
0000
,
1000
1000
1000
0000
,
0001
0000
0001
0000
,
1000
0000
1000
0000
,
0010
0010
0010
0010
,
0020
0000
0030
0000
,
1000
1000
1000
0000
,
0001
0001
0001
0000
,
1000
1000
1000
0000
,
0001
0001
0001
0000
,
0100
0100
0100
0000
,
0010
0010
0010
0000
,
0100
0100
0100
0000
,
0010
0010
0010
0000
,
1000
1000
1000
0000
,
0001
0001
0001
0000
,
0100
0100
0100
0000
,
0010
0010
0010
0000
,
1000
1000
1000
0000
,
0001
0001
0001
0000
,
0010
0010
0010
0000
,
0020
0000
0030
0000
,
1000
0000
1001
0000
,
0001
0000
1001
0000
,
0100
0000
0110
0000
,
0010
0000
0110
0000
,
0001
0001
0001
0000
,
1000
1000
1000
0000
,
0010
0010
0010
0010
,
0010
0010
0010
0000
,
0010
0000
0000
0000
,
0010
0000
0000
0000
,
1000
0000
0001
0000
,
1000
0000
0001
0000
,
1000
0000
0000
0000
,
0001
0000
0001
0000
,
0001
0000
0000
0000
,
1000
0000
1000
0000
,
1000
0000
0000
0000
,
0010
0000
0000
0000
,
0100
0100
0100
0100
,
0000
0000
0010
0010
,
0010
0000
0001
0000
,
0100
0100
0100
0000
,
0010
0000
1000
0000
,
0100
0100
0100
0000
,
0010
0000
0010
0010
,
0010
0000
0100
0100
,
0100
0000
0100
0000
,
1001
0000
0010
0010
,
0010
0000
1000
0000
,
0001
0000
1000
1000
,
1000
0000
0001
0000
,
0100
0100
0100
0000
,
0001
0000
1000
1000
,
1000
0000
0010
0010
,
0010
0000
0001
0001
,
0000
0000
0010
0010
,
0020
0000
0000
0000
,
0030
0000
0000
0000
,
1000
0000
0000
0000
,
0001
0000
0000
0000
,
1000
0000
0001
0000
,
1000
1000
1000
1000
,
1000
0000
0000
0000
;

//---------------dance-single - ----------------
#NOTES:
     dance-single:
     :
     Easy:
     7:
     0.387121,0.579375,0.565244,0.407308,0.000000,326.000000,258.000000,68.000000,49.000000,0.000000,0.000000,0.387121,0.579375,0.565244,0.407308,0.000000,326.000000,258.000000,68.000000,49.000000,0.000000,0.000000:
0000
0000
0000
0000
,
0000
0000
0000
0000
,
0000
0000
0000
0000
,
0010
0000
0000
1001
0000
0000
0000
0110
,
0000
0000
0100
0100
,
0100
0000
0000
1001
0000
0000
0000
0110
,
0000
0000
1000
1000
,
1000
0000
0000
1001
0000
0000
0000
0110
,
0000
0000
0001
0001
,
0001
0000
0000
0110
0000
0000
0000
1001
,
0000
0000
0010
0010
,
0020
0000
0030
0000
1000
0001
1000
0000
,
0200
0000
0300
0000
0001
1000
0001
0000
,
0020
0000
0030
0000
1000
0100
0010
0000
,
0002
0003
2002
3003
,
0020
0030
0002
0003
,
0200
0300
2000
3000
,
0020
0030
0020
0030
,
0100
0010
0100
0010
0100
0000
0000
0000
,
0002
0003
0020
0030
,
0200
0300
2000
3000
,
0001
0010
0100
1000
,
0002
0000
0000
0000
0003
1000
1000
0000
,
0001
1000
0220
0330
,
1000
0001
0220
0330
,
0001
0100
2020
3030
,
1000
0100
0022
0033
,
0010
0010
2002
3003
,
0100
0100
2002
3003
,
0001
1000
0220
0330
,
1001
1001
1001
0000
,
0020
0000
0130
0000
,
0001
0100
1001
1001
,
1000
0100
1001
1001
,
0010
0100
0110
0110
,
1000
0001
0101
0101
,
0001
1000
1100
1100
,
0010
0010
0100
0100
,
1000
0001
1000
1001
,
0010
0110
0200
0300
,
0100
0110
0020
0030
,
1000
1001
0002
0003
,
0001
1001
2000
3000
,
0010
0010
0001
0001
,
0100
0100
1000
1000
,
0010
0001
0100
1000
,
0020
0000
0200
0330
,
0220
0330
0000
1000
,
0000
0001
0000
1000
,
0000
0010
0000
0100
,
0000
0010
0100
0100
,
0200
0000
0300
0000
0000
1001
0000
0000
,
1001
0000
1000
1000
,
1000
0000
0000
0001
0000
0000
1000
0000
,
0000
0001
0000
0000
1000
0000
1000
0000
,
1000
0000
0001
0001
,
2002
3003
0100
0100
,
0220
0330
1001
1001
,
0000
0010
0000
0100
0010
0000
1001
0000
,
1000
0100
0010
0001
,
1000
0001
1000
0001
1000
0000
1001
0000
,
0001
0010
0100
1000
,
0001
1000
0001
1000
0001
0000
1001
0000
,
0010
0000
0100
0000
0001
0001
0001
0000
,
0100
0000
0010
0000
1000
1000
1000
0000
,
0001
0000
0000
1001
0000
1001
0000
1001
,
0000
0010
0100
1001
,
0010
0010
0001
0101
,
0010
1000
0100
1100
,
0010
0010
0100
1001
,
0010
0110
1001
0110
,
1010
1010
0101
0101
,
1001
0000
0010
0010
,
1001
0100
0010
0001
,
0000
0100
0000
0100
0100
0000
1001
0000
,
0001
0000
0000
0100
0000
0000
1000
0000
,
0000
0010
0000
0000
0002
0000
0203
0000
,
0310
0000
0000
1001
0000
1001
0000
1001
,
0000
0100
0010
0100
,
0010
0000
0000
1001
0000
1001
0000
1001
,
0000
0001
0010
0100
,
2002
0000
0000
0000
,
3003
0000
0000
0000
;

//---------------dance-single - ----------------
#NOTES:
     dance-single:
     :
     Medium:
     12:
     0.616306,0.613456,0.473808,0.124686,0.295091,519.000000,462.000000,57.000000,15.000000,0.000000,0.000000,0.616306,0.613456,0.473808,0.124686,0.295091,519.000000,462.000000,57.000000,15.000000,0.000000,0.000000:
// measure 0
0000
0000
0000
0000
,  // measure 1
0000
0000
0000
0000
,  // measure 2
0000
0000
0000
0000
,  // measure 3
0010
0000
1000
0001
0000
0110
0000
0110
,  // measure 4
0000
0001
0100
0001
0100
0000
0000
0000
,  // measure 5
1001
0000
0100
0010
0000
1001
0000
1001
,  // measure 6
0000
0010
0100
0010
0100
0000
0000
0000
,  // measure 7
1000
0100
0010
0001
0000
0100
0010
1000
,  // measure 8
0000
0010
0100
0010
0100
0010
1000
0100
,  // measure 9
0010
0001
1000
0001
0000
0110
0000
1001
,  // measure 10
0000
0010
0100
0010
1000
0100
0010
0001
,  // measure 11
0002
0000
0000
0000
0103
0000
0000
1000
0000
0100
0000
0010
1000
0000
0000
0000
,  // measure 12
0020
0000
0000
0000
0130
0000
0000
0001
0000
0010
0000
0100
0001
0000
0000
0000
,  // measure 13
2000
0000
0000
0000
3001
0000
0000
0100
0000
0010
0000
1000
0001
0000
0000
0000
,  // measure 14
0110
0000
0000
0001
0000
0001
0000
2002
0000
0000
0000
0000
3003
0000
0000
0000
,  // measure 15
0020
0030
0002
0003
,  // measure 16
0200
1300
2000
3010
,  // measure 17
0010
0001
0100
1000
,  // measure 18
0010
0001
0100
1000
1001
0000
1001
0000
,  // measure 19
1000
0000
0000
1000
0000
0000
0100
0000
0010
0000
0000
0010
0000
0000
0001
0000
,  // measure 20
1000
0000
0000
1000
0000
0000
0010
0000
0100
0000
0000
0100
0000
0000
0001
0000
,  // measure 21
1000
0100
0010
0001
0010
0100
1000
0010
,  // measure 22
0100
0000
0001
0000
0000
0001
0001
0000
,  // measure 23
0001
0000
0010
0000
0100
0000
0010
0000
0001
0000
0000
0010
0000
0000
0100
0000
,  // measure 24
1000
0000
0100
0000
0010
0000
0100
0000
1000
0000
0000
0100
0000
0000
0010
0000
,  // measure 25
0001
0000
0010
0000
0100
0000
0010
0000
0001
0000
0000
0010
0000
0000
0100
0000
,  // measure 26
1000
0000
0000
0001
0000
0000
0100
0000
0110
0000
0000
0000
1001
0000
0000
0000
,  // measure 27
0001
0000
1000
0000
0010
0000
1000
0000
0010
0000
0000
1000
0000
0000
0100
0000
,  // measure 28
1000
0000
0001
0000
1000
0000
0001
0000
0010
0000
0000
0001
0000
0000
0100
0000
,  // measure 29
0001
0000
0100
0000
0001
0000
0100
0000
0010
0000
0000
0100
0000
0000
1000
0000
,  // measure 30
0001
0000
1000
0000
0010
0000
0000
0100
0000
0000
0100
0000
0010
0000
0000
0000
,  // measure 31
2002
0000
0000
0000
3000
0000
0000
0000
1003
0000
0000
0010
0000
0000
0100
0000
,  // measure 32
0001
0000
0100
0000
0010
0000
1000
0000
0100
0000
0000
0110
0000
0000
0001
0000
,  // measure 33
0100
0000
0010
0000
1000
0000
0010
0000
1000
0000
0000
1010
0000
0000
0010
0000
,  // measure 34
1000
0000
0000
0010
0000
0000
1000
0000
0001
0000
0000
0100
0000
0000
0001
0000
,  // measure 35
1000
0000
0100
0000
0010
0000
0001
0000
1000
0000
0000
1001
0000
0000
0001
0000
,  // measure 36
0010
0000
0100
0000
1000
0000
0010
0000
1000
0000
0000
0010
0000
0000
0100
0000
,  // measure 37
0001
0000
1000
0000
0001
0000
0010
0000
0001
0000
0000
0010
0000
0000
0100
0000
,  // measure 38
1000
0000
0000
0010
0000
0000
0100
0000
0001
0000
0000
0100
0000
0000
0010
0000
,  // measure 39
1000
0000
0000
0000
0110
0000
0000
0000
0100
0000
0000
0100
0000
0000
0001
0000
,  // measure 40
1001
0000
0000
0000
1001
0000
0000
0000
0100
0000
0000
0010
0000
0000
1000
0000
,  // measure 41
1001
0000
0000
0000
0110
0000
0000
0000
0010
0000
0000
0100
0000
0000
0001
0000
,  // measure 42
1001
0000
0000
0000
0110
0000
0000
0000
0001
0000
0000
1000
0000
0000
1000
0000
,  // measure 43
1001
0000
0000
0100
0000
0000
0001
0000
0001
0000
0000
0100
0000
0000
1000
0000
,  // measure 44
1000
0000
0000
0100
0000
0000
0001
0000
0001
0000
0000
0100
0000
0000
1000
0000
,  // measure 45
1000
1000
0100
0100
0010
0010
0001
0001
,  // measure 46
1000
0100
0010
0001
1000
0001
1001
0000
,  // measure 47
0002
1003
0000
0001
,  // measure 48
0000
0100
0000
0010
,  // measure 49
2000
0001
0100
3001
,  // measure 50
1000
0000
0000
0100
0000
0010
0000
0001
0000
1000
0001
1000
0000
0000
0100
0000
,  // measure 51
1001
0000
0000
0000
0000
1001
0000
0000
,  // measure 52
1001
0000
0110
1001
,  // measure 53
0110
0000
0000
0110
0000
0000
1001
0000
,  // measure 54
0000
0110
0000
0000
1001
0000
1001
0000
,  // measure 55
0010
0000
0000
0000
1000
0000
0100
0000
0010
0000
0000
0001
0000
0000
0001
0000
,  // measure 56
0100
0000
0000
0000
0010
0000
0100
0000
1000
0000
0000
1000
0000
0000
0010
0000
,  // measure 57
0100
0000
0000
0000
0001
0000
0010
0000
0100
0000
0000
0100
0000
0000
0010
0000
,  // measure 58
0000
1010
0000
0001
0101
0000
1001
0000
,  // measure 59
0010
0000
1000
0000
0100
0000
0010
0000
0001
0100
0000
0001
0000
0000
0001
0000
,  // measure 60
0100
0000
0010
0000
1000
0000
0100
0000
1000
0100
0000
1000
0000
0000
1000
0000
,  // measure 61
0010
0000
0100
0000
0010
0000
1000
0000
0010
0100
0000
0010
0000
0000
0010
0000
,  // measure 62
1000
0000
0100
0000
0010
0000
0001
0100
0000
0000
0001
0000
1001
0000
0000
0000
,  // measure 63
0001
0000
0010
0000
0100
0000
1000
0000
0010
0100
0000
0010
0000
0000
0100
0000
,  // measure 64
1000
0100
0010
0001
0100
0000
0110
0000
,  // measure 65
1001
0000
0110
0110
0000
1000
0100
0010
,  // measure 66
0000
0001
0010
0100
1000
0100
0010
0001
,  // measure 67
1000
0000
0001
0000
1000
0000
0001
0000
1000
0100
0000
0100
0000
0000
1000
0000
,  // measure 68
0001
0000
0010
0000
0100
0000
1000
0000
0001
0000
0000
0001
0000
0000
0010
0000
,  // measure 69
0001
0000
0000
0101
0000
0000
1000
0000
0001
0000
0000
1010
0000
0000
0100
0000
,  // measure 70
0010
0000
1000
0000
0010
0000
0000
1010
0000
0000
1000
0000
0100
0000
0010
0000
,  // measure 71
0001
0000
1000
0000
0010
0000
1000
0000
0001
0000
0000
0001
0000
0001
0100
0000
,  // measure 72
0001
0000
0010
0000
0001
0000
0100
0000
0010
0000
0000
1000
0000
1000
0010
0000
,  // measure 73
1000
0000
0100
0000
0010
0000
0001
0000
0100
0000
0000
0010
0000
0010
0100
0000
,  // measure 74
0000
1001
0000
0110
0110
0000
1001
0000
,  // measure 75
0001
0010
0100
0010
0100
1000
0001
0100
,  // measure 76
1000
0001
0010
1000
0001
0100
0010
1000
,  // measure 77
0001
0000
1000
0100
0000
1100
0000
0011
,  // measure 78
0000
1000
0100
0010
0001
0100
0010
0100
,  // measure 79
0001
0000
1000
0010
0000
1010
0000
0101
,  // measure 80
0000
0001
0010
0100
1000
0010
0100
0000
,  // measure 81
2002
0000
0000
0000
,  // measure 82
3003
0000
0000
0000
;
