#TITLE:The Verge;
#SUBTITLE:;
#ARTIST:Bad Moves;
#TITLETRANSLIT:;
#SUBTITLETRANSLIT:;
#ARTISTTRANSLIT:;
#GENRE:;
#CREDIT:;
#BANNER:The Verge.png;
#BACKGROUND:The Verge-bg.png;
#LYRICSPATH:;
#CDTITLE:;
#MUSIC:The Verge.ogg;
#OFFSET:0.005000;
#SAMPLESTART:13.310201;
#SAMPLELENGTH:14.893756;
#SELECTABLE:YES;
#DISPLAYBPM:130.000000;
#BPMS:0.000000=130.300003
,27.000000=136.000000
,30.000000=128.000000
,32.000000=128.789993
,60.000000=127.500000
,62.500000=128.720001
,64.000000=132.000000
,67.000000=128.800003
,95.000000=130.000000
,98.000000=132.000000
,101.000000=129.800003
,104.000000=132.000000
,106.000000=130.000000
,110.000000=132.000000
,125.500000=130.000000
,127.000000=126.999992
,130.000000=129.699997
,136.000000=129.300003
,146.000000=128.000000
,152.000000=129.199997
,168.000000=125.999992
,175.000000=123.000000
,176.000000=129.399994
,186.000000=128.399994
,194.000000=129.000000
,203.000000=124.999992
,207.000000=129.000000
;
#STOPS:
;
#BGCHANGES:0.000=The Verge.avi=1.000=0=0=0=StretchNoLoop====,
99999=-nosongbg-=1.000=0=0=0 // don't automatically add -songbackground-
;
#KEYSOUNDS:;
#ATTACKS:;

//---------------dance-single - ----------------
#NOTES:
     dance-single:
     :
     Hard:
     9:
     0.422759,0.443422,0.170729,0.113820,0.009485,312.000000,294.000000,18.000000,12.000000,0.000000,0.000000,0.422759,0.443422,0.170729,0.113820,0.009485,312.000000,294.000000,18.000000,12.000000,0.000000,0.000000:
0000
0000
0000
0000
,
0000
0000
0000
0000
,
0000
0000
0000
0000
,
0000
0000
0000
0000
,
0000
0000
0000
0000
,
0000
0000
0000
0000
,
0000
0000
0000
0000
,
0000
0000
0001
1000
0100
0010
0001
0100
,
0010
0000
0010
1000
0001
0001
1000
0010
,
0000
1000
0100
0100
1000
0100
0010
0001
,
0100
0000
0001
1000
0010
0010
1000
0001
,
0000
1000
0010
0010
1000
0100
0010
0001
,
0100
0000
0001
0010
0100
0010
0001
1000
,
0000
0001
1000
1000
0010
0100
0010
0100
,
0001
0010
0100
0010
0001
1000
0100
0010
,
0000
0000
0001
1000
0001
1000
0010
0100
,
0010
0000
1000
0100
0010
0001
0100
0001
,
0000
0000
0001
1000
0010
1000
0100
1000
,
0010
1000
0010
1000
0001
0010
0100
1000
,
0000
0000
0001
0100
0001
0100
0010
0100
,
0001
1000
0100
0010
0001
0100
0010
1000
,
0000
0000
0001
0100
0001
0100
0001
1000
,
0001
0000
1100
0000
0001
0010
0100
1000
,
0000
0000
0001
1000
0010
1000
0001
1000
,
0100
0000
0100
0000
0100
0100
0000
1001
,
0000
0000
0010
0000
0010
0010
0000
2000
,
0001
0001
0001
3001
,
1000
0100
0010
0001
1000
0100
0010
0001
,
1000
0000
0001
1000
1000
0001
0000
1000
,
1000
0000
0010
0100
0100
0010
0000
0010
,
0100
0000
0001
0010
0010
0001
0000
1000
,
0000
0000
0001
0100
0100
0010
1000
0100
,
0010
0001
0010
0001
1000
0100
0000
1001
,
0000
0010
0100
0100
0001
0010
0100
1000
,
0010
0100
0010
1000
0100
0010
0000
1001
,
0000
0001
0010
0001
1000
1000
0002
0000
,
0103
0001
0100
0001
1000
0100
0000
1001
,
0000
0010
0001
0010
0001
0100
0010
0100
,
0002
0000
2003
0000
3010
0100
0010
1001
,
0000
0001
0001
1000
0100
0010
0100
1000
,
0001
0000
0002
0000
1003
1000
0000
2000
,
0000
0010
3010
0000
0100
0100
0000
0200
,
0001
0001
0001
0301
,
0010
0000
0000
1001
0000
0000
0100
0000
0000
1001
0000
0000
0010
0000
0000
0000
,
1000
0001
0100
0000
0001
0001
1000
0002
,
0000
1000
1003
0000
0001
1000
0001
2000
,
0000
0000
0000
0010
0020
0000
3030
0000
,
0101
0000
1100
0000
0001
0100
1000
0000
,
0110
0000
1001
0000
1000
0100
0010
0001
,
0100
0000
1001
0000
0001
0010
1000
0000
,
0110
0000
1001
0000
0001
0010
0100
1000
,
0010
0000
0110
0000
1000
0100
0001
0000
,
1010
0000
0101
0000
0010
0010
0100
0020
,
0000
0100
0130
0000
0001
0001
1000
0002
,
0100
0000
0100
0000
0100
0100
0100
0100
,
0103
0000
0000
0000
;

//---------------dance-double - ----------------
#NOTES:
     dance-double:
     :
     Hard:
     9:
     0.405144,0.417339,0.246609,0.047425,0.009485,299.000000,273.000000,26.000000,5.000000,0.000000,0.000000,0.405144,0.417339,0.246609,0.047425,0.009485,299.000000,273.000000,26.000000,5.000000,0.000000,0.000000:
00000000
00000000
00000000
00000000
,
00000000
00000000
00000000
00000000
,
00000000
00000000
00000000
00000000
,
00000000
00000000
00000000
00000000
,
00000000
00000000
00000000
00000000
,
00000000
00000000
00000000
00000000
,
00000000
00000000
00000000
00000000
,
00000000
00000000
10000000
01000000
00100000
01000000
10000000
00000000
,
00010000
00000000
00100000
00000000
00001000
00010000
00000100
00010000
,
00000000
00000000
00000100
00001000
00000010
00001000
00000100
00000010
,
00000001
00000000
00000100
00000000
00000010
00001000
00000100
00001000
,
00000000
00000000
00000100
00010000
00001000
00010000
00000100
00000000
,
00010000
00001000
00010000
00001000
00010000
00001000
00000000
01000000
,
00000000
00000000
00010000
01000000
00100000
01000000
00010000
10000000
,
00100000
01000000
00100000
01000000
00100000
10000000
01000000
00100000
,
00000000
00000000
00001000
00010000
00001000
00010000
00000100
00001000
,
00000100
00000000
00001100
00000000
00000010
00000001
00000100
00000010
,
00000000
00000000
00001000
00000100
00010000
00000100
00001000
00000100
,
00010000
00001000
00010000
00001000
00100000
00010000
01000000
00100000
,
00000000
00000000
10000000
00010000
10000000
00010000
10000000
01000000
,
00100000
00000000
00100000
00000000
00100000
00001000
00010000
00001000
,
00000000
00000000
00010000
00000100
00010000
00001000
00010000
00000100
,
00001000
00001000
00001000
00000010
00000100
00000001
00001000
00001001
,
00000000
00000000
00000010
00000001
00000100
00000010
00001000
00000000
,
00000100
00000000
00010100
00000000
00010000
00001000
00000000
00101000
,
00000000
00000000
01010000
00000000
00100000
10000000
00000000
00020000
,
00100000
00100000
00100000
00130000
,
00100000
00001000
00010000
00000000
00001000
00010000
00000010
00000000
,
00000110
00000000
00001001
00000000
00000100
00001000
00000000
00010000
,
00000000
00001000
00100000
00000000
00010000
01000000
00100000
00000000
,
10000000
00000000
01010000
00000000
10000000
00100000
00000000
01000000
,
00000000
00000000
00010000
00100000
00001000
00100000
00010000
00100000
,
00002000
00000000
00023000
00000000
00030010
00000010
00000000
00001010
,
00000000
00000001
00000100
00000010
00001000
00000100
00010000
00000000
,
00001000
00000000
00101000
00000000
00100000
00010000
00000000
01010000
,
00000000
00010000
10000000
00100000
10000000
01000000
00100000
00010000
,
01000000
00000000
01010000
00000000
01000000
00001000
00000000
00011000
,
00000000
00000000
00010000
00000100
00001000
00000100
00010000
00001000
,
00010000
00010000
00001000
00001000
00010000
00000100
00000000
00001100
,
00000000
00000000
00000010
00001000
00000100
00000010
00000001
00000100
,
00000010
00000000
00001010
00000000
00000100
00010000
00001000
00010000
,
00000000
00000000
00101000
00000000
00100000
00010000
01000000
00000000
,
01100000
00000000
10010000
00000000
00100000
10000000
01000000
00000000
,
00100000
00000000
00000000
00100000
00000000
00000000
00100000
00000000
00000000
00100000
00000000
00000000
00100000
00000000
00000000
00000000
,
00001000
00010000
00000100
00000000
00001000
00000100
00000000
00000010
,
00000001
00000000
00001000
00000000
00000100
00010000
00000000
00001000
,
00200000
00010000
01000000
00310000
,
10000000
01000000
00100000
00000000
00100000
00001000
00010000
00000000
,
00010100
00000000
00001100
00000000
00000010
00001000
00000001
00001000
,
00000100
00000000
00010100
00000000
00001000
00100000
00010000
00000000
,
01010000
00000000
10100000
00000000
00100000
10000000
01000000
00100000
,
00010000
00000000
00101000
00000000
00001000
00010000
00000100
00000000
,
00001100
00000000
00000011
00000000
00000100
00000010
00000000
00001000
,
00000100
00000000
00010000
00000000
00001000
00100000
00000000
00010000
,
02000000
00000000
00100000
00000000
00100000
00100000
00100000
00100000
,
03100000
00000000
00000000
00000000
;

//---------------dance-double - ----------------
#NOTES:
     dance-double:
     :
     Medium:
     7:
     0.296744,0.417339,0.294034,0.075880,0.000000,219.000000,188.000000,31.000000,8.000000,0.000000,0.000000,0.296744,0.417339,0.294034,0.075880,0.000000,219.000000,188.000000,31.000000,8.000000,0.000000,0.000000:
00000000
00000000
00000000
00000000
,
00000000
00000000
00000000
00000000
,
00000000
00000000
00000000
00000000
,
00000000
00000000
00000000
00000000
,
00000000
00000000
00000000
00000000
,
00000000
00000000
00000000
00000000
,
00000000
00000000
00000000
00000000
,
00000000
00000000
00000000
00000000
,
10000000
01100000
10000000
01100000
,
00010000
01100000
00010000
01100000
,
10000000
01010000
10000000
01010000
,
10000000
00000000
00010000
00000000
00100000
00001000
00010000
00000000
,
00010000
00001100
00010000
00001100
,
00000010
00000101
00000010
00000101
,
00001000
00000110
00001000
00000110
,
00001000
00000000
00000100
00010000
00001000
00010000
00000100
00000000
,
00010000
00011000
00100000
00110000
,
01000000
00000000
01100000
00000000
10000000
01000000
00100000
00000000
,
01000000
01010000
00100000
00110000
,
00100000
00000000
00101000
00000000
00001000
00010000
00000100
00000000
,
00001000
00001010
00000100
00000101
,
00001000
00000000
00001100
00000000
00000100
00010000
00001000
00000000
,
00101000
00101000
00110000
00110000
,
00010000
00000000
01000000
00000000
00100000
10000000
00100000
00000000
,
01000000
01000000
02000000
03000000
,
00100000
00100000
00200000
00300000
,
20000000
00000000
30020000
00000000
,
00130000
00001000
00010000
00000100
,
00001000
00000000
00001000
00000000
00001000
00000001
00000000
00000110
,
00000000
00000000
00000000
00000000
,
00000001
00000000
00000001
00000000
00000001
00001000
00000000
00000110
,
00000000
00000010
00000010
00001001
,
00000100
00010000
00001000
01000000
,
00100000
00000000
10000000
00000000
01000000
00100000
00010000
00000000
,
00100000
00001000
00010000
00000010
,
00001000
00000000
00000100
00000000
00000010
00000001
00000100
00000000
,
00000010
00001000
00000100
00010000
,
00001000
00000000
01000000
00000000
00100000
10000000
01000000
00000000
,
00100000
00001000
00010000
00000010
,
00001000
00000000
00000100
00000000
00000010
00000001
00000100
00000000
,
00000010
00000000
00000010
00000000
00001000
00000001
00000000
00001001
,
00000000
00000000
00000010
00000000
00000001
00001000
00000000
00002002
,
00000000
00000000
00000000
00003003
,
00000100
00000000
00000000
00011000
00000000
00000000
00100000
00000000
,
00010000
00000000
01000000
00000000
10000000
01000000
00000000
00010000
,
00000000
00000000
00100000
00000000
00001000
00010000
00000000
00002000
,
00000000
00010000
00000000
00013000
,
00001000
00010000
00000100
00001000
,
00000010
00000000
00000010
00000000
00000001
00000100
00000000
00001000
,
00000000
00000100
00010000
00001000
,
00100000
00000000
00100000
00000000
00010000
01000000
00000000
10000000
,
00000000
00100000
01000000
00001000
,
00010000
00000000
00010000
00000000
00000100
00001000
00000000
00000100
,
00000000
00000000
00010000
00000000
00001000
00010000
00000000
00002000
,
00000000
00010000
00010000
00010000
,
00013000
00000000
00000000
00000000
;

//---------------dance-double - ----------------
#NOTES:
     dance-double:
     :
     Easy:
     5:
     0.173439,0.208669,0.066395,0.104335,0.000000,128.000000,121.000000,7.000000,11.000000,0.000000,0.000000,0.173439,0.208669,0.066395,0.104335,0.000000,128.000000,121.000000,7.000000,11.000000,0.000000,0.000000:
00000000
00000000
00000000
00000000
,
00000000
00000000
00000000
00000000
,
00000000
00000000
00000000
00000000
,
00000000
00000000
00000000
00000000
,
00000000
00000000
00000000
00000000
,
00000000
00000000
00000000
00000000
,
00000000
00000000
00000000
00000000
,
00000000
00000000
00000000
00000000
,
10000000
01000000
00100000
00000000
,
01000000
00100000
00010000
00000000
,
10000000
01000000
00010000
00000000
,
00001000
00000100
00000001
00000000
,
00000001
00000010
00000100
00000000
,
00000010
00000100
00001000
00000000
,
00000001
00000100
00001000
00000000
,
00010000
01000000
10000000
00000000
,
00100000
01000000
00010000
00000000
,
00001000
00010000
00000100
00000000
,
00010000
00001000
01000000
00000000
,
00100000
10000000
01000000
00000000
,
00010000
00100000
00001000
00000000
,
00000100
00000010
00000001
00000000
,
00000100
00010000
00001000
00000000
,
00100000
00010000
01000000
10000000
,
00100000
00100000
00100000
00000000
,
01000000
01000000
01000000
00000000
,
20020000
00000000
00000000
00000000
,
30030000
00000000
00000000
00000000
,
01000000
01000000
01000000
00000000
,
20020000
00000000
30030000
00000000
,
00100000
00100000
00100000
00000000
,
20020000
00000000
30030000
00000000
,
10000000
00100000
00010000
00000000
,
00001000
00000000
00000100
00000000
,
00000001
00000100
00001000
00000000
,
00010000
00000000
01000000
00000000
,
10000000
01000000
00010000
00000000
,
00001000
00000000
00000101
00000000
,
00000001
00000010
00001000
00000000
,
00010000
00000000
01100000
00000000
,
10000000
10000000
00010000
00000000
,
00100000
00100000
01000000
00000000
,
20020000
00000000
00000000
00000000
,
30030000
00000000
00000000
00000000
,
00100000
00001000
00010000
00000000
,
00001000
00010000
00000010
00000000
,
00002002
00000000
00000000
00000000
,
00003003
00000000
00000000
00000000
,
00000010
00000010
00000010
00000000
,
00001000
00000100
00010000
00000000
,
00001000
00001000
00001000
00000000
,
00100000
00010000
01000000
00000000
,
00100000
00100000
00100000
00000000
,
10000000
01000000
00100000
00000000
,
00002000
00010000
00010000
00010000
,
00013000
00000000
00000000
00000000
;

//---------------dance-single - ----------------
#NOTES:
     dance-single:
     :
     Beginner:
     2:
     0.086720,0.130418,0.000000,0.037940,0.000000,64.000000,64.000000,0.000000,4.000000,0.000000,0.000000,0.086720,0.130418,0.000000,0.037940,0.000000,64.000000,64.000000,0.000000,4.000000,0.000000,0.000000:
0000
0000
0000
0000
,
0000
0000
0000
0000
,
0000
0000
0000
0000
,
0000
0000
0000
0000
,
0000
0000
0000
0000
,
0000
0000
0000
0000
,
0000
0000
0000
0000
,
0000
0000
0000
0000
,
0010
0000
0000
0000
,
0001
0000
0000
0000
,
0100
0000
0000
0000
,
1000
0000
0000
0000
,
0010
0000
0000
0000
,
1000
0000
0000
0000
,
0100
0000
0000
0000
,
0001
0000
0000
0000
,
0100
0000
0100
0000
,
0100
0000
0000
0000
,
0010
0000
0010
0000
,
0010
0000
0000
0000
,
1000
0000
1000
0000
,
1000
0000
0000
0000
,
0001
0000
0001
0000
,
0001
0000
0000
0000
,
1000
0000
1000
0000
,
0000
0000
1000
0000
,
2000
0000
0000
0000
,
3000
0000
0000
0000
,
0001
0000
0001
0000
,
0001
0000
0000
0000
,
1000
0000
1000
0000
,
1000
0000
0000
0000
,
0001
0000
1000
0000
,
0001
0000
0001
0000
,
1000
0000
0001
0000
,
1000
0000
1000
0000
,
0010
0000
0100
0000
,
0010
0000
0010
0000
,
0100
0000
0010
0000
,
0100
0000
0100
0000
,
0001
0000
0001
0000
,
0000
0000
0001
0000
,
0002
0000
0000
0000
,
0003
0000
0000
0000
,
1000
0000
1000
0000
,
0000
0000
1000
0000
,
2000
0000
0000
0000
,
3000
0000
0000
0000
,
0010
0000
0010
0000
,
0010
0000
0000
0000
,
0100
0000
0100
0000
,
0100
0000
0000
0000
,
0010
0000
0010
0000
,
0000
0000
0010
0000
,
0020
0000
0000
0000
,
0030
0000
0000
0000
;

//---------------dance-single - ----------------
#NOTES:
     dance-single:
     :
     Easy:
     4:
     0.178859,0.234753,0.170729,0.104335,0.000000,132.000000,114.000000,18.000000,11.000000,0.000000,0.000000,0.178859,0.234753,0.170729,0.104335,0.000000,132.000000,114.000000,18.000000,11.000000,0.000000,0.000000:
0000
0000
0000
0000
,
0000
0000
0000
0000
,
0000
0000
0000
0000
,
0000
0000
0000
0000
,
0000
0000
0000
0000
,
0000
0000
0000
0000
,
0000
0000
0000
0000
,
0000
0000
0000
0000
,
1000
0100
0010
0000
,
1000
0000
0001
0000
,
0001
0010
0100
0000
,
0001
0000
1000
0000
,
0010
0100
0010
0000
,
1000
0000
1001
0000
,
0100
0010
0100
0000
,
0001
0000
1001
0000
,
0100
0001
0010
0000
,
1000
0000
1001
0000
,
0100
1000
0010
0000
,
0001
0000
1001
0000
,
0010
0100
0010
0000
,
1000
0000
0110
0000
,
0100
0010
0100
0000
,
0001
0000
0110
0000
,
0010
0010
0010
0000
,
1000
1000
1000
0000
,
2002
0000
0000
0000
,
3003
0000
0000
0000
,
0100
0100
0100
0000
,
2002
0000
3003
0000
,
0001
0001
0001
0000
,
2002
0000
3003
0000
,
0010
0100
1001
0000
,
1000
0100
0010
0000
,
0100
0010
1001
0000
,
0001
0010
0100
0000
,
1000
0001
0100
0000
,
0001
1000
0100
0000
,
0010
0001
0100
1000
,
0010
0000
0101
0000
,
0010
0010
0010
0000
,
0100
0100
0100
0000
,
2002
0000
0000
0000
,
3003
0000
0000
0000
,
1000
1000
1000
0000
,
0001
0001
0001
0000
,
0220
0000
0000
0000
,
0330
0000
0000
0000
,
0010
0001
0100
0000
,
1001
0000
0110
0000
,
0010
1000
0100
0000
,
0110
0000
1001
0000
,
0010
0001
0100
0000
,
0010
1000
0100
0000
,
0002
1000
1000
1000
,
1003
0000
0000
0000
;

//---------------dance-single - ----------------
#NOTES:
     dance-single:
     :
     Medium:
     7:
     0.338749,0.417339,0.521673,0.085365,0.000000,250.000000,195.000000,55.000000,9.000000,0.000000,0.000000,0.338749,0.417339,0.521673,0.085365,0.000000,250.000000,195.000000,55.000000,9.000000,0.000000,0.000000:
// measure 0
0000
0000
0000
0000
,  // measure 1
0000
0000
0000
0000
,  // measure 2
0000
0000
0000
0000
,  // measure 3
0000
0000
0000
0000
,  // measure 4
0000
0000
0000
0000
,  // measure 5
0000
0000
0000
0000
,  // measure 6
0000
0000
0000
0000
,  // measure 7
0000
0000
0000
0000
,  // measure 8
1000
0000
0001
0000
0100
0010
0100
0000
,  // measure 9
0010
0110
1000
1001
,  // measure 10
0010
0000
0100
0000
0001
0010
0001
0000
,  // measure 11
1000
1100
0001
0011
,  // measure 12
0100
0000
0110
0000
0010
1000
0100
0000
,  // measure 13
0001
0110
1000
0110
,  // measure 14
0001
0000
1010
0000
0001
0100
0001
0000
,  // measure 15
0010
0110
1000
0101
,  // measure 16
1000
0010
1000
0000
0001
0000
0110
0000
,  // measure 17
0001
0100
0001
0000
1000
0000
0110
0000
,  // measure 18
1000
0010
1000
0000
0011
0000
0011
0000
,  // measure 19
0001
0100
0001
0000
1100
0000
1100
0000
,  // measure 20
0010
0100
0010
0000
1001
0000
0110
0000
,  // measure 21
0100
0010
0100
0000
0110
0000
1001
0000
,  // measure 22
0001
0010
0001
0000
1000
0000
0110
0000
,  // measure 23
1001
0010
0010
0010
,  // measure 24
0100
0000
0100
0000
0010
0100
0000
0100
,  // measure 25
0000
0000
0010
0000
0100
0010
0000
0020
,  // measure 26
0000
0100
0000
0130
,  // measure 27
0220
0330
2002
3003
,  // measure 28
0010
0000
0010
0000
1000
0001
0000
1001
,  // measure 29
0000
0110
0000
0110
,  // measure 30
0010
0000
0010
0000
0001
1000
0000
1001
,  // measure 31
0000
0010
1000
0100
,  // measure 32
0010
0000
0010
0000
0001
0100
0000
1001
,  // measure 33
0000
1000
0100
0010
,  // measure 34
0001
0000
0100
0000
0010
1000
0000
0110
,  // measure 35
0000
0001
0010
0100
,  // measure 36
1000
0000
0010
0000
0100
0010
0000
1001
,  // measure 37
0000
0010
1000
0100
,  // measure 38
0010
0000
0001
0000
1000
0001
0000
0110
,  // measure 39
0000
0000
0001
1000
0001
0000
0110
0000
,  // measure 40
1001
0000
1001
0000
0100
0010
0000
1001
,  // measure 41
0000
0000
1001
0000
0010
0100
0000
2002
,  // measure 42
0000
0000
0000
0000
0000
0000
0000
3003
,  // measure 43
1001
0000
0000
0110
0000
0000
1001
0000
,  // measure 44
0010
0000
1001
0000
1000
0100
0000
0010
,  // measure 45
0000
0000
0001
0000
0010
0100
0000
2000
,  // measure 46
0000
0010
0010
3010
,  // measure 47
0001
0010
0100
1000
,  // measure 48
0110
0000
0110
0000
1000
0001
0000
1001
,  // measure 49
0000
0110
0000
1001
,  // measure 50
0110
0000
0110
0000
0001
1000
0000
0110
,  // measure 51
0000
1001
0110
1001
,  // measure 52
0010
0000
1001
0000
0100
0010
0000
1001
,  // measure 53
0000
0010
0100
0000
0001
0010
0000
2000
,  // measure 54
0001
0000
0001
0000
0001
0001
0001
0000
,  // measure 55
3001
0000
0000
0000
;
