#TITLE:Thank You Merry Christmas;
#SUBTITLE:-DANCERUSH Mix-;
#ARTIST:VENUS;
#TITLETRANSLIT:;
#SUBTITLETRANSLIT:;
#ARTISTTRANSLIT:;
#GENRE:;
#CREDIT:;
#BANNER:Thank You Merry Christmas -DANCERUSH Mix-.jpg;
#BACKGROUND:Thank You Merry Christmas -DANCERUSH Mix--bg.png;
#LYRICSPATH:;
#CDTITLE:;
#MUSIC:Thank You Merry Christmas -DANCERUSH Mix-.ogg;
#OFFSET:0.638000;
#SAMPLESTART:62.156498;
#SAMPLELENGTH:13.124996;
#SELECTABLE:YES;
#BPMS:0.000000=128.000000
;
#STOPS:
;
#BGCHANGES:;
#KEYSOUNDS:;
#ATTACKS:;

//---------------dance-single - ----------------
#NOTES:
     dance-single:
     :
     Hard:
     12:
     0.549512,0.602631,0.521425,0.179507,0.149589,450.000000,389.000000,61.000000,21.000000,0.000000,0.000000,0.549512,0.602631,0.521425,0.179507,0.149589,450.000000,389.000000,61.000000,21.000000,0.000000,0.000000:
// measure 0
0000
0000
0000
0000
,  // measure 1
0000
0000
0000
0000
,  // measure 2
0000
0000
0000
0000
,  // measure 3
0000
0000
0000
0000
,  // measure 4
0000
0000
0000
0000
,  // measure 5
1001
0000
0000
0000
0110
0000
0000
0010
0100
0000
0001
0000
0010
0000
0100
0000
,  // measure 6
1000
0100
0010
0001
1000
0100
0010
0001
,  // measure 7
0200
0310
0020
1030
2000
3001
0002
0013
,  // measure 8
0010
0001
0100
1000
0000
0110
1001
0000
,  // measure 9
1001
0000
0000
0000
0110
0000
0000
0010
0100
0000
0001
0000
0010
0000
0100
0000
,  // measure 10
1000
0100
0010
0001
0000
1100
0110
0011
,  // measure 11
1000
0000
0000
0000
0101
0000
0000
0001
0100
0000
0010
0000
1000
0000
0001
0000
,  // measure 12
1000
0000
0100
0000
0010
0000
0001
1000
0001
0000
0010
0000
0100
0000
1000
0000
,  // measure 13
1001
0000
0000
0000
0110
0000
0000
0010
1000
0000
0001
0000
0100
0000
0010
0000
,  // measure 14
1000
0000
0100
0000
0010
0000
0001
0010
0001
0000
0010
0000
0100
0000
1000
0000
,  // measure 15
0020
0130
0200
0301
0002
1003
2000
3010
,  // measure 16
0010
0100
0001
1000
0000
0110
1001
0000
,  // measure 17
1000
0000
0001
0000
0100
0000
0010
0100
0010
0000
0100
0000
0001
0000
0010
0000
,  // measure 18
0100
0000
1000
0000
0100
0000
0010
0000
0001
0000
1000
0001
1000
0000
0010
0000
,  // measure 19
0100
0000
0001
0000
0010
0000
0001
0100
0001
0000
0100
0000
0010
0000
1000
0000
,  // measure 20
0100
0000
0010
0000
0001
0000
0100
0000
0010
0000
1000
0010
1000
0000
0001
0000
,  // measure 21
0100
0000
0010
0000
0100
0000
0001
1000
0001
0000
1000
0000
0100
0000
0001
0000
,  // measure 22
1000
0010
0001
0100
0010
1000
0001
1000
,  // measure 23
0010
0000
0100
0000
0001
0000
0000
1000
0010
0000
1000
0000
0001
0000
0100
0000
,  // measure 24
0010
0010
0100
0100
0000
0110
1001
0000
,  // measure 25
0110
0000
0000
0000
0110
0000
0000
0010
0000
1000
0000
0010
0000
0000
0100
0000
,  // measure 26
0001
1000
0100
0010
0001
0010
0100
1000
,  // measure 27
0010
0000
0000
0000
0110
0000
0000
0001
0000
0100
0000
0001
0000
0000
1000
0000
,  // measure 28
0010
0100
0001
0100
0010
0010
0010
0000
,  // measure 29
1100
0000
0000
0000
0011
0000
0000
1000
0000
0001
0000
0100
0000
0000
0010
0000
,  // measure 30
1000
0100
0010
0001
0010
0100
1000
0001
,  // measure 31
0202
0303
2200
3300
,  // measure 32
0010
0000
0100
0000
0010
0100
1001
0000
,  // measure 33
0220
0000
0330
0000
1000
0100
0010
0001
,  // measure 34
1000
0010
0101
0000
0001
0010
0100
1000
,  // measure 35
0001
0010
0101
0000
0100
0010
1000
0001
,  // measure 36
1100
1100
0011
0000
0010
0100
0001
1000
,  // measure 37
0101
0101
1010
0000
0001
0010
0100
0010
,  // measure 38
0110
0110
1001
0000
0010
0100
0001
0000
,  // measure 39
1000
0100
0000
0000
0100
0010
0000
0000
0010
0001
0000
0000
0001
0100
0000
0000
,  // measure 40
0100
0010
0000
0000
0010
1000
0000
0000
1000
0001
0000
0000
0001
0100
0000
0000
,  // measure 41
0020
0100
0100
0100
0230
0010
0310
0000
,  // measure 42
1100
0000
0000
0110
0000
0000
0011
0000
0001
0000
0010
0000
0100
0000
1000
0000
,  // measure 43
0010
0000
0100
0000
0001
0000
1000
0100
1000
0000
0001
0000
0100
0000
0010
0000
,  // measure 44
1000
0000
1000
0000
0001
0000
0010
0001
0010
0000
0001
0000
0100
0000
0010
0000
,  // measure 45
1010
0000
1010
0000
0010
0000
0100
0001
0100
0000
0010
0000
1000
0000
0100
0000
,  // measure 46
0110
0000
0110
0000
0001
0000
1000
0010
1000
0000
0001
0000
0010
0000
0100
0000
,  // measure 47
0110
0000
1001
0000
0001
0000
0000
1000
0001
0000
1000
0000
0100
0000
0010
0000
,  // measure 48
0001
0010
0100
1000
0002
0013
0020
0130
,  // measure 49
0200
0010
0010
0310
0020
0100
0200
0330
,  // measure 50
0001
0100
1000
0001
0010
1000
0110
0000
,  // measure 51
0001
1000
0110
0000
1000
0001
0100
0001
,  // measure 52
0010
0001
0100
0001
0000
1100
0101
0000
,  // measure 53
0001
0100
0011
0000
1000
0010
1100
0000
,  // measure 54
0001
0010
0100
1001
0000
0110
1001
0000
,  // measure 55
1000
0001
0110
0000
1000
0010
1000
0001
,  // measure 56
1000
0100
0010
0001
0000
0110
1001
0000
,  // measure 57
0001
0100
0110
0000
1000
0010
0110
0000
,  // measure 58
0001
0100
1000
0010
0000
0110
1001
0000
;

//---------------dance-single - ----------------
#NOTES:
     dance-single:
     :
     Medium:
     8:
     0.377331,0.401754,0.376110,0.196603,0.004274,309.000000,265.000000,44.000000,23.000000,0.000000,0.000000,0.377331,0.401754,0.376110,0.196603,0.004274,309.000000,265.000000,44.000000,23.000000,0.000000,0.000000:
// measure 0
0000
0000
0000
0000
,  // measure 1
0000
0000
0000
0000
,  // measure 2
0000
0000
0000
0000
,  // measure 3
0000
0000
0000
0000
,  // measure 4
0000
0000
0000
0000
,  // measure 5
0001
0010
1000
0100
,  // measure 6
1000
0001
1000
0001
0000
0000
1001
0000
,  // measure 7
0001
0100
1000
0010
,  // measure 8
0001
0010
0100
1000
0000
0000
0110
0000
,  // measure 9
0010
1001
0100
1001
,  // measure 10
0001
0010
0100
1000
0000
0010
0100
0010
,  // measure 11
0100
0011
1100
0011
,  // measure 12
1000
0100
0010
0001
0000
0100
0010
0100
,  // measure 13
0010
0000
1000
0000
0001
0010
0001
0000
,  // measure 14
1000
0100
1000
0100
0000
0100
0100
0000
,  // measure 15
1001
0110
1010
0101
,  // measure 16
0010
0100
0100
0010
0000
0000
1001
0000
,  // measure 17
0001
0000
0101
0000
0001
0100
0010
0000
,  // measure 18
1000
0100
0010
0000
1000
1000
1000
0000
,  // measure 19
1000
0000
1010
0000
1000
0010
0100
0000
,  // measure 20
0001
0100
0010
0000
0001
0001
0001
0000
,  // measure 21
1100
0000
0101
0000
0010
0100
0010
0000
,  // measure 22
1000
0100
1000
0000
0001
0100
0001
0000
,  // measure 23
0110
0000
1001
0000
0010
0100
0001
0000
,  // measure 24
0100
0010
0100
0010
0100
0000
1001
0000
,  // measure 25
0020
0001
0001
0031
,  // measure 26
2000
3100
0020
0031
,  // measure 27
2000
0010
0010
3010
,  // measure 28
0200
0310
2000
3001
,  // measure 29
0020
0001
0001
0031
,  // measure 30
0200
0310
2000
3002
,  // measure 31
0203
0000
0020
0330
,  // measure 32
0001
0010
0100
1000
,  // measure 33
0110
0000
0000
0000
1000
0001
1000
0001
,  // measure 34
1000
0100
0000
0000
0001
1000
0001
1000
,  // measure 35
0001
0100
0000
0000
1000
0010
1000
0010
,  // measure 36
0100
0001
0000
0000
0001
0100
0001
0100
,  // measure 37
0010
1000
0000
0000
0010
0100
0010
0100
,  // measure 38
0001
1000
0000
0000
0000
0000
0000
0000
,  // measure 39
0012
0103
1020
0130
,  // measure 40
2100
3010
0102
1003
,  // measure 41
0220
0330
2002
3003
,  // measure 42
0010
0000
0000
0010
0000
0000
1000
0000
0001
0000
0000
0000
1001
0000
0000
0000
,  // measure 43
0001
0010
0001
0000
1000
0100
1000
0100
,  // measure 44
1000
1000
1000
0000
0001
0100
0001
0100
,  // measure 45
0001
0001
0001
0000
0100
0010
0100
0010
,  // measure 46
0100
0100
0100
0000
0010
0100
0010
0100
,  // measure 47
0010
0010
0000
0000
1000
0000
0110
0000
,  // measure 48
0001
0110
1010
0101
,  // measure 49
0020
0130
2002
3003
,  // measure 50
0001
0010
0001
1000
0001
0001
1001
0000
,  // measure 51
0011
0000
1100
0000
0001
0010
0001
0000
,  // measure 52
1000
0100
1000
0100
0000
0000
1001
0000
,  // measure 53
0010
1001
0100
1001
,  // measure 54
0010
0001
0100
0010
0000
0010
0010
0000
,  // measure 55
1000
0101
1000
0011
,  // measure 56
0100
0010
0100
0010
0000
0000
1001
0000
,  // measure 57
0010
0101
0010
1100
,  // measure 58
0001
0010
0100
0010
0000
1000
1001
0000
;

//---------------dance-single - ----------------
#NOTES:
     dance-single:
     :
     Easy:
     6:
     0.262544,0.351535,0.282083,0.299179,0.000000,215.000000,182.000000,33.000000,35.000000,0.000000,0.000000,0.262544,0.351535,0.282083,0.299179,0.000000,215.000000,182.000000,33.000000,35.000000,0.000000,0.000000:
// measure 0
0000
0000
0000
0000
,  // measure 1
0000
0000
0000
0000
,  // measure 2
0000
0000
0000
0000
,  // measure 3
0000
0000
0000
0000
,  // measure 4
0000
0000
0000
0000
,  // measure 5
2000
3000
0002
0003
,  // measure 6
0100
0100
0110
0000
,  // measure 7
0002
0003
2000
3000
,  // measure 8
0010
0010
0110
0000
,  // measure 9
0002
0010
0013
1001
,  // measure 10
2000
0100
3100
1001
,  // measure 11
0020
0100
0130
1001
,  // measure 12
0200
0010
0310
1001
,  // measure 13
0002
0100
0103
1001
,  // measure 14
2000
0100
3100
1001
,  // measure 15
0020
0100
0130
0110
,  // measure 16
0001
1000
0010
1001
,  // measure 17
0010
1001
0001
0100
,  // measure 18
0010
1001
1000
0100
,  // measure 19
0010
1001
0010
1001
,  // measure 20
0100
0100
0110
1001
,  // measure 21
1000
0110
0001
0100
,  // measure 22
0001
0110
1000
0100
,  // measure 23
0010
0010
0001
0001
,  // measure 24
0100
0100
1000
1001
,  // measure 25
0020
0030
0002
0003
,  // measure 26
0200
0300
2000
3000
,  // measure 27
0020
0030
2000
3000
,  // measure 28
0200
0300
0002
0003
,  // measure 29
0010
0001
0100
1000
,  // measure 30
0010
1000
0100
0001
,  // measure 31
2000
0000
0002
3003
,  // measure 32
0001
0010
0100
1000
,  // measure 33
1001
0000
0010
0010
,  // measure 34
2002
3003
0100
0100
,  // measure 35
2002
3003
0010
0010
,  // measure 36
2002
3003
0100
0100
,  // measure 37
2002
3003
0010
0100
,  // measure 38
2002
3003
0010
0000
,  // measure 39
1000
0100
0010
0001
,  // measure 40
0001
0010
0100
1000
,  // measure 41
0020
0000
0200
0330
,  // measure 42
0110
0000
0001
1000
,  // measure 43
0110
0000
1000
0001
,  // measure 44
0110
0000
0001
0110
,  // measure 45
1000
0000
1000
0110
,  // measure 46
0001
0000
0010
1001
,  // measure 47
0100
0000
1001
0000
,  // measure 48
0010
0001
0100
1000
,  // measure 49
0020
0000
0200
0330
,  // measure 50
0001
0010
0100
1000
,  // measure 51
0010
0010
1000
0001
,  // measure 52
0100
0100
0001
1000
,  // measure 53
0001
0010
0100
1000
,  // measure 54
1000
0100
0010
0001
,  // measure 55
0100
0100
0010
1000
,  // measure 56
0010
0010
0100
0001
,  // measure 57
1000
0100
0010
0001
,  // measure 58
0100
0000
0010
0000
0000
1000
1001
0000
;

//---------------dance-single - ----------------
#NOTES:
     dance-single:
     :
     Beginner:
     3:
     0.141652,0.200877,0.025644,0.017096,0.000000,116.000000,113.000000,3.000000,2.000000,0.000000,0.000000,0.141652,0.200877,0.025644,0.017096,0.000000,116.000000,113.000000,3.000000,2.000000,0.000000,0.000000:
// measure 0
0000
0000
0000
0000
,  // measure 1
0000
0000
0000
0000
,  // measure 2
0000
0000
0000
0000
,  // measure 3
0000
0000
0000
0000
,  // measure 4
0000
0000
0000
0000
,  // measure 5
1000
0000
0001
0000
,  // measure 6
0100
0000
0100
0000
,  // measure 7
0001
0000
1000
0000
,  // measure 8
0100
0000
0100
0000
,  // measure 9
1000
0000
0010
0000
,  // measure 10
0001
0000
0001
0000
,  // measure 11
1000
0000
0100
0000
,  // measure 12
0001
0000
0001
0000
,  // measure 13
0010
0000
0001
0000
,  // measure 14
0100
0000
1000
0000
,  // measure 15
0010
0000
1000
0000
,  // measure 16
0100
0000
0001
0000
,  // measure 17
1000
1000
1000
0000
,  // measure 18
0001
0000
1000
0000
,  // measure 19
0001
0001
0001
0000
,  // measure 20
1000
0000
0001
0000
,  // measure 21
0100
0100
0100
0000
,  // measure 22
0010
0000
0100
0000
,  // measure 23
0010
0010
0010
0000
,  // measure 24
0100
0000
0010
0000
,  // measure 25
1000
0000
0000
0000
,  // measure 26
0100
0000
0000
0000
,  // measure 27
0010
0000
0000
0000
,  // measure 28
0001
0000
0000
0000
,  // measure 29
0010
0000
0000
0000
,  // measure 30
1000
0000
0000
0000
,  // measure 31
0001
0000
2000
0000
,  // measure 32
3000
0000
0000
0000
,  // measure 33
1001
0000
0000
0000
,  // measure 34
0010
0000
0100
0100
,  // measure 35
0100
0000
0010
0010
,  // measure 36
0010
0000
0100
0100
,  // measure 37
0100
0000
0010
0010
,  // measure 38
0010
0000
0000
0000
,  // measure 39
0001
0000
1000
0000
,  // measure 40
0001
0000
1000
0000
,  // measure 41
0010
0000
0100
0000
,  // measure 42
1001
0000
0001
0001
,  // measure 43
0001
0000
1000
1000
,  // measure 44
1000
0000
0001
0001
,  // measure 45
0001
0000
1000
1000
,  // measure 46
1000
0000
0010
0010
,  // measure 47
0010
0000
0000
0000
,  // measure 48
0000
0000
0100
0100
,  // measure 49
0100
0000
0200
0000
,  // measure 50
0300
0000
0000
0000
,  // measure 51
0001
0001
0001
0000
,  // measure 52
1000
1000
1000
0000
,  // measure 53
0001
0000
1000
0000
,  // measure 54
0001
0000
1000
0000
,  // measure 55
0010
0010
0010
0000
,  // measure 56
0100
0100
0100
0000
,  // measure 57
0010
0000
0100
0000
,  // measure 58
0010
0010
0000
1001
;
