#TITLE:THE KID FROM 3030 MEDLEY;
#SUBTITLE:;
#ARTIST:DELTRON 3030;
#TITLETRANSLIT:;
#SUBTITLETRANSLIT:;
#ARTISTTRANSLIT:;
#GENRE:;
#CREDIT:;
#BANNER:THE KID FROM 3030 MEDLEY.png;
#BACKGROUND:THE KID FROM 3030 MEDLEY-bg.png;
#LYRICSPATH:;
#CDTITLE:;
#MUSIC:THE KID FROM 3030 MEDLEY.ogg;
#OFFSET:-0.004000;
#SAMPLESTART:5.004000;
#SAMPLELENGTH:13.333334;
#SELECTABLE:YES;
#BPMS:0.000000=90.000000
,67.333336=85.000000
,67.875000=80.000000
,68.000000=77.000000
,68.250000=79.000000
,72.000000=78.000000
,120.000000=100.000000
;
#STOPS:63.500000=1.555557
;
#BGCHANGES:;
#KEYSOUNDS:;
#ATTACKS:;

//---------------dance-single - ----------------
#NOTES:
     dance-single:
     :
     Hard:
     9:
     0.335979,0.357918,0.144286,0.007214,0.198393,326.000000,306.000000,20.000000,1.000000,0.000000,0.000000,0.335979,0.357918,0.144286,0.007214,0.198393,326.000000,306.000000,20.000000,1.000000,0.000000,0.000000:
0000
0000
0000
0000
,
0000
0000
0000
0000
,
0001
1000
0010
0010
1000
0001
0100
0100
,
0001
0010
0100
0100
1000
0100
0010
0010
,
1000
0100
0010
0010
0001
0100
0010
0010
,
1000
0001
1000
0001
0100
0100
0100
0000
,
0001
0010
0001
0001
1000
0100
1000
1000
,
0001
0100
0010
0010
1000
0010
0100
0100
,
0001
1000
0100
0010
1000
0001
0010
0100
,
0001
1000
0010
0010
0010
1000
1001
0000
,
0100
0010
1000
0001
0010
0100
1000
0001
,
0100
0010
1000
1000
1000
0001
1001
0000
,
0001
0100
0100
0010
1000
0010
0010
0100
,
0001
1000
0100
0100
0010
0001
1001
0000
,
0010
0100
0110
0000
0100
0010
0110
0000
,
0001
0010
0100
0010
0001
1000
1001
0000
,
0000
0000
0000
0000
,
0000
0000
0000
0000
,
0001
0000
0000
1000
0001
0000
1000
0000
0010
0000
0010
0000
0010
0000
1000
0010
,
1000
0000
0000
0001
1000
0000
0001
0000
0100
0000
0100
0000
0100
0000
0010
0100
,
0010
0000
0000
1000
0100
0000
0100
0000
0010
0000
0001
0000
0100
0000
0001
0100
,
0001
0000
0000
0001
0010
0000
0100
0000
0100
0000
1000
0000
0010
0000
1000
0001
,
1000
0000
0010
0100
0010
0000
1000
0000
0001
0010
0001
0000
0100
0000
0000
0000
,
0010
0000
1000
0100
1000
0000
0010
0000
0100
0001
0100
0000
0010
0000
0000
0000
,
1000
0100
1000
0000
0001
0000
0010
0000
0001
0100
0001
0000
1000
0000
0000
0000
,
0010
0100
0010
0000
1000
0000
0001
0000
0100
0010
0100
0000
0001
0000
0000
0000
,
1000
0000
0000
1000
0001
0000
1000
0000
0000
0001
1000
0000
0001
0000
0000
0000
,
0100
0000
0000
0010
0100
0000
0010
0000
0000
0100
0010
0000
0100
0000
0000
0000
,
0001
0000
1000
0010
1000
0000
0001
0000
1000
0100
1000
0000
0001
0000
0000
0000
,
1000
0000
0001
0010
0001
0000
1000
0000
0001
0100
0001
0000
1000
0000
0000
0000
,
0010
0010
0010
0010
,
1000
0000
0001
0000
0100
0000
0000
0010
0000
0010
0000
0000
1001
0000
0000
0000
,
0001
0000
1000
0000
0100
0000
0000
0010
0000
0010
0000
0000
1001
0000
0000
0000
,
1000
0000
0100
0000
0010
0000
0000
0100
0000
0100
0000
0000
1001
0000
0000
0000
,
0001
0000
0010
0000
0100
0000
0000
0010
0000
0010
0000
0000
1001
0000
0000
0000
,
0100
0000
0010
0000
1000
0000
0000
0001
0000
1000
0000
0000
1001
0000
0000
0000
,
0100
0000
0001
0000
1000
0000
0000
0010
0000
0100
0000
0000
1001
0000
0000
0000
,
0010
0000
0001
0000
0100
0000
0000
0010
0000
0010
0000
0000
1001
0000
0000
0000
,
0100
0000
0010
0000
1000
0000
0000
0010
0000
0010
0000
0000
1001
0000
0000
0000
,
0100
0000
0000
0001
0100
0000
0000
0010
0000
0010
0000
0000
1001
0000
0000
0000
,
0100
0000
0000
1000
0100
0000
0000
0010
0000
0010
0000
0000
1001
0000
0000
0000
,
0010
0000
0001
0000
0100
0000
0000
0010
0000
0010
0000
0000
0100
0000
0010
0000
,
1000
0000
0100
0000
0010
0000
0000
0001
0000
0001
0000
0000
0100
0000
0010
0000
,
0001
0000
1000
0000
0100
0000
0000
0001
0000
0001
0000
0000
1001
0000
0000
0000
,
0001
0000
0010
0000
0100
0000
0000
1000
0000
1000
0000
0000
0101
0000
0000
0000
,
1000
0110
0001
0110
,
0000
0000
0000
0000
0000
0000
0000
0000
0100
0010
0200
0000
0000
0000
0000
0000
,
0000
0300
0000
0000
;

//---------------dance-double - ----------------
#NOTES:
     dance-double:
     :
     Hard:
     8:
     0.268990,0.272700,0.108214,0.007214,0.061321,261.000000,246.000000,15.000000,1.000000,0.000000,0.000000,0.268990,0.272700,0.108214,0.007214,0.061321,261.000000,246.000000,15.000000,1.000000,0.000000,0.000000:
00000000
00000000
00000000
00000000
,
00000000
00000000
00000000
00000000
,
10000000
00000000
01010000
00000000
10000000
01000000
00100000
00000000
,
00001000
00000000
00010100
00000000
00001000
00000001
00000100
00000000
,
00000010
00000000
00001100
00000000
00000100
00010000
00001000
00000000
,
00010000
00000000
00101000
00000000
00100000
00010000
01000000
00000000
,
10000000
01000000
00100000
00010000
01000000
01000000
00001000
00000000
,
00010000
00000100
00001000
00000001
00000010
00000010
00000001
00000000
,
00001000
00000100
00010000
00000000
00001000
01000000
00010000
00000000
,
10000000
01000000
00100000
00010000
01000000
01000000
01000000
00000000
,
00010000
00100000
00001000
00000000
00010000
00000010
00001000
00000000
,
00000001
00000100
00000010
00000010
00000010
00000000
00001001
00000000
,
00001000
00000100
00010000
00000000
00001000
01000000
00100000
00000000
,
10000000
00010000
01000000
01000000
01000000
00000000
10010000
00000000
,
00100000
00001000
00010000
00000000
00000010
00001000
00000001
00000000
,
00001000
00000100
00010000
00010000
00010000
00000000
00011000
00000000
,
00000000
00000000
00000000
00000000
,
00000000
00000000
00000000
00000000
,
00100000
00000000
00010000
00000000
01000000
10000000
00100000
00000000
,
00001000
00000000
00010000
00000000
00000100
00001000
00000010
00000000
,
00000001
00000000
00001000
00000000
00000100
00010000
00001000
00000000
,
01000000
00000000
00100000
00000000
10000000
01000000
00010000
00000000
,
00100000
00000000
00001000
00000000
00010000
00000010
00001000
00000000
,
00000001
00000000
00000100
00000000
00001000
00000100
00010000
00000000
,
00001000
00000000
01000000
00000000
00010000
00100000
01000000
00000000
,
10000000
00000000
01000000
00000000
00100000
00001000
00010000
00000000
,
00000100
00000000
00001000
00000000
00000001
00000010
00000100
00000000
,
00001000
00000100
00010000
00000000
00001000
00100000
00010000
00000000
,
10000000
01000000
00100000
00000000
00100000
00001000
00010000
00000000
,
00001000
00010000
00000100
00000000
00001000
00000010
00000100
00000000
,
00000001
00000001
00000001
00000001
,
00001000
00000100
00001000
00000100
00000010
00000001
00000010
00000000
,
00000001
00000100
00000001
00000100
00000010
00001000
00000010
00000000
,
00001000
00000100
00010000
00001000
00010000
00010000
00010000
00000000
,
00001000
01000000
00100000
01000000
00010000
00010000
00010000
00000000
,
10000000
00000000
00010000
00000000
00100000
00000000
00000000
00001000
00000000
00001000
00000000
00000000
00011000
00000000
00000000
00000000
,
00000100
00000000
00001000
00000000
00000010
00000000
00000000
00000100
00000000
00000100
00000000
00000000
00001001
00000000
00000000
00000000
,
00000100
00000000
00010000
00000000
00001000
00000000
00000000
01000000
00000000
01000000
00000000
00000000
01010000
00000000
00000000
00000000
,
00100000
00000000
10000000
00000000
01000000
00000000
00000000
00100000
00000000
00100000
00000000
00000000
00110000
00000000
00000000
00000000
,
00100000
00000000
00010000
00000000
01000000
00000000
00000000
00100000
00000000
00100000
00000000
00000000
10010000
00000000
00000000
00000000
,
01000000
00000000
00001000
00000000
00010000
00000000
00000000
00001000
00000000
00001000
00000000
00000000
00011000
00000000
00000000
00000000
,
00000010
00000000
00001000
00000000
00000100
00000000
00000000
00000001
00000000
00000001
00000000
00000000
00001010
00000000
00000000
00000000
,
00000010
00000000
00001000
00000000
00000100
00000000
00000000
00010000
00000000
00010000
00000000
00000000
00011000
00000000
00000000
00000000
,
00001000
00100000
00010000
00000000
10000000
01000000
00100000
00000000
,
00001000
00000000
00010000
00000000
00000100
00001000
00000010
00000000
,
00000001
00000100
00001000
00000000
00010000
00100000
10000000
00000000
,
00000000
00000000
00000000
00000000
00000000
00000000
00000000
00000000
01000000
00100000
02000000
00000000
00000000
00000000
00000000
00000000
,
00000000
03000000
00000000
00000000
;

//---------------dance-double - ----------------
#NOTES:
     dance-double:
     :
     Medium:
     6:
     0.222612,0.238612,0.014429,0.007214,0.043286,216.000000,214.000000,2.000000,1.000000,0.000000,0.000000,0.222612,0.238612,0.014429,0.007214,0.043286,216.000000,214.000000,2.000000,1.000000,0.000000,0.000000:
00000000
00000000
00000000
00000000
,
00000000
00000000
00000000
00000000
,
10000000
01000000
00100000
00001000
,
00010000
00000010
00010000
00000100
,
00001000
00000100
00000010
00000001
,
00001000
00000100
00010000
00011000
,
00001000
00001000
00100000
00000000
00010000
00010000
01000000
00000000
,
10000000
01000000
00100000
00000000
00001000
00001000
00010000
00000000
,
00000100
00001000
00000010
00000000
00000001
00001000
00000100
00000000
,
00000010
00000100
00000010
00000100
00000010
00000000
00001000
00000000
,
00000100
00010000
00001000
00000000
00100000
00010000
01000000
00000000
,
00100000
10000000
00010000
10000000
00100000
00000000
01000000
00000000
,
00001000
00010000
00000100
00000000
00001000
00000100
00000010
00000000
,
00000001
00000100
00000010
00000010
00000010
00000000
00001000
00000000
,
00000100
00010000
00001000
00000000
01000000
00010000
10000000
00000000
,
00100000
01000000
00010000
00010000
00010000
00000000
10010000
00000000
,
00000000
00000000
00000000
00000000
,
00000000
00000000
00000000
00000000
,
10000000
00000000
00000000
10000000
00000000
00000000
10000000
00000000
00000000
00000000
00000000
00000000
00010000
00000000
00100000
00000000
,
00001000
00000000
00000000
00001000
00000000
00000000
00001000
00000000
00000000
00000000
00000000
00000000
00010000
00000000
00000010
00000000
,
00000100
00000000
00000000
00000100
00000000
00000000
00000100
00000000
00000000
00000000
00000000
00000000
00010000
00000000
00001000
00000000
,
01000000
00000000
00000000
01000000
00000000
00000000
01000000
00000000
00000000
00000000
00000000
00000000
10000000
00000000
00010000
00000000
,
00100000
00000000
00000000
00100000
00000000
00000000
00100000
00000000
00000000
00000000
00000000
00000000
00001000
00000000
00010000
00000000
,
00000010
00000000
00000000
00000010
00000000
00000000
00000010
00000000
00000000
00000000
00000000
00000000
00000100
00000000
00000001
00000000
,
00001000
00000000
00000000
00001000
00000000
00000000
00001000
00000000
00000000
00000000
00000000
00000000
00000100
00000000
00010000
00000000
,
00001000
00000000
00000000
00001000
00000000
00000000
00001000
00000000
00000000
00000000
00000000
00000000
01000000
00000000
00010000
00000000
,
10000000
00000000
00000000
10000000
00000000
00000000
10000000
00000000
00000000
00000000
00000000
00000000
00010000
00000000
00100000
00000000
,
00001000
00000000
00000000
00001000
00000000
00000000
00001000
00000000
00000000
00000000
00000000
00000000
00010000
00000000
00000010
00000000
,
00000100
00000000
00000000
00000100
00000000
00000000
00000100
00000000
00000000
00000000
00000000
00000000
00010000
00000000
00001000
00000000
,
01000000
00000000
00000000
01000000
00000000
00000000
01000000
00000000
00000000
00000000
00000000
00000000
00100000
00000000
00000000
00000000
,
10000000
10000000
10000000
10000000
,
00010000
00000000
00100000
00000000
01000000
10000000
00100000
00000000
,
00001000
00000000
00010000
00000000
00000100
00001000
00000010
00000000
,
00000001
00000000
00001000
00000000
00000100
00010000
00001000
00000000
,
01000000
00000000
00100000
00000000
10000000
01000000
00100000
00000000
,
00001000
00000000
00000100
00000000
00000010
00000001
00000100
00000000
,
00010000
00000000
00100000
00000000
01000000
10000000
00100000
00000000
,
00010000
00100000
01000000
00000000
10000000
01000000
00100000
00000000
,
00001000
00010000
00000100
00000000
00001000
00000100
00000010
00000000
,
00000001
00000001
00000001
00000000
00000100
00000100
00000100
00000000
,
00010000
00010000
00010000
00000000
01000000
01000000
01000000
00000000
,
10000000
01000000
00100000
00010000
,
00001000
00000100
00000010
00000001
,
00000100
00000010
00000100
00000000
00000010
00000100
00000010
00000000
,
00001000
00000000
00000100
00000000
00010000
00001000
00010000
00000000
,
00000000
00000000
00000000
00000000
,
00000000
00000000
00000000
00000000
01000000
02000000
00000000
00000000
,
00000000
03000000
00000000
00000000
;

//---------------dance-single - ----------------
#NOTES:
     dance-single:
     :
     Medium:
     6:
     0.212306,0.238612,0.079357,0.007214,0.043286,206.000000,195.000000,11.000000,1.000000,0.000000,0.000000,0.212306,0.238612,0.079357,0.007214,0.043286,206.000000,195.000000,11.000000,1.000000,0.000000,0.000000:
0000
0000
0000
0000
,
0000
0000
0000
0000
,
1000
0000
0001
0000
0100
0010
0100
0000
,
0001
0000
1000
0000
0010
0100
0010
0000
,
1000
0000
0001
0000
0010
0001
0010
0000
,
1000
0100
1000
0100
1000
0000
0000
0000
,
0010
0000
0101
0000
1000
0001
1000
0000
,
0010
0000
1100
0000
0001
0010
0001
0000
,
1000
0100
0010
0001
,
0100
0010
0100
0010
0100
0000
0000
0000
,
0001
0010
0100
1000
,
0010
0100
0010
0100
0010
0000
0000
0000
,
1000
0001
0100
0010
,
1000
0001
1000
0001
1000
0000
0000
0000
,
0010
0100
0001
1000
,
0001
0010
0001
0010
0001
0000
0000
0000
,
0000
0000
0000
0000
,
0000
0000
0000
0000
,
0010
0000
0000
0010
0000
0000
0010
0000
0000
0000
0000
0000
1000
0000
0001
0000
,
0100
0000
0000
0100
0000
0000
0100
0000
0000
0000
0000
0000
0001
0000
0010
0000
,
0100
0000
0000
0100
0000
0000
0100
0000
0000
0000
0000
0000
1000
0000
0100
0000
,
0010
0000
0000
0010
0000
0000
0010
0000
0000
0000
0000
0000
0001
0000
1000
0000
,
0100
0000
0000
0100
0000
0000
0110
0000
0000
0000
0000
0000
1000
0000
0001
0000
,
0010
0000
0000
0010
0000
0000
0110
0000
0000
0000
0000
0000
0001
0000
0100
0000
,
0001
0000
0000
0001
0000
0000
1001
0000
0000
0000
0000
0000
1000
0000
0100
0000
,
1000
0000
0000
1000
0000
0000
1001
0000
0000
0000
0000
0000
0010
0000
0100
0000
,
0001
0000
0000
0001
0000
0000
0001
0000
0000
0000
0000
0000
0100
0000
0010
0000
,
1000
0000
0000
1000
0000
0000
1000
0000
0000
0000
0000
0000
0001
0000
0100
0000
,
1000
0000
0000
1000
0000
0000
1000
0000
0000
0000
0000
0000
1000
0000
0010
0000
,
0001
0000
0000
0001
0000
0000
0001
0000
0000
0000
0000
0000
0110
0000
0000
0000
,
0000
0000
0000
0000
,
0001
1000
0001
1001
,
1000
0001
1000
1001
,
0010
0100
0010
0110
,
0100
0010
0100
0110
,
0001
0000
0100
0000
0001
0100
0001
0000
,
1000
0000
0100
0000
1000
0100
1000
0000
,
0010
0000
0100
0000
0010
0010
0010
0000
,
0100
0000
0010
0000
0100
0100
0100
0000
,
0001
0100
0001
0000
1000
0100
1000
0000
,
0001
0010
0001
0000
1000
0010
1000
0000
,
0001
0010
0100
0000
1000
0100
0010
0000
,
0001
0100
1000
0010
,
0001
1000
0100
0010
,
0001
0100
0001
0000
1000
0100
1000
0000
,
0000
0000
0000
0000
,
0000
0000
0000
0000
0100
0200
0000
0000
,
0000
0300
0000
0000
;

//---------------dance-single - ----------------
#NOTES:
     dance-single:
     :
     Beginner:
     1:
     0.079357,0.119306,0.000000,0.007214,0.000000,77.000000,77.000000,0.000000,1.000000,0.000000,0.000000,0.079357,0.119306,0.000000,0.007214,0.000000,77.000000,77.000000,0.000000,1.000000,0.000000,0.000000:
0000
0000
0000
0000
,
0000
0000
0000
0000
,
1000
0000
1000
0000
,
1000
0000
0000
0000
,
0001
0000
0001
0000
,
0001
0000
0000
0000
,
0100
0000
0100
0000
,
0100
0000
0000
0000
,
0010
0010
0010
0000
,
0010
0010
0010
0000
,
0100
0100
0100
0000
,
0100
0100
0100
0000
,
0010
0010
0010
0000
,
0010
0010
0010
0000
,
0100
0100
0100
0000
,
0100
0100
0100
0000
,
0000
0000
0000
0000
,
0000
0000
0000
0000
,
0001
0000
0000
0000
,
1000
0000
0000
0000
,
0010
0000
0000
0000
,
0100
0000
0000
0000
,
0001
0000
0000
0001
,
0001
0000
0000
1000
,
1000
0000
0000
0010
,
0010
0000
0000
0100
,
0100
0000
0000
1000
,
1000
0000
0000
0001
,
0001
0000
0000
1000
,
1000
0000
0000
0000
,
0000
0000
0000
0000
,
0001
0000
0000
0000
,
1000
0000
0000
0000
,
0001
0000
0000
0000
,
1000
0000
0000
0000
,
0010
0000
0010
0000
,
0100
0000
0100
0000
,
0010
0000
0010
0000
,
0100
0000
0100
0000
,
0001
0000
0001
0000
,
1000
0000
1000
0000
,
0001
0000
0001
0000
,
1000
0000
1000
0000
,
0010
0000
0010
0000
,
0100
0000
0100
0000
,
0000
0000
0000
0000
,
0000
0000
0200
0000
,
0000
0300
0000
0000
;

//---------------dance-double - ----------------
#NOTES:
     dance-double:
     :
     Easy:
     3:
     0.124704,0.153394,0.007214,0.072143,0.000000,121.000000,120.000000,1.000000,10.000000,0.000000,0.000000,0.124704,0.153394,0.007214,0.072143,0.000000,121.000000,120.000000,1.000000,10.000000,0.000000,0.000000:
00000000
00000000
00000000
00000000
,
00000000
00000000
00000000
00000000
,
10000000
00100000
00010000
00000000
,
10000000
01000000
00010000
00000000
,
00100000
00001000
00001000
00000000
,
00001000
00010000
00010000
00000000
,
00000010
00001000
00001000
00000000
,
00000010
00000100
00000100
00000000
,
00000020
00000030
00000200
00000300
,
00000001
00000100
00001000
00000000
,
00020000
00030000
00002000
00003000
,
00010000
01000000
00100000
00000000
,
02000000
03000000
00200000
00300000
,
10000000
01000000
00010000
00000000
,
00002000
00003000
00020000
00030000
,
00010000
00000100
00001000
00000000
,
00000000
00000000
00000000
00000000
,
00000000
00000000
00000000
00000000
,
00000100
00000000
00000000
00001000
,
00010000
00000000
00000000
00010000
,
00001000
00000000
00000000
00001000
,
00010000
00000000
00000000
00100000
,
01000000
00000000
00000000
01000000
,
00100000
00000000
00000000
00010000
,
00001000
00000000
00000000
00001000
,
00010000
00000000
00000000
00000100
,
00000010
00000000
00000000
00000010
,
00000100
00000000
00000000
00000001
,
00000010
00000000
00000000
00000100
,
00001000
00000000
00000000
00001000
,
00010000
00000000
00000000
00000000
,
10000000
00100000
10000000
00100000
,
01000000
00010000
01000000
00001000
,
00010000
00001000
00010000
00000100
,
00001000
00000100
00001000
00000001
,
00000010
00000001
00000010
00001000
,
00000100
00001000
00000100
00010000
,
00001000
00010000
00001000
00100000
,
00010000
00100000
00010000
10000000
,
01000000
00100000
00010000
01000000
,
00010000
00100000
00001000
00010000
,
00000010
00001000
00000100
00000010
,
00000001
00000010
00000100
00001000
,
00000100
00010000
00001000
00100000
,
00010000
01000000
10000000
00100000
,
00000000
00000000
00000000
00000000
,
00000000
00000000
00022000
00000000
,
00000000
00033000
00000000
00000000
;

//---------------dance-single - ----------------
#NOTES:
     dance-single:
     :
     Easy:
     3:
     0.112337,0.153394,0.007214,0.014429,0.000000,109.000000,108.000000,1.000000,2.000000,0.000000,0.000000,0.112337,0.153394,0.007214,0.014429,0.000000,109.000000,108.000000,1.000000,2.000000,0.000000,0.000000:
// measure 0
0000
0000
0000
0000
,  // measure 1
0000
0000
0000
0000
,  // measure 2
0010
0010
0010
0000
,  // measure 3
1000
0100
0001
0000
,  // measure 4
0010
0010
0010
0000
,  // measure 5
0001
0100
1000
0000
,  // measure 6
0001
0001
0001
0000
,  // measure 7
1000
0100
0010
0000
,  // measure 8
1000
0000
0001
0000
,  // measure 9
1000
1000
1000
0000
,  // measure 10
0001
0000
1000
0000
,  // measure 11
0001
0001
0001
0000
,  // measure 12
0100
0000
0010
0000
,  // measure 13
0100
0100
0100
0000
,  // measure 14
0010
0000
0100
0000
,  // measure 15
0010
0010
0010
0000
,  // measure 16
0000
0000
0000
0000
,  // measure 17
0000
0000
0000
0000
,  // measure 18
1000
0000
0000
1000
,  // measure 19
0001
0000
0000
0001
,  // measure 20
1000
0000
0000
0100
,  // measure 21
0010
0000
0000
0010
,  // measure 22
0100
0000
0000
1000
,  // measure 23
0100
0000
0000
0010
,  // measure 24
0001
0000
0000
0001
,  // measure 25
0010
0000
0000
0100
,  // measure 26
1000
0000
0000
0010
,  // measure 27
0100
0000
0000
0100
,  // measure 28
0010
0000
0000
1000
,  // measure 29
0001
0000
0000
0001
,  // measure 30
1000
0000
0000
0000
,  // measure 31
0010
0000
0010
0000
,  // measure 32
1000
0100
0001
0000
,  // measure 33
0010
0000
0010
0000
,  // measure 34
0001
0100
1000
0000
,  // measure 35
0001
0010
0100
0000
,  // measure 36
1000
0100
0010
0000
,  // measure 37
1000
0100
0001
0000
,  // measure 38
0001
0010
1000
0000
,  // measure 39
0001
1000
0001
0000
,  // measure 40
0100
0010
0100
0000
,  // measure 41
0001
0010
0001
0010
,  // measure 42
0100
1000
0100
1000
,  // measure 43
0010
0100
0010
0100
,  // measure 44
0001
1000
0001
1000
,  // measure 45
0000
0000
0000
0000
,  // measure 46
0000
0000
0220
0000
,  // measure 47
0000
0330
0000
0000
;
