#TITLE:Sarutobi Champion is 拙者;
#SUBTITLE:;
#ARTIST:Project B-;
#TITLETRANSLIT:Sarutobi Champion is sessha;
#SUBTITLETRANSLIT:;
#ARTISTTRANSLIT:;
#GENRE:;
#CREDIT:;
#BANNER:Sarutobi Champion is sessha.png;
#BACKGROUND:Sarutobi Champion is sessha-bg.png;
#LYRICSPATH:;
#CDTITLE:;
#MUSIC:Sarutobi Champion is sessha.ogg;
#OFFSET:0.820000;
#SAMPLESTART:23.200092;
#SAMPLELENGTH:12.000000;
#SELECTABLE:YES;
#BPMS:0.000000=130.000000
,148.000000=195.000000
;
#STOPS:
;
#BGCHANGES:;
#KEYSOUNDS:;
#ATTACKS:;

//---------------dance-single - ----------------
#NOTES:
     dance-single:
     :
     Hard:
     16:
     0.863150,0.929476,0.308917,0.054515,0.913122,665.000000,631.000000,34.000000,6.000000,0.000000,0.000000,0.863150,0.929476,0.308917,0.054515,0.913122,665.000000,631.000000,34.000000,6.000000,0.000000,0.000000:
0000
0000
0000
0000
,
0000
0000
0000
0000
,
0000
0000
0000
0000
,
0000
0000
0000
0000
,
0000
0000
0000
0000
,
0001
0000
1000
0100
0000
0100
1000
0000
0010
0000
1000
0001
0000
0001
1000
0000
,
0001
0000
0010
0001
0000
0001
0010
0000
0100
0000
1000
0100
0000
0100
1000
0000
,
0010
0000
0100
0001
0000
0001
0100
0000
0010
0000
1000
0100
0000
0100
1000
0000
,
0001
0000
1000
0000
0001
0000
1000
0100
0000
0001
0100
0000
0110
0000
1000
0001
,
1000
0001
0010
0100
0010
0001
1000
0100
,
0001
0000
0000
1000
0000
0000
0010
0000
0000
0001
0000
0000
0100
0000
0000
1000
0000
0000
0010
0000
0000
0100
0010
0100
,
0010
0000
0000
1000
0000
0000
0001
0000
0000
1000
0000
0000
0010
0000
0000
1000
0001
1000
0001
0000
0000
0010
0000
0000
,
0001
0000
0010
0100
0000
1000
0100
0000
0011
0000
0000
0000
1100
0000
0000
0000
,
1000
0000
0001
0000
0001
0000
1000
0000
0001
0000
0010
0100
1000
0000
1000
0000
,
0000
0000
0001
0010
0001
0000
1000
0000
0001
0010
0001
0100
0001
0000
1000
0000
,
0010
0000
0100
0001
0010
0000
0100
0000
1000
0000
0010
0100
0001
0000
1000
0000
,
0100
0010
0100
0010
0100
0010
0100
0010
0200
0000
0010
0000
0010
0000
0310
0000
,
0001
0000
0010
0100
0010
0000
1000
0000
0010
0001
0010
0001
1000
0100
1000
0100
,
0010
0000
0001
1000
0100
0000
0010
0000
1000
0001
1000
0001
0100
0010
0100
0010
,
1000
0000
0000
0000
0000
0000
0010
0000
0001
0000
0010
0000
0001
0000
0000
0000
0000
0000
1000
0000
0100
0000
1000
0000
0100
0000
0000
0000
0000
0000
0010
0000
0100
0000
0010
0000
0100
0000
0000
0000
0000
0000
0001
0000
0000
0010
0000
0000
,
0100
0000
1000
0100
1000
0100
0010
0001
0010
0001
0100
0010
2000
0000
0000
0000
,
3001
0000
0001
0000
1000
0000
0010
0100
0001
0100
0010
0000
1000
0000
0000
0000
,
0001
0100
0001
0000
1000
0000
0001
0010
0100
0010
0001
0000
1000
0000
0001
0000
,
1000
0010
0100
0000
0001
0000
1000
0100
0010
0100
1000
0000
0001
0000
0010
0001
,
0010
0001
0010
0001
0010
0001
0010
0001
0020
0000
0001
0000
0001
0000
0031
0000
,
1000
0010
0100
0000
0001
0000
0010
0100
1000
0100
0010
0000
0100
0010
0001
0000
,
1000
0001
0010
0000
0001
0000
1000
0001
0010
0001
1000
0000
0001
0010
0100
0000
,
1000
0010
1000
0010
0000
0100
0001
0000
1000
0100
1000
0100
0000
0010
0001
0000
,
1000
0000
0001
0010
0100
0010
0001
1000
0100
0010
0100
1000
0001
1000
0001
1000
,
0010
0100
0100
0100
0100
0100
0110
0100
,
0100
0010
0100
0000
0100
0000
0100
0000
0100
0000
0110
0000
0110
0000
0110
0000
,
1001
0000
1000
0001
1000
0000
2000
0000
0001
0000
0001
0000
0001
0000
3001
0000
,
0100
0010
0100
0010
0100
0010
0100
0000
0000
0100
0000
0000
0100
0000
0000
1001
0000
0000
1001
0000
0000
1001
0000
0000
,
0010
0000
1000
0100
0010
0000
0100
0010
0001
0000
0010
0100
1000
0000
0001
0010
,
0100
0000
1000
0001
0100
0000
0001
1000
0010
0000
1000
0100
0010
0000
0100
0010
,
1000
0000
0001
0010
0100
0000
1000
0100
0010
0000
0001
0100
0010
0000
1000
1000
,
0000
0000
0000
0001
0000
0000
0001
0000
0000
0000
0000
0000
1000
0000
0001
0000
1000
0000
0001
0000
1000
0000
0001
0000
1000
0000
0000
0000
0000
0000
0000
0000
0000
0000
0000
0000
0110
0000
0000
0000
0000
0000
0000
0000
0000
0000
0000
0000
,
1001
0000
0010
0001
0100
1000
0010
0000
,
1001
0000
0110
0000
1001
0000
0010
1000
,
0100
0001
0010
0000
1001
0000
0110
0000
,
0001
0010
0001
0010
1000
0010
1000
0100
,
1000
0100
0001
0100
0001
0001
1000
1000
,
0010
0000
0010
0000
0100
0000
0100
0000
0001
1000
0001
1000
0001
1000
0001
1000
,
0010
0100
0010
0100
0010
0100
0010
0000
1000
0000
0001
0000
0001
0000
1000
0000
,
0001
0000
0100
0010
0100
0000
0100
0000
0000
0000
0001
1000
0001
0000
1000
0000
,
0010
0100
0010
0100
0010
0000
1000
0000
0001
0000
0010
0001
0010
0000
0001
0000
,
1000
0000
0100
1000
0100
0000
1000
0000
0010
0100
0010
0100
0010
0100
0010
0100
,
0010
0100
0000
0000
1001
0000
0000
0000
0001
0000
0010
0001
0010
0000
1000
0100
,
1000
0100
1000
0100
1000
0000
0001
0000
1000
0000
0010
0100
0010
0000
1000
0001
,
1000
0000
0010
0100
0010
0100
0010
0100
0010
0000
1000
0100
1000
0000
0010
0100
,
0010
0000
1000
0001
1000
0000
0001
0010
0001
0010
0001
0010
0001
1000
0100
1000
,
0100
1000
0100
1000
0100
0000
0000
0000
0001
0000
0010
0100
0010
0000
1000
0000
,
0001
0010
0001
0010
0001
0010
0001
0010
0001
0000
1000
0010
1000
0000
0001
0000
,
0100
0010
0100
0010
0100
0000
0001
0000
1000
0010
1000
0000
0001
0100
0001
0000
,
1000
0100
1000
0000
0001
0010
0001
0000
1000
0001
1000
0000
0010
0100
0010
0000
,
1000
0100
1000
0100
0010
0000
0000
0000
1000
0000
0001
0010
0001
0000
1000
0010
,
1000
0000
0001
0100
0001
0100
0001
0100
0001
0000
1000
0010
1000
0000
0010
0100
,
0010
0000
1000
0001
1000
0001
1000
0001
0100
0000
0000
0101
0000
0000
1100
0000
,
0000
0011
0000
0000
1010
0000
0000
0110
0000
0000
0011
0000
0000
1001
0000
0000
,
0100
0001
1000
0001
1000
0001
1000
0001
0100
0000
0010
1000
0010
0000
0000
0000
,
0100
0000
0001
0010
0001
0000
0000
0000
1000
0000
0001
0010
0100
0000
0000
0000
,
0001
0000
1000
0100
0010
0000
0000
0000
0001
0000
1000
0100
1000
0000
0001
0100
,
0001
0000
1000
0010
1000
0000
0001
0010
0001
0010
0100
1000
0100
1000
0100
0010
,
0100
0010
0001
0010
0001
0100
0010
0100
0010
0000
0000
1010
0000
0000
0011
0000
,
0000
1100
0000
0000
0101
0000
0000
1100
0000
0000
0110
0000
0000
0011
0000
0000
,
2002
0000
0000
0000
,
3003
0000
0000
0000
;

//---------------dance-double - ----------------
#NOTES:
     dance-double:
     :
     Hard:
     16:
     0.796953,0.929476,0.372517,0.063601,0.726863,614.000000,573.000000,41.000000,7.000000,0.000000,0.000000,0.796953,0.929476,0.372517,0.063601,0.726863,614.000000,573.000000,41.000000,7.000000,0.000000,0.000000:
00000000
00000000
00000000
00000000
,
00000000
00000000
00000000
00000000
,
00000000
00000000
00000000
00000000
,
00000000
00000000
00000000
00000000
,
00000000
00000000
00000000
00000000
,
00100000
00000000
10000000
00100000
00000000
10000000
00100000
00000000
01000000
00000000
00001000
00010000
00000000
00001000
00010000
00000000
,
00000100
00000000
00001000
00000010
00000000
00001000
00000010
00000000
00000100
00000000
00000001
00000010
00000000
00000100
00001000
00000000
,
00000010
00000000
00001000
00000100
00000000
00001000
00000100
00000000
00010000
00000000
00001000
01000000
00000000
00001000
01000000
00000000
,
00100000
00000000
10000000
00000000
10010000
00000000
00010000
00100000
00000000
00100000
00000000
00000000
00011000
00000000
00000000
00000000
,
00000100
00001000
00000010
00000001
00000100
00001000
00010000
00100000
,
10000000
00000000
01000000
00000000
00010000
00000000
00001000
00000000
00000100
00000000
00000010
00000000
00000001
00000000
00000100
00000010
,
00001000
00000000
00000000
00000001
00000010
00000001
00000010
00000000
00000000
00000100
00000000
00000000
00001000
00000000
00000000
00010000
00000100
00010000
00000100
00000000
00000000
00010000
00000000
00000000
,
00001000
00100000
00010000
00100000
00000000
00010000
01000000
00000000
00100000
00000000
00000000
00000000
10010000
00000000
00000000
00000000
,
01000000
00000000
10000000
00000000
00100000
00000000
01000000
00000000
00010000
00000000
00100000
00001000
00010000
00000000
00010000
00000000
,
00000000
00000000
00000100
00000000
00001000
00000000
00000010
00000000
00000100
00000001
00001000
00000010
00001000
00000000
00000100
00000000
,
00010000
00000000
00001000
00010000
00001000
00000000
00100000
00000000
00010000
01000000
00100000
01000000
00010000
00000000
10000000
00000000
,
00100000
01000000
00100000
01000000
00100000
01000000
00100000
01000000
00200000
00000000
01000000
00000000
01000000
00000000
01300000
00000000
,
10000000
00000000
01000000
00100000
00010000
00000000
00100000
00000000
00001000
00010000
00000100
00010000
00000100
00001000
00000100
00000010
,
00000001
00000000
00000100
00000010
00001000
00000000
00000100
00000000
00010000
00001000
00010000
00001000
00100000
00010000
01000000
00100000
,
10000000
00000000
00000000
00000000
00000000
00000000
00010000
00000000
00100000
00000000
00010000
00000000
00100000
00000000
00000000
00000000
00000000
00000000
00001000
00000000
00010000
00000000
00001000
00000000
00010000
00000000
00000000
00000000
00000000
00000000
00000010
00000000
00001000
00000000
00000010
00000000
00001000
00000000
00000000
00000000
00000000
00000000
00000100
00000000
00000000
00000010
00000000
00000000
,
00000001
00000000
00000010
00001000
00000100
00001000
00000010
00001000
00000100
00010000
00001000
00010000
00002000
00000000
00000000
00000000
,
00103000
00000000
00010000
01000000
00100000
00000000
10000000
00000000
01000000
00100000
00010000
00000000
01000000
00000000
00000000
00000000
,
00010000
00100000
00001000
00000000
00010000
00000000
00000100
00001000
00000010
00001000
00000100
00000000
00000010
00000000
00000001
00000000
,
00000100
00000010
00001000
00000000
00000100
00000000
00010000
00000000
00001000
00100000
00010000
00000000
01000000
00000000
00100000
10000000
,
00100000
01000000
00100000
10000000
00100000
10000000
00100000
10000000
00200000
00000000
01000000
00000000
01000000
00000000
01300000
00000000
,
00010000
00100000
00001000
00000000
00010000
00000000
00000100
00001000
00000100
00001000
00000001
00000010
00000001
00001000
00000100
00000000
,
00000001
00001000
00000001
00000000
00001000
00000000
00000100
00010000
00001000
00010000
00000100
00010000
00000100
00010000
00001000
00000000
,
00100000
00000000
00000000
00110000
00000000
00000000
10000000
00000000
01100000
00000000
00000000
10010000
00000000
00000000
00100000
00000000
,
00001000
00000000
00010000
00000100
00010000
00000100
00001000
00000100
00001000
00000100
00000010
00000001
00001000
00000100
00010000
00001000
,
00010000
00001000
00001000
00001000
00001000
00001000
00011000
00001000
,
00001000
00100000
00010000
00000000
00010000
00000000
00010000
00000000
00010000
00000000
01100000
00000000
01100000
00000000
01100000
00000000
,
10010000
10000000
10000000
20000000
00100000
00100000
00100000
30100000
,
01000000
00100000
01000000
00100000
01000000
00100000
01000000
00000000
00000000
01000000
00000000
00000000
00010000
00000000
00000000
00010000
00000000
00000000
00100000
00000000
00000000
00100000
00000000
00000000
,
00101000
00000000
00000000
00100000
00010000
00000000
00000000
00010000
10000000
00000000
00000000
10000000
00010000
00000000
00000000
00010000
,
00001000
00000000
00000000
00001000
00000001
00000000
00000000
00000001
00010000
00000000
00000000
00010000
00001000
00000000
00000000
00001000
,
10000000
00000000
01000000
00000000
00100000
00000000
00010000
00000000
00001000
00000000
00000100
00000000
00000010
00000000
00000001
00000010
,
00000000
00000000
00000000
00000100
00000000
00000000
00001000
00000000
00000000
00000000
00000000
00000000
00010000
00000000
00001000
00000000
00010000
00000000
00001000
00000000
00010000
00000000
00001000
00000000
00010000
00000000
00000000
00000000
00000000
00000000
00000000
00000000
00000000
00000000
00000000
00000000
01100000
00000000
00000000
00000000
00000000
00000000
00000000
00000000
00000000
00000000
00000000
00000000
,
10000000
00000000
01000000
00100000
00010000
00100000
01000000
00000000
,
00110000
00000000
00011000
00000000
00001100
00000000
00000001
00000010
,
00000100
00000010
00000001
00000000
00001100
00000000
00011000
00000000
,
00100000
00010000
01000000
00100000
10000000
00000000
10000000
01000000
,
00100000
00010000
01000000
00000000
00001000
00001000
00010000
00010000
,
00000010
00000000
00000010
00000000
00000100
00000000
00000100
00000000
00000001
00000010
00000001
00000010
00000100
00001000
00000100
00001000
,
00000010
00010000
00000010
00010000
00001000
01000000
00001000
01000000
00100000
00000000
10000000
00000000
01000000
00000000
00010000
00000000
,
00001000
00000000
00010000
00001000
00010000
00000000
00000010
00000000
00000000
00000000
00001000
00000001
00001000
00000000
00000010
00000000
,
00001000
00000001
00001000
00000001
00001000
00000000
00000100
00000000
00010000
00000000
00001000
00000000
01000000
00000000
00100000
00000000
,
10000000
00000000
01000000
00000000
00100000
00000000
00001000
00000000
00010000
00001000
00010000
00000000
00001000
00010000
00001000
00000000
,
00020000
00000000
00000000
00000000
00030000
00000000
00000000
00000000
00000100
00000000
00001000
00000010
00001000
00000000
00000001
00000000
,
00000010
00001000
00010000
00100000
10000000
10000000
00010000
00010000
,
00100000
00100000
00001000
00001000
00010000
00000100
00010000
00000010
,
00010000
00000100
00010000
00001000
00100000
00010000
01000000
10000000
,
00100000
00000000
00100000
00000000
10100000
00000000
00000000
00000000
00010000
00000000
00100000
00010000
00100000
00000000
00001000
00000000
,
00010000
00000000
00001000
00000000
00000100
00000000
00000010
00000000
00000001
00000000
00000100
00000010
00000100
00000000
00000010
00000000
,
00000100
00000000
00010000
00000000
00001000
00000000
00100000
00000000
00010000
01000000
00010000
00000000
10000000
01000000
10000000
00000000
,
00010000
00100000
00010000
00000000
10000000
01000000
10000000
00000000
00010000
01000000
00010000
01000000
00100000
10000000
00100000
10000000
,
00010000
01000000
00010000
01000000
00100000
00000000
00000000
00000000
10000000
00000000
01000000
00000000
00010000
00000000
00001000
00000000
,
00000100
00000000
00000001
00000000
00000010
00001000
00000010
00001000
00000010
00000000
00000001
00000000
00000100
00000000
00001000
00000000
,
00010000
00000000
00100000
00000000
10000000
00010000
10000000
00010000
10000000
00000000
00000000
10100000
00000000
00000000
00110000
00000000
,
00000000
00011000
00000000
00000000
00001100
00000000
00000000
00000101
00000000
00000000
00000011
00000000
00000000
00001010
00000000
00000000
,
00011000
00000000
00000000
00110000
00000000
00000000
01000000
00000000
10010000
00000000
10000000
01000000
00100000
00000000
00000000
00000000
,
00011000
00000000
00000100
00001000
00000010
00000000
00000000
00000000
00001100
00000000
00000100
00010000
00001000
00000000
00000000
00000000
,
00110000
00000000
10000000
01000000
00100000
00000000
00000000
00000000
00010000
00001000
00010000
00001000
00100000
00010000
00100000
00010000
,
10000000
01000000
10000000
01000000
00100000
00010000
00100000
00010000
10000000
01000000
00100000
00000000
00100000
00001000
00010000
00000000
,
00000100
00001000
00000001
00000000
00000010
00000100
00001000
00000000
00000011
00000000
00000000
00001100
00000000
00000000
00011000
00000000
,
00000000
00110000
00000000
00000000
11000000
00000000
00000000
00110000
00000000
00000000
00001010
00000000
00000000
00000101
00000000
00000000
,
00002002
00000000
00000000
00000000
,
00003003
00000000
00000000
00000000
;

//---------------dance-double - ----------------
#NOTES:
     dance-double:
     :
     Medium:
     12:
     0.554233,0.629645,0.290745,0.136287,0.218059,427.000000,395.000000,32.000000,15.000000,0.000000,0.000000,0.554233,0.629645,0.290745,0.136287,0.218059,427.000000,395.000000,32.000000,15.000000,0.000000,0.000000:
00000000
00000000
00000000
00000000
,
00000000
00000000
00000000
00000000
,
00000000
00000000
00000000
00000000
,
00000000
00000000
00000000
00000000
,
00000000
00000000
00000000
00000000
,
10000000
00000000
00010000
01000000
00000000
00000000
00010000
00000000
00100000
00000000
00001000
00010000
00000000
00000000
00001000
00000000
,
00010000
00000000
00000100
00001000
00000000
00000000
00000100
00000000
00001000
00000000
00000010
00000100
00000000
00000000
00000100
00000000
,
00000001
00000000
00000010
00000001
00000000
00000000
00001000
00000000
00000100
00000000
00010000
00000100
00000000
00000000
00010000
00000000
,
00001000
00000000
00100000
00000000
00010000
00000000
00000000
00100000
00000000
00100000
00000000
00000000
01100000
00000000
00000000
00000000
,
10000000
01000000
10000000
00010000
00100000
00001000
00010000
00001000
,
00010000
00000010
00001000
00000010
00000100
00000001
00000010
00000100
,
00001000
00000000
00001100
00010000
00001100
00000000
00011000
00000100
,
00011000
00000000
00000000
00000010
00000000
00000000
00001000
00000000
00001001
00000000
00000000
00000000
00011000
00000000
00000000
00000000
,
00000000
00000000
00010000
00000000
00100000
00000000
01000000
00000000
10000000
00000000
00010000
10000000
00010000
00000000
10000000
00000000
,
00000000
00000000
00010000
00000000
00100000
00000000
00001000
00000000
00010000
00001000
00010000
00000000
00001000
00000000
00000000
00000000
,
00010000
00000010
00001000
00000100
00000010
00000001
00001000
00000100
,
00010000
00000000
00001000
00010000
00001000
00000000
00010000
00000000
00001000
00010000
00001000
00010000
00001000
00000000
00001000
00000000
,
00100000
00010000
01000000
10000000
00100000
00100000
01000000
01000000
,
00010000
00100000
00001000
00010000
00000010
00000010
00001000
00001000
,
00000001
00000000
00000000
00000001
00000100
00000000
00000000
00000100
00001000
00000000
00000000
00001000
00010000
00000000
00001000
00010000
,
00001000
00010000
00001000
00100000
00010000
01000000
10010000
00000000
,
00100000
10000000
01000000
00100000
00001000
00010000
00011000
00000000
,
00000100
00001000
00000010
00000001
00000010
00000100
00001100
00000000
,
00000100
00010000
00001000
00001000
00010000
00001000
00100000
00100000
,
00010000
10000000
00010000
10000000
00010000
00000000
10000000
00010000
10000000
00010000
10000000
00000000
00100000
00000000
00100000
00000000
,
10000000
01000000
00100000
01000000
10000000
10000000
00010000
00100000
,
00001000
00001000
00010000
00000100
00001000
00000100
00000010
00000001
,
00000100
00000000
00000000
00000110
00000000
00000000
00001000
00000000
00000100
00000000
00000000
00001100
00000000
00000000
00000100
00000000
,
00010000
00001000
00100000
00010000
01000000
10000000
01000000
00010000
,
00200000
00300000
00000000
00011000
,
00000000
00000000
00000000
00000000
00000000
00011000
00011000
00011000
,
00011000
00000000
00000000
00000200
00000000
00000000
00000300
00000000
,
00020000
00000000
00030000
00001000
00001000
00010000
00010000
00010000
,
00010000
00000000
00000000
00010000
00000100
00000000
00000000
00000100
00001000
00000000
00000000
00001000
00000001
00000000
00000000
00000001
,
00000010
00000000
00000000
00000010
00000001
00000000
00000000
00000001
00000100
00000000
00000000
00000100
00000010
00000000
00010000
00000000
,
00001000
00100000
00010000
10000000
01000000
00100000
00010000
01000000
,
00000000
00100000
00000000
00000000
01000000
00000000
01000000
00000000
01000000
00000000
00000000
00000000
00011000
00000000
00000000
00000000
,
00011000
00000000
00000000
00000010
,
00000001
00000100
00001000
00000000
,
00000000
00010000
01000000
10000000
,
00100000
10000000
01000000
00100000
,
00010000
00001000
00000100
00000010
,
00000001
00000000
00000100
00000000
00010000
00001000
00010000
00001000
,
00010000
00001000
00010000
00001000
00010000
00000000
00001000
00000000
,
00100000
00010000
01000000
00010000
00000000
10000000
01000000
00000000
,
00100000
00010000
00100000
00000000
00001000
00010000
00000100
00000000
,
00001000
00000100
00000010
00000000
00000001
00001000
00000001
00002000
,
00000001
00000001
00003001
00000000
00000000
00001000
00001000
00000001
,
00000100
00000010
00010000
00001000
00100000
00100000
00010000
00010000
,
10000000
01000000
00100000
00010000
10000000
01000000
10000000
00100000
,
10000000
00010000
10000000
00100000
01000000
01000000
00001000
00001000
,
00010000
00010000
00011000
00000000
00010000
00000100
00001000
00001000
,
00000010
00000100
00000001
00001000
00000100
00010000
00001000
00001000
,
00100000
00010000
01000000
00010000
10000000
01000000
00100000
01000000
,
10000000
00010000
00100000
01000000
00100000
10000000
01000000
00100000
,
00001000
00001000
00011000
00000000
00010000
00000010
00001000
00000100
,
00000010
00000100
00001000
00000001
00001000
00000100
00010000
00001000
,
00100000
00000000
01000000
00000000
00100000
00000000
00010000
00000000
10000000
00000000
00000000
10010000
00000000
00000000
00010000
00000000
,
00000000
10010000
00000000
00000000
10000000
00000000
00000000
10100000
00000000
00000000
01100000
00000000
00000000
01010000
00000000
00000000
,
20000000
30010000
00220000
00330000
,
00022000
00033000
00002200
00003300
,
00000022
00000000
00000000
00000000
00000033
00000000
00000000
00000000
00001001
00000000
00000000
00000001
00001000
00000000
00000000
00001000
,
00000100
00000000
00000000
00000100
00010000
00000000
00000000
00010000
00001000
00000000
00000000
00001000
00100000
00000000
00000000
00100000
,
01000000
00000000
00000000
01000000
10000000
00000000
00000000
10000000
00100000
00000000
00000000
10000000
00000000
00000000
01000000
00000000
,
00000000
00010000
00000000
00000000
00001000
00000000
00000000
00000100
00000000
00000000
00000001
00000000
00000000
00000010
00000000
00000000
,
00002002
00000000
00000000
00000000
,
00003003
00000000
00000000
00000000
;

//---------------dance-double - ----------------
#NOTES:
     dance-double:
     :
     Easy:
     7:
     0.364729,0.449747,0.308917,0.181716,0.018172,281.000000,247.000000,34.000000,20.000000,0.000000,0.000000,0.364729,0.449747,0.308917,0.181716,0.018172,281.000000,247.000000,34.000000,20.000000,0.000000,0.000000:
00000000
00000000
00000000
00000000
,
00000000
00000000
00000000
00000000
,
00000000
00000000
00000000
00000000
,
00000000
00000000
00000000
00000000
,
00000000
00000000
00000000
00000000
,
10000000
01100000
10000000
01100000
,
00001000
00110000
00001000
00110000
,
00000100
00001010
00000100
00001010
,
00000001
00000110
00000001
00000110
,
00000001
00000100
00001000
00010000
,
00001000
00100000
01000000
10000000
,
00010000
00010000
00001000
00001000
,
00010000
00001000
00011000
00000000
,
00010000
00001000
00000010
00000010
,
00010000
00001000
00100000
00100000
,
00001000
00100000
01000000
10000000
,
00010000
00010000
20020000
30030000
,
01000000
00001000
00010000
00010000
,
00000100
00010000
00001000
00001000
,
00010000
00000010
00001000
00000010
,
00000100
00000010
00000001
00001001
,
00000010
00000010
00000010
00000000
00000001
00001000
00000001
00000000
,
00000100
00000100
00000100
00000000
00001000
00000001
00001000
00000000
,
00000010
00000010
00000010
00000000
00001100
00000000
00011000
00000000
,
00100000
00100000
00100000
00000000
11000000
00000000
00110000
00000000
,
01000000
00010000
01000000
00000000
00100000
10000000
00100000
00000000
,
01000000
00001000
01000000
00000000
00010000
00000010
00010000
00000000
,
00000010
00000000
00001000
00000100
00000010
00000000
00000100
00000010
,
00000001
00000100
00001000
00010000
,
00011000
00000000
00000000
00000000
,
00000000
00000000
00000000
00000000
00000000
00100000
01000000
00100000
,
01000000
00000000
00000000
00000000
,
20000000
00020000
00000000
30030000
,
10000000
00010000
10000000
01000000
,
00010000
00001000
00000100
00000001
,
00001000
00000001
00000010
00001000
,
00010000
00100000
10000000
01000000
,
10010000
00000000
00000000
10000000
,
01000000
00100000
00001000
00000000
,
00000000
00010000
00001000
00000100
,
00000010
00000001
00000100
00001000
,
00010000
00100000
10000000
01000000
,
00010000
00010000
00001000
00001000
,
00022000
00033000
00010000
00000100
,
00001000
00000100
00001000
00000000
00000001
00000010
00000001
00000000
,
00001000
00000100
00001000
00000000
00000100
00000000
00010000
00000000
,
00001000
00000000
01000000
00000000
00100000
01000000
00100000
01000000
,
00100000
00000000
10000000
00010000
,
00100000
10010000
00001000
00010000
,
00000010
00001001
00000001
00000100
,
00001000
00010000
00100000
10000000
,
01100000
10010000
01100000
10000000
,
00100000
01000000
00100000
00000000
10000000
00000000
00010000
00000000
,
00100000
00010000
00100000
00000000
00001000
00010000
00001000
00000000
,
00000010
00001000
00000010
00000000
00000100
00000001
00000100
00000000
,
00000010
00000000
00001001
00000000
00000001
00000100
00000001
00000000
,
00001000
00000000
00000100
00000000
00010000
00001000
00010000
00000000
,
00001000
00000000
00000000
00000000
00100000
00000000
00000000
00000000
00010000
00000000
00000000
00010000
00000000
00000000
10000000
00000000
,
00000000
10000000
00000000
00000000
00100000
00000000
00000000
00100000
00000000
00000000
01000000
00000000
00000000
01000000
00000000
00000000
,
00001000
00011000
00002200
00003300
,
00000022
00000033
00002200
00003300
,
00022000
00033000
00200000
00320000
,
02030000
00000000
23000000
00000000
30100000
01000000
00100000
01000000
,
00100000
01000000
00100000
00000000
10100000
00000000
00000000
00110000
,
00000000
00000000
00001100
00000000
00000000
00000011
00000000
00000000
,
00002002
00000000
00000000
00000000
,
00003003
00000000
00000000
00000000
;

//---------------dance-single - ----------------
#NOTES:
     dance-single:
     :
     Beginner:
     5:
     0.166140,0.269848,0.063601,0.045429,0.000000,128.000000,121.000000,7.000000,5.000000,0.000000,0.000000,0.166140,0.269848,0.063601,0.045429,0.000000,128.000000,121.000000,7.000000,5.000000,0.000000,0.000000:
0000
0000
0000
0000
,
0000
0000
0000
0000
,
0000
0000
0000
0000
,
0000
0000
0000
0000
,
0000
0000
0000
0000
,
1000
0000
0000
0000
,
0001
0000
0000
0000
,
0100
0000
0000
0000
,
0010
0000
0000
0000
,
1000
0000
1000
0000
,
1000
0000
1000
0000
,
0001
0000
0001
0000
,
0001
0000
0001
0000
,
0000
0100
0100
0000
,
0000
0100
0100
0000
,
0100
0000
0100
0000
,
0200
0000
0300
0000
,
0000
0010
0010
0000
,
0000
0010
0010
0000
,
0010
0000
0010
0000
,
0020
0000
0030
0000
,
0000
1000
1000
0000
,
0000
0001
0001
0000
,
1000
0000
1000
0000
,
0001
0000
0001
0000
,
0000
0100
0100
0000
,
0000
0010
0010
0000
,
0100
0000
0100
0000
,
0010
0000
0010
0000
,
1001
0000
0000
0000
,
0000
0000
0000
0000
,
1001
0000
0000
0000
,
0200
0000
0300
0000
,
1001
0000
1000
0000
,
1000
0000
1000
0000
,
1001
0000
0001
0000
,
0001
0000
0001
0000
,
1001
0000
0000
0010
,
0000
0000
0100
0000
,
0000
0001
0000
0000
,
1000
0000
1000
0000
,
0001
0000
0001
0000
,
0100
0000
0100
0000
,
0010
0000
0000
0010
,
0010
0010
0000
0100
,
0100
0100
0100
0000
,
0001
0000
1000
0000
,
1001
0000
0010
0010
,
0010
0000
0100
0100
,
0100
0000
0001
0000
,
1000
0000
0001
0001
,
0001
0000
0000
1000
,
1000
0000
0000
0001
,
0001
0000
1000
0000
,
0001
0000
0100
0100
,
0100
0100
0000
0001
,
0000
0001
0001
0000
,
1000
0000
0000
0000
0010
0000
0000
0010
,
0000
0000
0010
0000
0000
0010
0000
0000
,
0010
0000
1000
0000
,
0001
0000
1000
0000
,
0001
0000
1000
1000
,
1000
1000
0001
0001
,
0001
0000
0001
0000
1000
0000
0000
0100
,
0000
0000
0010
0000
0000
0001
0000
0000
,
2002
0000
0000
0000
,
3003
0000
0000
0000
;

//---------------dance-single - ----------------
#NOTES:
     dance-single:
     :
     Medium:
     11:
     0.537359,0.629645,0.354346,0.027257,0.127201,414.000000,375.000000,39.000000,3.000000,0.000000,0.000000,0.537359,0.629645,0.354346,0.027257,0.127201,414.000000,375.000000,39.000000,3.000000,0.000000,0.000000:
// measure 0
0000
0000
0000
0000
,  // measure 1
0000
0000
0000
0000
,  // measure 2
0000
0000
0000
0000
,  // measure 3
0000
0000
0000
0000
,  // measure 4
0000
0000
0000
0000
,  // measure 5
0010
0000
0000
0010
0000
0000
0010
0000
0001
0000
0000
0001
0000
0000
0001
0000
,  // measure 6
0100
0000
0000
0100
0000
0000
0100
0000
1000
0000
0000
1000
0000
0000
1000
0000
,  // measure 7
0010
0000
0000
0010
0000
0000
1000
0000
0100
0000
0000
0100
0000
0000
0010
0000
,  // measure 8
0001
0000
0000
0001
0000
0000
0010
0000
0100
0000
0000
0100
0000
0000
0000
0000
,  // measure 9
0001
0010
0001
0010
0100
1000
0100
1000
,  // measure 10
0001
0010
0100
0010
0001
1000
0100
0010
,  // measure 11
0001
1001
0100
0110
,  // measure 12
1000
0000
0001
1000
0000
0001
1000
0000
0001
0000
0000
0000
0110
0000
0000
0000
,  // measure 13
0000
1000
0100
0010
0001
0001
0001
0001
,  // measure 14
0000
0001
0010
0100
1000
1000
1000
1000
,  // measure 15
0010
0100
0010
0100
0001
1000
0001
1000
,  // measure 16
0010
0000
0010
0100
0010
0000
0010
0000
0100
0010
0100
0010
0100
0000
0100
0000
,  // measure 17
0001
0000
1000
0010
1000
0000
0100
0000
0010
0000
0001
0000
0100
0000
0100
0000
,  // measure 18
0100
0000
0001
0100
0001
0000
0010
0000
0100
0000
1000
0000
0010
0000
0010
0000
,  // measure 19
0100
0000
0000
0100
0001
0000
0000
0001
0010
0000
0000
0010
0001
0000
0000
0001
,  // measure 20
1000
0100
0010
0001
0100
0100
0110
0000
,  // measure 21
0001
0010
0001
0010
0100
1000
0100
0000
,  // measure 22
1000
0100
1000
0100
0010
0001
0010
0000
,  // measure 23
0001
0100
1000
0000
1000
0010
0001
1000
,  // measure 24
1000
1000
1000
2000
0000
0001
3001
0000
,  // measure 25
0001
0100
0001
0100
0001
0010
0100
1000
,  // measure 26
1000
0100
1000
0100
1000
0100
0010
0001
,  // measure 27
0100
0000
0000
0110
0000
0000
0000
0000
0001
0000
0000
1001
0000
0000
0000
0000
,  // measure 28
0010
1000
0001
1000
0100
0010
0001
0100
,  // measure 29
0110
0000
0000
1001
,  // measure 30
0000
0000
0000
0000
0000
0110
0110
0110
,  // measure 31
0110
0000
0000
0000
0000
0000
0000
1000
,  // measure 32
0000
0001
0000
0000
1000
0000
1000
0000
1000
0000
0000
0000
1001
0000
0000
0000
,  // measure 33
0010
0001
0100
1000
,  // measure 34
0010
1000
0100
0001
,  // measure 35
0100
0100
0010
0010
1000
1000
0001
0001
,  // measure 36
1000
0100
0010
0001
0100
1000
0010
0000
,  // measure 37
1001
0000
0000
1100
,  // measure 38
0110
0011
1001
0000
,  // measure 39
0000
0011
0110
1100
,  // measure 40
1001
1000
0110
0010
,  // measure 41
1001
0001
0110
0100
,  // measure 42
0001
0000
1000
0000
0010
0100
0010
0100
,  // measure 43
0010
0100
0010
0000
1000
0100
1000
0000
,  // measure 44
0001
0010
0001
0010
0000
0100
1000
0000
,  // measure 45
1000
0100
0010
0000
0100
0001
0100
0001
,  // measure 46
1000
0010
1000
0010
0100
0100
0100
0100
,  // measure 47
0100
0000
1001
0000
0010
0001
0010
0001
,  // measure 48
1000
0100
0010
0000
1000
0100
1000
0100
,  // measure 49
0001
0010
0100
0000
1000
0001
1000
0010
,  // measure 50
1000
0100
1000
0001
0010
0001
0100
0010
,  // measure 51
1000
1000
1001
0000
0010
0001
0010
0001
,  // measure 52
1000
0100
1000
0100
0010
0001
0010
0100
,  // measure 53
1000
0010
0010
0100
0100
0001
0001
0010
,  // measure 54
0010
0100
0100
1000
1000
0001
0010
0100
,  // measure 55
1000
0001
1001
0000
0010
1000
0010
1000
,  // measure 56
0001
0010
0001
0010
1000
0100
0010
0001
,  // measure 57
0010
0000
0100
0000
1000
0000
0000
0000
0011
0000
0000
0011
0000
0000
1100
0000
,  // measure 58
0000
1100
0000
0000
0110
0000
0000
0110
0000
0000
1001
0000
0000
1001
0000
0000
,  // measure 59
0110
0000
1001
0000
0001
0010
0100
0000
,  // measure 60
1000
0100
0010
0000
1000
0001
0010
0000
,  // measure 61
0001
1000
0100
0000
1000
0100
1000
0100
,  // measure 62
0010
0001
0010
0001
1000
0100
0010
0001
,  // measure 63
0010
0000
0100
0000
1000
0000
0010
0000
0100
0000
0000
0100
0000
0000
0010
0000
,  // measure 64
0000
0010
0000
0000
0000
0000
0000
0000
0000
0000
0000
0000
0000
0000
0000
0000
,  // measure 65
2002
0000
0000
0000
,  // measure 66
3003
0000
0000
0000
;

//---------------dance-single - ----------------
#NOTES:
     dance-single:
     :
     Easy:
     6:
     0.292043,0.389780,0.208973,0.081772,0.000000,225.000000,202.000000,23.000000,9.000000,0.000000,0.000000,0.292043,0.389780,0.208973,0.081772,0.000000,225.000000,202.000000,23.000000,9.000000,0.000000,0.000000:
// measure 0
0000
0000
0000
0000
,  // measure 1
0000
0000
0000
0000
,  // measure 2
0000
0000
0000
0000
,  // measure 3
0000
0000
0000
0000
,  // measure 4
0000
0000
0000
0000
,  // measure 5
1000
0100
0010
0001
,  // measure 6
1000
0000
0010
0000
0100
0100
0100
0000
,  // measure 7
0001
0010
0100
1000
,  // measure 8
0010
0000
0100
0000
0010
0010
0010
0000
,  // measure 9
1000
0001
0100
0001
,  // measure 10
1000
0010
0100
0001
,  // measure 11
1001
0000
0110
0000
,  // measure 12
1001
0110
1001
0000
,  // measure 13
0001
0000
1000
0000
0010
0010
0010
0000
,  // measure 14
1000
0000
0001
0000
0100
0100
0100
0000
,  // measure 15
0001
0010
0001
0000
1000
0000
0100
0000
,  // measure 16
1000
1000
1001
0000
,  // measure 17
0010
1000
0010
0010
,  // measure 18
0001
0000
0010
0000
1000
0100
1000
0000
,  // measure 19
0001
0100
1000
0010
,  // measure 20
0001
0100
1001
0110
,  // measure 21
0000
0000
0001
0000
1000
0001
1000
0000
,  // measure 22
0010
0000
0010
0000
1000
0001
1000
0000
,  // measure 23
0001
0000
0001
0000
1000
0100
1000
0000
,  // measure 24
0010
0010
0020
0030
,  // measure 25
0001
0100
0202
0303
,  // measure 26
1000
0010
0022
0033
,  // measure 27
0001
0001
0001
0000
1000
1000
1000
0000
,  // measure 28
0001
0010
0100
1001
,  // measure 29
0110
0000
0000
0000
,  // measure 30
0000
0000
0000
0000
,  // measure 31
1001
0000
0000
0000
,  // measure 32
0010
0010
0010
0000
,  // measure 33
1000
0100
0010
0001
,  // measure 34
0001
0010
0100
1000
,  // measure 35
0010
0010
0100
0100
,  // measure 36
1000
0001
2002
3003
,  // measure 37
1001
0000
0000
0000
,  // measure 38
0000
0000
0000
0000
,  // measure 39
0000
0000
0000
0000
,  // measure 40
1000
0000
0001
0000
,  // measure 41
1000
0000
0001
0001
,  // measure 42
1000
1000
0010
0010
,  // measure 43
0010
0000
1000
0000
,  // measure 44
0001
1000
0001
0000
,  // measure 45
1000
0001
1000
0000
,  // measure 46
0100
0000
0010
0010
,  // measure 47
0001
0000
0100
0010
,  // measure 48
0100
0100
0010
0100
,  // measure 49
0010
0010
1000
0100
,  // measure 50
0001
0010
1000
0100
,  // measure 51
0010
0001
0100
0100
,  // measure 52
0010
0010
1000
0100
,  // measure 53
0010
0001
0001
0001
,  // measure 54
1000
1000
0001
0010
,  // measure 55
0100
0100
0010
0010
,  // measure 56
1000
0100
0001
0010
,  // measure 57
0010
0010
0001
0000
,  // measure 58
0000
0000
1001
0000
0000
1001
0000
0000
,  // measure 59
1001
0000
0110
0000
,  // measure 60
1001
0000
0110
0000
,  // measure 61
1001
0000
0001
0001
,  // measure 62
0010
0010
0100
0100
,  // measure 63
1000
0000
1000
0000
0001
0000
0000
0010
,  // measure 64
0000
0000
0100
0000
0000
1000
0000
0000
,  // measure 65
2002
0000
0000
0000
,  // measure 66
3003
0000
0000
0000
;
