#TITLE:Robocopyright;
#SUBTITLE:;
#ARTIST:Dan Bull;
#TITLETRANSLIT:;
#SUBTITLETRANSLIT:;
#ARTISTTRANSLIT:;
#GENRE:;
#CREDIT:;
#BANNER:Robocopyright.png;
#BACKGROUND:Robocopyright-bg.png;
#LYRICSPATH:;
#CDTITLE:;
#MUSIC:Robocopyright.ogg;
#OFFSET:2.178999;
#SAMPLESTART:46.284039;
#SAMPLELENGTH:12.000000;
#LASTBEATHINT:2.043598;
#SELECTABLE:YES;
#DISPLAYBPM:104.000000;
#BPMS:0.000000=104.000000
,16.000000=106.000000
,17.000000=104.000000
,59.000000=104.080002
,116.000000=104.000000
;
#STOPS:
;
#BGCHANGES:3.500=Robocopyright.avi=1.000=0=0=0=StretchNoLoop====,
99999=-nosongbg-=1.000=0=0=0 // don't automatically add -songbackground-
;
#KEYSOUNDS:;
#ATTACKS:;

//---------------dance-single - ----------------
#NOTES:
     dance-single:
     :
     Beginner:
     1:
     0.086066,0.105989,0.000000,0.000000,0.000000,81.000000,81.000000,0.000000,0.000000,0.000000,0.000000,0.086066,0.105989,0.000000,0.000000,0.000000,81.000000,81.000000,0.000000,0.000000,0.000000,0.000000:
0000
0000
0000
0000
,
0000
0000
0000
0000
,
0000
0000
0000
0000
,
0000
0000
0000
0000
,
0000
0000
0000
0000
,
0001
0000
0000
0000
,
1000
0000
0000
0000
,
0010
0000
0000
0000
,
1000
0000
0000
0000
,
0001
0000
0000
0000
,
0100
0000
0000
0000
,
0010
0000
0000
0000
,
1000
0000
0000
0000
,
0001
0000
0001
0000
,
1000
0000
1000
0000
,
0010
0000
0010
0000
,
0100
0000
0100
0000
,
0001
0000
0001
0000
,
1000
0000
1000
0000
,
0010
0000
0010
0000
,
1000
0000
0000
0000
,
0001
0000
0001
0000
,
0000
0000
1000
1000
,
0000
0000
0000
0000
,
0000
0000
0010
0010
,
0000
0000
0010
0000
,
0000
0000
0100
0100
,
0000
0000
0000
0000
,
0000
0000
0100
0100
,
0000
0010
0000
0010
,
0000
0010
0000
0010
,
0000
0100
0000
0100
,
0000
0100
0000
0100
,
0000
0001
0000
0001
,
0000
0001
0000
0001
,
0000
1000
0000
1000
,
0000
1000
0000
1000
,
0000
0000
0001
0000
,
0001
0000
0001
0000
,
0000
0000
1000
0000
,
1000
0000
1000
0000
,
0000
0000
0010
0000
,
0010
0000
0010
0000
,
0000
0000
0100
0000
,
0100
0000
0000
0000
,
0001
0000
1000
0000
,
0001
0000
1000
0000
,
0010
0000
0100
0000
,
0010
0000
0000
0000
,
1000
0000
1000
0000
,
0000
0000
0001
0001
,
0000
0000
0000
0000
,
0000
0000
1000
1000
,
0000
0000
0001
0000
,
0000
0000
1000
1000
,
0000
0000
0001
0000
,
0000
0000
0001
0001
,
0001
0000
0000
0000
;

//---------------dance-single - ----------------
#NOTES:
     dance-single:
     :
     Easy:
     4:
     0.163632,0.211978,0.111567,0.000000,0.000000,154.000000,139.000000,15.000000,0.000000,0.000000,0.000000,0.163632,0.211978,0.111567,0.000000,0.000000,154.000000,139.000000,15.000000,0.000000,0.000000,0.000000:
0000
0000
0000
0000
,
0000
0000
0000
0000
,
0000
0000
0000
0000
,
0000
0000
0000
0000
,
0000
0000
0000
0000
,
0001
0000
1000
0000
,
0001
0000
1000
0000
,
0010
0000
0100
0000
,
0010
0000
0100
0000
,
0001
0000
0100
0000
,
1000
0000
0100
0000
,
0001
0000
0010
0000
,
1000
0000
0010
0000
,
0001
0000
0010
0000
,
0100
0000
1000
0000
,
1000
0000
0100
0000
,
0010
0000
0001
0000
,
0010
0000
0010
0000
,
1000
0000
0001
0000
,
0100
0000
0100
0000
,
1001
0000
0000
0000
,
0001
0001
0001
0001
,
0000
0000
1001
1001
,
0000
0000
0010
0000
,
1000
0000
0001
0001
,
1000
1000
1000
1000
,
0000
0000
1001
1001
,
0000
0010
0010
0010
,
0000
0000
1001
1001
,
0000
0001
0100
0001
,
0000
1000
0100
1000
,
0000
0001
0010
0001
,
0000
1000
0010
1000
,
0000
0001
0001
0100
,
0000
1000
1000
0100
,
0000
0001
0001
0010
,
0000
1000
1000
0010
,
0000
0001
0010
0010
,
0000
1000
0010
0010
,
0000
0100
0100
1000
,
0000
0100
0100
0001
,
0000
1000
0001
1000
,
0000
0001
1000
0001
,
0000
0010
0010
0100
,
0000
0100
0100
0010
,
0100
0001
1000
0001
,
0100
0001
1000
0001
,
0010
1000
0001
1000
,
0010
1000
0001
1000
,
0001
0001
0001
1001
,
0000
0000
0110
0110
,
0000
0000
0001
0001
,
0000
1000
0001
1000
,
0001
0001
0001
0001
,
0000
0000
1001
1001
,
0000
0010
0010
0010
,
0000
0000
1001
1001
,
1001
0000
0000
0000
;

//---------------dance-single - ----------------
#NOTES:
     dance-single:
     :
     Medium:
     7:
     0.294325,0.317967,0.238010,0.000000,0.000000,277.000000,245.000000,32.000000,0.000000,0.000000,0.000000,0.294325,0.317967,0.238010,0.000000,0.000000,277.000000,245.000000,32.000000,0.000000,0.000000,0.000000:
0000
0000
0000
0000
,
0000
0000
0000
0000
,
0000
0000
0000
0000
,
0000
0000
0000
0000
,
0000
0000
0000
0000
,
0001
0100
0001
0000
1000
1000
0000
1000
,
0000
0001
0100
1000
,
1000
0100
1000
0000
0001
0001
0000
0001
,
0000
1000
0100
0001
,
0010
0100
0010
0000
0100
0100
0000
0100
,
0000
0001
0010
1000
,
0100
0010
0100
0000
0010
0010
0000
0010
,
0000
1000
0010
0001
,
1000
0001
1000
0000
0001
0001
0000
1000
,
0000
0001
0100
1000
,
0001
1000
0001
0000
1000
1000
0000
0001
,
0000
1000
0100
0001
,
0010
0000
1001
0000
0100
0010
0100
0000
,
0100
0000
1001
0000
0010
0100
0010
0000
,
0010
1001
0100
1001
,
0001
0100
0001
0000
1000
0100
1000
0000
,
0010
0000
0010
0000
0100
0010
0100
0010
,
0000
0000
1001
1001
,
0000
0000
0000
0001
0010
0001
0010
0001
,
0000
1000
0100
0000
1001
0000
0110
0000
,
0010
0000
0010
0000
1000
0001
1000
0001
,
0000
0000
1100
0011
,
0100
0000
0100
0000
0001
1000
0001
1000
,
0000
0000
0011
1100
,
0010
0000
1001
0000
1000
0001
1000
0000
,
0010
0000
0110
0000
0001
1000
0001
0000
,
1000
0000
0101
0000
1000
0100
1000
0000
,
0001
0000
1010
0000
0001
0010
0001
0000
,
1000
0001
1000
0000
0010
0000
0010
0000
,
0001
1000
0001
0000
0100
0000
0100
0000
,
0001
0010
0001
0000
0010
0001
0010
0000
,
1000
0100
1000
0000
0100
1000
0100
0000
,
0010
0000
0001
0000
0100
0001
0100
0000
,
0010
0000
1000
0000
0100
1000
0100
0000
,
0001
0100
0001
0000
1000
0100
1000
0000
,
0010
0100
0010
0000
1000
0001
1000
0000
,
0001
0011
1000
1100
,
0010
0110
0001
1001
,
0001
0100
0001
0000
1000
0100
1000
0000
,
0001
0010
0001
0000
1000
0010
1000
0000
,
0001
0100
0001
0000
0100
0000
0110
0000
,
1000
0010
1000
0000
0010
0000
0110
0000
,
0001
0000
1001
0000
0010
0010
0000
0010
,
0000
0100
0010
1000
,
0001
0000
0001
0000
1000
0001
1000
0001
,
0000
0000
0110
1001
,
0000
0001
0100
0001
0100
0001
0000
1000
,
0010
1000
0010
0000
1001
0000
0110
0000
,
0010
0000
0010
0000
0100
0010
1000
0001
,
0000
0000
0110
1001
,
0100
0000
0100
0000
0010
0100
0001
1000
,
0000
0000
0110
1001
,
0110
0000
0000
0000
;

//---------------dance-single - ----------------
#NOTES:
     dance-single:
     :
     Hard:
     12:
     0.584400,0.614736,0.535523,0.096692,0.457426,550.000000,478.000000,72.000000,13.000000,0.000000,0.000000,0.584400,0.614736,0.535523,0.096692,0.457426,550.000000,478.000000,72.000000,13.000000,0.000000,0.000000:
// measure 0
0000
0000
0000
0000
,  // measure 1
0000
0000
0000
0000
,  // measure 2
0000
0000
0000
0000
,  // measure 3
0000
0000
0000
0000
,  // measure 4
0000
0000
0000
0000
,  // measure 5
0001
1000
0001
0000
1000
0000
0100
0000
0010
0000
0001
0000
1000
0001
0000
0000
,  // measure 6
0100
0000
0010
0000
1000
0010
0000
0100
0001
0000
1000
0000
0010
0000
0100
0000
,  // measure 7
0000
0001
0010
0000
0001
0000
1000
0000
0010
0000
0100
0000
0110
0000
0000
1000
,  // measure 8
0010
0100
1000
0001
0010
0100
0001
1001
,  // measure 9
0000
0000
1000
0001
1000
0000
0001
0100
0000
0100
0010
0000
0100
0000
1001
0000
,  // measure 10
0010
0000
0001
0000
1000
0001
1000
0001
0000
0100
0010
0100
0010
0000
1010
0000
,  // measure 11
0001
0100
0001
0000
1000
0100
1000
0010
1000
0000
0001
0100
0001
0000
0001
1000
,  // measure 12
0000
0010
1000
0000
0100
0000
0010
0001
0010
0000
0001
0000
0100
0010
0100
0000
,  // measure 13
0001
0000
1000
0010
1000
0010
1000
0000
0001
0000
1000
0100
0010
0001
1000
0000
,  // measure 14
0001
0000
0100
0010
0100
0000
0010
0000
0001
0010
0100
1000
0010
0000
1000
0000
,  // measure 15
1100
0000
0001
0000
0101
0000
0010
0000
1000
0010
1000
0001
1000
0000
0001
0000
,  // measure 16
1000
0010
1000
0000
0001
0100
0001
0000
1000
0100
0010
0001
0100
0000
0000
0001
,  // measure 17
1000
0000
0001
0010
0001
0000
1000
0000
0010
1000
0010
0100
0010
0000
0000
0000
,  // measure 18
1000
0010
1000
0000
0001
0010
0001
0000
1000
0010
0100
0010
1000
0000
0001
0000
,  // measure 19
1000
0000
0010
0000
0100
0001
0100
0001
0000
1000
0100
0000
0010
0000
0000
0001
,  // measure 20
0010
0000
0100
0000
1000
0000
0001
0000
1000
0001
1000
0001
1000
0000
0010
0000
,  // measure 21
1010
0000
0000
0000
0101
0000
0000
0000
0110
0000
1001
0000
0001
0010
0200
0000
,  // measure 22
0000
0010
0310
1010
0101
0000
1100
0011
,  // measure 23
2000
0000
0000
0000
3002
0000
0000
0000
0103
0000
0010
1000
0010
0000
0102
0000
,  // measure 24
0000
0000
1003
0000
0101
0000
1000
0100
0010
0000
0000
0000
0110
0000
1001
0000
,  // measure 25
0110
0000
0000
0000
1010
0000
0000
0000
0110
0000
1001
0000
0010
0100
0020
0000
,  // measure 26
0000
1030
0001
1000
1100
0000
0101
1010
,  // measure 27
0020
0000
0000
0000
0230
0000
0000
0000
0301
0000
0110
0000
0001
1000
0200
0000
,  // measure 28
0000
0010
0310
1010
0101
0000
1100
0011
,  // measure 29
1001
0010
1010
0000
0001
0001
0101
0100
,  // measure 30
0000
0010
1010
1000
0001
0010
0100
0000
,  // measure 31
1000
0000
0101
0000
1000
0010
0010
1010
,  // measure 32
0000
0000
0001
0000
0101
0000
0000
0000
1000
0100
0010
0000
1000
0000
0000
0000
,  // measure 33
0001
0000
0010
0000
0100
0000
1000
0000
0001
0010
0001
0010
0001
0000
1000
0000
,  // measure 34
0100
0000
0010
0000
0100
0000
1000
0000
0010
0100
0010
0100
0010
0100
0010
0000
,  // measure 35
1000
0000
0001
0000
1000
0010
1000
0000
0001
0000
0010
0000
0001
0100
0001
0000
,  // measure 36
1000
0000
0001
0000
0100
0010
0100
0000
0001
0010
0001
0010
0100
1000
0100
0000
,  // measure 37
0010
0001
0010
0001
0000
1000
0100
0010
0000
0100
0010
0000
0001
1000
0001
0000
,  // measure 38
1000
0100
1000
0100
0000
0010
0001
0000
0100
0010
0100
0010
0100
0010
0100
0000
,  // measure 39
0001
0100
0001
0100
0001
0000
0000
1000
0100
0000
0010
0000
1001
0000
0101
0000
,  // measure 40
1000
0000
0001
0000
1000
0000
0000
0001
0010
0000
0100
0000
0110
0000
0000
0010
,  // measure 41
0100
0000
0000
0100
0001
0000
0000
0001
0010
0100
0010
0001
1000
0000
0000
0001
,  // measure 42
0100
0000
0100
0000
0010
0000
0010
0000
1000
0100
0010
0100
1000
0000
0000
0001
,  // measure 43
0100
0000
0100
0000
0001
0000
0001
0000
1000
0010
1000
0010
0100
0001
0100
0000
,  // measure 44
0001
0000
0001
0000
1000
0000
1000
0000
0010
0100
0010
0100
0001
1000
0001
0000
,  // measure 45
1000
0010
1000
0010
1000
0100
0000
0010
0001
0010
0001
0100
0010
0100
0010
0000
,  // measure 46
1000
0001
0100
0000
0001
1000
0010
0000
1000
0100
0010
0100
1000
0001
1000
0001
,  // measure 47
0100
0010
0100
0000
0001
0010
0100
0010
0001
1000
0001
0000
1000
0100
0010
0100
,  // measure 48
1000
0000
0101
0000
1000
0000
0011
0000
1000
0001
0010
0100
0010
0001
1000
0001
,  // measure 49
2000
0000
0000
0000
3002
0000
0003
0000
1001
0000
0110
0000
0001
1000
0020
0000
,  // measure 50
0000
1030
1010
0001
0101
0000
0110
1001
,  // measure 51
0000
0000
0010
0000
0001
0100
0010
0000
1000
0000
0101
0000
0000
0000
1000
0000
,  // measure 52
1001
1100
0101
1100
1001
0000
0110
1001
,  // measure 53
0110
0000
0000
0000
0011
0000
0000
0000
1100
0000
0011
0000
1000
0010
0200
0000
,  // measure 54
0000
0301
0101
0100
0110
0000
1010
0101
,  // measure 55
1001
0000
0000
0000
0110
0000
0000
0000
0011
0000
1100
0000
0001
0100
0020
0000
,  // measure 56
0000
1030
0001
1000
0110
0000
1100
0110
,  // measure 57
1001
0000
0000
0000
;
