#TITLE:Power of the Dream;
#SUBTITLE:;
#ARTIST:LOL;
#TITLETRANSLIT:;
#SUBTITLETRANSLIT:;
#ARTISTTRANSLIT:;
#GENRE:;
#CREDIT:;
#BANNER:Power of the Dream.png;
#BACKGROUND:Power of the Dream-bg.png;
#LYRICSPATH:;
#CDTITLE:;
#MUSIC:Power of the Dream.ogg;
#OFFSET:1.805000;
#SAMPLESTART:58.345371;
#SAMPLELENGTH:14.436092;
#LASTBEATHINT:1.784417;
#SELECTABLE:YES;
#BPMS:0.000000=133.000000
;
#STOPS:
;
#BGCHANGES:;
#KEYSOUNDS:;
#ATTACKS:;

//---------------dance-single - ----------------
#NOTES:
     dance-single:
     :
     Hard:
     12:
     0.434201,0.444637,0.270570,0.153323,0.108228,337.000000,307.000000,30.000000,17.000000,0.000000,0.000000,0.434201,0.444637,0.270570,0.153323,0.108228,337.000000,307.000000,30.000000,17.000000,0.000000,0.000000:
// measure 0
0000
0000
0000
0000
,  // measure 1
0000
0000
0000
0000
,  // measure 2
0000
0000
0000
0000
,  // measure 3
0000
0000
0000
0000
,  // measure 4
0000
0000
0000
0000
,  // measure 5
0000
0000
0000
0000
,  // measure 6
0002
0100
0100
0103
,  // measure 7
2000
0100
0100
3100
,  // measure 8
0020
0100
0100
0130
,  // measure 9
2002
0000
0000
3003
,  // measure 10
1001
0000
0000
0000
1000
0000
0010
1000
0000
1000
0010
0000
0100
0000
0001
0000
,  // measure 11
1000
0000
0000
0000
0001
0000
1000
0001
0000
0000
0000
0000
0010
0000
0000
0000
,  // measure 12
0001
0000
0000
0000
0010
0000
0001
0010
0000
0010
0001
0000
0100
0000
0010
0000
,  // measure 13
1000
0000
0000
0000
0001
0000
1000
0001
0000
0000
0000
0000
1000
0000
0000
0000
,  // measure 14
0010
0000
0000
0000
0001
0000
0100
0010
0000
0010
0100
0000
0001
0000
1000
0000
,  // measure 15
0010
0000
0000
0000
1000
0000
0001
1000
0000
0000
0000
0000
0010
0000
0000
0000
,  // measure 16
1000
0000
0000
0000
0001
0000
1000
0010
0000
0010
1000
0000
0001
0000
0100
0000
,  // measure 17
0010
0000
1000
0002
0000
0103
0010
0100
,  // measure 18
0002
0000
1003
0001
0100
0000
0100
0001
,  // measure 19
1000
0000
0000
1001
0000
0000
0001
0000
0000
0000
0100
0000
0010
0000
2000
0000
,  // measure 20
0000
3010
0010
1000
0100
0010
0001
0200
,  // measure 21
0000
0310
0000
0200
0000
0301
1000
0100
,  // measure 22
0010
0000
0001
0100
0001
0000
1000
0100
,  // measure 23
0010
0000
0000
0110
0000
0000
0100
0000
0000
0000
0001
0000
1000
0000
0200
0000
,  // measure 24
0000
1300
0010
1000
0001
0100
0001
1000
,  // measure 25
1001
0000
0010
1000
0000
0100
0010
0001
,  // measure 26
0100
0000
1001
0001
0000
0100
0010
1000
,  // measure 27
0000
0001
0010
0100
0000
0001
0100
0001
,  // measure 28
0000
1000
0100
1000
0000
0001
0100
0010
,  // measure 29
0000
1000
0001
0100
0000
0010
1000
0001
,  // measure 30
0100
0000
0001
1001
0000
1000
0000
1100
,  // measure 31
0000
0010
0001
0100
0000
1001
0000
0010
,  // measure 32
0100
0010
0100
0010
1000
0001
0100
0020
,  // measure 33
0000
0000
0030
1001
0000
0010
0100
0001
,  // measure 34
0000
1001
0000
1000
0000
0110
0000
1000
,  // measure 35
0100
0100
1000
0001
0000
1010
0000
0101
,  // measure 36
0000
0001
0010
0001
0001
1000
0100
1000
,  // measure 37
0000
0101
0000
1001
0000
0010
0100
0001
,  // measure 38
0000
1010
0000
0001
0000
0110
0000
0001
,  // measure 39
1000
0010
0010
1000
0000
0101
0000
1000
,  // measure 40
0100
0010
0100
1000
0001
0100
0001
1000
,  // measure 41
0000
1001
0000
0010
0001
0100
0001
0100
,  // measure 42
0010
0000
1000
0010
0100
0010
0100
0010
,  // measure 43
1000
0000
0001
1000
0010
1000
0100
0010
,  // measure 44
0001
0000
1000
0010
0000
0011
0000
1010
,  // measure 45
0000
0101
0000
1001
0000
0010
0100
0001
,  // measure 46
0000
1100
0000
0011
0000
0110
0000
0001
,  // measure 47
1000
1000
0010
0100
0000
1001
0000
0001
,  // measure 48
0010
0001
1000
0100
0010
0001
1000
0100
,  // measure 49
0000
2000
0002
0000
0000
3003
1001
0000
,  // measure 50
0110
0000
0000
0000
1000
0000
0001
0100
0000
0100
0001
0000
1000
0000
0100
0000
,  // measure 51
0010
0000
0000
0000
0001
0000
0100
0010
0000
0000
1000
0000
0001
0000
0000
0000
,  // measure 52
1000
0000
0000
0000
0001
0000
0100
0010
0000
0010
0100
0000
0001
0000
1000
0000
,  // measure 53
0100
0000
0000
0000
0010
0000
1000
0010
0000
0000
1000
0000
0001
0000
0000
0000
,  // measure 54
1000
0000
0000
0000
0001
0000
0100
0010
0000
0010
0100
0000
0001
0000
1000
0000
,  // measure 55
0010
0000
0000
0000
1000
0000
0100
1000
0000
0000
0001
0000
0100
0000
0000
0000
,  // measure 56
0010
0000
0000
0000
0100
0000
0001
1000
0000
1000
0001
0000
1000
0000
0010
0000
,  // measure 57
0200
0302
0013
2000
,  // measure 58
3001
0000
0000
0000
;

//---------------dance-single - ----------------
#NOTES:
     dance-single:
     :
     Medium:
     8:
     0.319530,0.418482,0.387817,0.090190,0.000000,248.000000,205.000000,43.000000,10.000000,0.000000,0.000000,0.319530,0.418482,0.387817,0.090190,0.000000,248.000000,205.000000,43.000000,10.000000,0.000000,0.000000:
// measure 0
0000
0000
0000
0000
,  // measure 1
0000
0000
0000
0000
,  // measure 2
0000
0000
0000
0000
,  // measure 3
0000
0000
0000
0000
,  // measure 4
0000
0000
0000
0000
,  // measure 5
0000
0000
0000
0000
,  // measure 6
2000
0010
0000
3010
,  // measure 7
0002
0010
0000
0013
,  // measure 8
1000
0100
0010
0001
,  // measure 9
2002
0000
0000
3003
,  // measure 10
1000
0000
1000
0000
1000
0010
0100
0000
,  // measure 11
1000
0001
1001
0000
,  // measure 12
0001
0000
0010
0000
0010
0001
0100
0000
,  // measure 13
1000
0001
1001
0000
,  // measure 14
0010
0000
0001
0000
0010
0100
1000
0000
,  // measure 15
0010
0001
1001
0000
,  // measure 16
1000
0000
0001
0000
0010
1000
0001
0000
,  // measure 17
0010
0000
1000
0010
,  // measure 18
0001
1000
0000
0100
,  // measure 19
1000
0000
0000
0001
0000
0000
1000
0000
,  // measure 20
0001
0000
0010
0000
0100
0000
1000
0001
,  // measure 21
0000
0000
0000
0001
0000
0000
1000
0000
,  // measure 22
0010
0100
0001
0000
,  // measure 23
0010
0000
0000
0100
0000
0000
1000
0000
,  // measure 24
0001
0010
0100
1000
,  // measure 25
1001
0000
1000
0010
,  // measure 26
0100
0001
0001
0100
,  // measure 27
0010
1000
0100
0010
,  // measure 28
0001
0101
1000
1100
,  // measure 29
0010
1001
0100
1001
,  // measure 30
0100
0000
0001
1000
0000
1001
0000
1000
,  // measure 31
0000
0010
0000
0100
0000
0001
0000
0000
,  // measure 32
0100
0000
0100
0000
1000
0001
1000
0002
,  // measure 33
0000
0000
0000
1003
0000
0000
0110
0000
,  // measure 34
1000
0110
1000
0110
,  // measure 35
0100
1100
0001
1010
,  // measure 36
0101
0010
1001
0110
,  // measure 37
0001
0101
1001
0110
,  // measure 38
1000
0011
1000
0011
,  // measure 39
1000
0000
0110
0000
1000
0001
1000
0000
,  // measure 40
0001
0010
0100
1000
,  // measure 41
2002
3003
0001
0100
,  // measure 42
0010
1001
1000
0100
,  // measure 43
0010
1001
0010
0100
,  // measure 44
0001
0000
0000
1000
0000
0001
0000
0100
,  // measure 45
0000
0010
0000
0100
0000
0010
0100
0000
,  // measure 46
0001
1100
0011
0110
,  // measure 47
1001
1010
0100
1001
,  // measure 48
0010
0100
0010
0000
0100
0010
0100
0000
,  // measure 49
2002
0000
0000
0000
0000
3003
1001
0000
,  // measure 50
1000
0000
1001
0000
0100
0001
1000
0000
,  // measure 51
0010
0000
0101
0000
0010
1000
0001
0000
,  // measure 52
1000
0000
0101
0000
0010
0100
0001
0000
,  // measure 53
0100
0000
1010
0000
0010
1000
0001
0000
,  // measure 54
1000
0000
0101
0000
0010
0100
0001
0000
,  // measure 55
0010
0000
1100
0000
1000
0001
0100
0000
,  // measure 56
0010
0000
0101
0000
1000
0001
1000
0000
,  // measure 57
0200
0010
0010
0310
,  // measure 58
1001
0000
0000
0000
;

//---------------dance-single - ----------------
#NOTES:
     dance-single:
     :
     Easy:
     4:
     0.185534,0.209241,0.027057,0.090190,0.000000,144.000000,141.000000,3.000000,10.000000,0.000000,0.000000,0.185534,0.209241,0.027057,0.090190,0.000000,144.000000,141.000000,3.000000,10.000000,0.000000,0.000000:
// measure 0
0000
0000
0000
0000
,  // measure 1
0000
0000
0000
0000
,  // measure 2
0000
0000
0000
0000
,  // measure 3
0000
0000
0000
0000
,  // measure 4
0000
0000
0000
0000
,  // measure 5
0000
0000
0000
0000
,  // measure 6
0020
0000
0000
0030
,  // measure 7
0200
0000
0000
0300
,  // measure 8
0002
0003
2000
3000
,  // measure 9
2002
0000
3003
0000
,  // measure 10
0001
0010
0100
1000
,  // measure 11
0010
0010
0010
0000
,  // measure 12
1000
0100
0010
0001
,  // measure 13
0100
0100
0100
0000
,  // measure 14
0001
0100
0010
1000
,  // measure 15
0001
0001
0001
0000
,  // measure 16
1000
0010
0100
0001
,  // measure 17
1000
0000
0001
0000
,  // measure 18
1000
0000
0010
0000
,  // measure 19
0001
0100
1000
0000
,  // measure 20
0001
0000
0010
0000
,  // measure 21
1000
0100
0001
0000
,  // measure 22
0100
0000
0010
0000
,  // measure 23
1000
0001
0010
0000
,  // measure 24
0010
0000
0100
0000
,  // measure 25
0001
1000
0100
0000
,  // measure 26
1000
0000
0100
0000
,  // measure 27
0010
0000
0001
0000
,  // measure 28
1000
0010
1000
0000
,  // measure 29
0001
0100
0001
0000
,  // measure 30
0001
0010
0100
0000
,  // measure 31
0010
0100
1000
0000
,  // measure 32
0001
1000
0001
0000
,  // measure 33
2002
0000
3003
0000
,  // measure 34
0010
0000
0010
0000
,  // measure 35
0001
0100
1000
0000
,  // measure 36
0001
0010
0100
1000
,  // measure 37
0100
0000
0010
0000
,  // measure 38
1000
0000
0001
0000
,  // measure 39
1000
0100
0001
0000
,  // measure 40
1000
0100
0010
0001
,  // measure 41
0200
0300
0010
0100
,  // measure 42
0010
0000
0100
0010
,  // measure 43
0100
0000
0001
1000
,  // measure 44
0001
0000
1000
0001
,  // measure 45
1000
0000
0010
0100
,  // measure 46
0010
0000
1000
0000
,  // measure 47
0001
0010
0100
0000
,  // measure 48
1000
0100
0010
0001
,  // measure 49
0200
0000
0000
0300
,  // measure 50
0001
0000
1000
0000
,  // measure 51
0001
1000
0001
0000
,  // measure 52
1000
0000
0001
0000
,  // measure 53
1000
0001
1000
0000
,  // measure 54
0001
0010
0100
1000
,  // measure 55
0100
0010
0001
0000
,  // measure 56
1000
0100
0010
0001
,  // measure 57
0100
0000
0010
0000
,  // measure 58
1001
0000
0000
0000
;

//---------------dance-single - ----------------
#NOTES:
     dance-single:
     :
     Beginner:
     1:
     0.115959,0.156931,0.036076,0.009019,0.000000,90.000000,86.000000,4.000000,1.000000,0.000000,0.000000,0.115959,0.156931,0.036076,0.009019,0.000000,90.000000,86.000000,4.000000,1.000000,0.000000,0.000000:
// measure 0
0000
0000
0000
0000
,  // measure 1
0000
0000
0000
0000
,  // measure 2
0000
0000
0000
0000
,  // measure 3
0000
0000
0000
0000
,  // measure 4
0000
0000
0000
0000
,  // measure 5
0000
0000
0000
0000
,  // measure 6
0010
0000
0000
0000
,  // measure 7
0100
0000
0000
0000
,  // measure 8
0001
0000
1000
0000
,  // measure 9
0001
0000
0000
0000
,  // measure 10
0001
0000
1000
0000
,  // measure 11
0001
0001
0001
0000
,  // measure 12
1000
0000
0001
0000
,  // measure 13
1000
1000
1000
0000
,  // measure 14
0010
0000
0100
0000
,  // measure 15
0010
0010
0010
0000
,  // measure 16
0100
0000
0010
0000
,  // measure 17
0100
0000
0000
0000
,  // measure 18
1000
0000
0000
0000
,  // measure 19
0001
0000
0000
0000
,  // measure 20
1000
0000
0001
0000
,  // measure 21
1000
0000
0000
0000
,  // measure 22
0001
0000
1000
0000
,  // measure 23
0001
0000
1000
0000
,  // measure 24
0001
0000
1000
0000
,  // measure 25
0001
0000
0000
0000
,  // measure 26
0010
0000
0100
0000
,  // measure 27
0010
0000
0100
0000
,  // measure 28
0010
0000
0010
0000
,  // measure 29
0100
0000
0100
0000
,  // measure 30
1000
0000
0001
0000
,  // measure 31
1000
0000
0001
0000
,  // measure 32
1001
0000
0000
0000
,  // measure 33
1001
0000
0000
0000
,  // measure 34
0010
0000
0010
0000
,  // measure 35
0010
0000
0000
0000
,  // measure 36
0100
0000
0100
0000
,  // measure 37
0100
0000
0000
0000
,  // measure 38
1000
0000
1000
0000
,  // measure 39
1000
0000
0000
0000
,  // measure 40
0001
0000
0001
0000
,  // measure 41
0001
0000
0000
0000
,  // measure 42
0000
0110
0000
0000
,  // measure 43
0000
1001
0000
0000
,  // measure 44
0001
0000
0001
0000
,  // measure 45
0001
0000
0000
0000
,  // measure 46
1000
0000
1000
0000
,  // measure 47
1000
0000
1000
0000
,  // measure 48
0001
0000
0001
0000
,  // measure 49
0002
0000
0003
0000
,  // measure 50
1000
0000
0001
0000
,  // measure 51
1000
0000
0000
0000
,  // measure 52
0001
0000
1000
0000
,  // measure 53
0001
0000
0000
0000
,  // measure 54
0010
0000
0100
0000
,  // measure 55
0010
0000
0000
0000
,  // measure 56
0100
0000
0010
0000
,  // measure 57
0100
0000
0000
0000
,  // measure 58
0010
0000
0000
0000
;
