#TITLE:Poseidon;
#SUBTITLE:;
#ARTIST:Quree 「PUMP IT UP」より;
#TITLETRANSLIT:;
#SUBTITLETRANSLIT:;
#ARTISTTRANSLIT:Quree from "PUMP IT UP";
#GENRE:;
#CREDIT:;
#BANNER:Poseidon (Quree).png;
#BACKGROUND:Poseidon (Quree)-bg.png;
#LYRICSPATH:;
#CDTITLE:;
#MUSIC:Poseidon (Quree).ogg;
#OFFSET:1.383000;
#SAMPLESTART:15.054494;
#SAMPLELENGTH:12.480002;
#LASTBEATHINT:1.021332;
#SELECTABLE:YES;
#BPMS:0.000000=160.000000
,132.000000=80.000000
,160.000000=160.000000
;
#STOPS:
;
#BGCHANGES:;
#KEYSOUNDS:;
#ATTACKS:;

//---------------dance-single - ----------------
#NOTES:
     dance-single:
     :
     Challenge:
     16:
     0.909103,0.994601,0.249727,0.077501,1.222799,739.000000,710.000000,29.000000,9.000000,0.000000,0.000000,0.909103,0.994601,0.249727,0.077501,1.222799,739.000000,710.000000,29.000000,9.000000,0.000000,0.000000:
0000
0000
0000
0000
,
0000
0000
0000
0000
,
0000
0000
0000
0000
,
0000
0000
0000
0000
,
0000
0000
0000
0000
,
0000
0000
0000
0000
,
0000
0000
0000
0000
,
2001
0001
3001
1001
,
1002
1000
1003
1001
,
1000
0100
0010
0000
0001
0000
0010
0100
1000
0000
0001
0000
1000
0010
0100
0000
,
0001
0000
1000
0010
0100
0000
0001
1000
0010
0000
1000
0100
0010
0001
0010
0100
,
1000
0000
0000
1000
0010
0000
0000
0010
0100
0000
0001
0010
0100
1000
0100
0010
,
0001
0000
0000
0001
1000
0000
0000
1000
0010
0000
1000
0100
0010
0001
0010
0100
,
1000
0000
0000
1000
0010
0000
0000
0010
0001
0000
0010
1000
0010
1000
0010
0100
,
0001
0000
0000
0001
0100
0000
0000
0100
1000
0000
0100
0001
0100
0001
1000
0100
,
0010
0000
0001
0100
0001
0100
0001
1000
0100
0000
0010
0000
0001
0000
0100
0010
,
0100
0000
0001
0010
0001
0010
0100
1000
0100
0000
1000
0000
0010
0100
0010
0100
,
0001
0000
1000
0010
0100
0000
0010
0100
0001
0000
0001
1000
0100
0000
0100
0010
,
0001
0000
1000
0000
0010
0000
0100
0000
0001
0010
0100
0010
0001
1000
0100
0010
,
0001
0000
0000
0001
1000
0000
0000
1000
0010
0000
0100
0010
1000
0010
1000
0010
,
0100
0000
0000
0100
0010
0000
0000
0010
1000
0000
0001
0100
0001
0010
0001
0100
,
0001
0000
0000
0001
1000
0000
1000
0100
0010
0100
1000
0000
0001
0010
0100
0010
,
0001
0000
0000
0001
1000
0000
0010
0100
0001
0100
0010
0000
1000
0100
0010
0100
,
1000
0000
0000
1000
0001
0000
0010
0001
0100
0000
0000
0100
0010
0000
1000
0001
,
0100
0000
0000
0100
0001
0000
1000
0010
1000
0000
0000
1000
0100
0010
0001
0010
,
0100
0000
0000
0000
0001
0100
0001
0100
0010
1000
0010
1000
0001
0010
0100
1000
,
0100
1000
0100
1000
0001
0100
0001
0100
0010
1000
0010
1000
0010
0000
0000
0000
,
0100
0000
0000
0000
1000
0010
1000
0010
0100
0001
0100
0001
1000
0100
1000
0100
,
0010
0001
0010
0001
1000
0100
0010
0001
1000
0000
0010
0100
0001
0000
0100
0010
,
1000
0000
0001
0010
0001
0010
0100
1000
0100
1000
0001
0010
0100
1000
0100
0010
,
0001
1000
0001
1000
0010
0100
0010
0100
0010
0000
1000
0100
0010
0000
0100
0010
,
0001
0000
0000
0000
1000
0001
1000
0100
0010
0001
1000
0001
1000
0000
0010
0000
,
0110
0000
0000
1010
0000
0000
0101
0000
0000
1010
0000
0000
0001
0010
0100
1000
,
0002
0000
0000
0000
0003
0000
1010
0110
,
2020
0000
0000
0000
3030
0000
1010
0101
,
0220
0000
0000
0000
0330
0000
0011
1100
,
1001
0000
0000
0000
1000
0000
0000
0000
1000
0000
0000
0000
1000
0000
0000
0000
0001
0000
0010
0000
0100
0000
1000
0000
0001
0010
0001
0010
0100
1000
0100
1000
,
0001
0000
0000
1000
1010
0010
0000
0000
0100
0000
0000
0001
1001
1000
0000
0000
,
0010
0000
0000
1000
0110
0001
0000
0000
0100
0000
0000
0001
0110
1000
0000
0000
,
0110
0000
0000
0010
1001
0100
0000
0000
0011
0000
0000
0100
1001
0010
0000
0000
,
1001
0000
1000
0001
0100
0000
0100
0001
1000
0000
0001
1000
0010
0000
0010
1000
,
0001
0000
1000
0100
0010
0000
0100
0010
0001
0000
1000
0000
0001
0010
0100
0010
,
0001
0000
1000
0100
1000
0100
0010
0001
0010
0001
0100
0010
0100
0000
0001
0000
,
1000
0000
0001
0010
0001
0010
0100
1000
0100
1000
0001
0100
0010
0000
1000
0000
,
0001
0000
1000
0010
1000
0010
0100
0001
0100
0001
0100
0010
1000
0000
0001
0000
,
0010
0000
0001
0100
0001
0100
0010
1000
0010
1000
0100
0010
0001
0000
1000
0000
,
0001
0000
0100
0010
0100
0010
1000
0100
0010
0001
1000
0010
1000
0000
0001
0000
,
0100
0000
0001
0100
0001
0100
0001
0010
0100
1000
0010
0100
0010
0000
1000
0000
,
0001
0000
1000
0100
1000
0000
0100
0010
0001
0000
0010
0100
1000
0000
0001
0010
,
0100
0000
0000
1000
1001
0000
0000
0010
1000
0000
0001
0010
0100
0000
0010
0100
,
1000
0000
0010
1000
0010
1000
0010
1000
0010
1000
0100
0010
0001
1000
0100
0010
,
0001
0000
0100
0001
0100
0001
0100
0001
0100
0001
0010
0100
1000
0001
0010
0100
,
1000
0000
0010
0100
0010
0100
0010
0100
0001
0010
0100
1000
0001
0010
0100
1000
,
0010
0000
0100
0010
0100
0010
0100
0010
1000
0100
0010
0001
1000
0100
0010
0001
,
1000
0000
0010
0000
0001
0000
0010
0000
1000
0100
0010
0001
1000
0100
0010
0001
,
1000
0000
0100
0000
0001
0000
0100
0000
1000
0001
0010
0100
1000
0001
0010
0100
,
1000
0010
0001
0010
1000
0100
0010
0001
,
0100
0010
0100
0010
0100
0010
0100
0010
1000
0000
0001
0000
0100
0000
0010
0000
,
1000
0100
0001
0100
1000
0010
0001
0010
,
1000
0100
1000
0100
1000
0100
1000
0100
1000
0000
1000
0010
0100
0000
0100
0001
,
1000
0000
0010
0100
0010
0100
0010
0100
0010
0000
1000
0001
1000
0001
1000
0001
,
1000
0000
0001
0010
0100
1000
0100
0010
0001
0000
1000
0100
0010
0000
1000
0010
,
0100
0000
0001
0100
0001
0100
0010
1000
0010
0000
1000
0100
1000
0100
0010
0001
,
0010
0000
0001
0100
0001
0100
0010
1000
0010
1000
0001
0010
0100
1000
0100
0010
,
0001
0000
0001
0100
0000
0100
1000
0000
1000
0100
0000
0100
0001
0000
0001
0010
,
0001
0010
0000
0100
1000
0000
0010
0000
1000
0100
0010
0001
0010
0100
1000
0010
,
1000
0100
1000
0100
0010
0001
0010
0001
1000
0010
1000
0010
0100
0001
0100
0001
,
1000
0100
0010
0001
1000
0100
0010
0001
0010
0100
1000
0001
0010
0100
0010
0001
,
1000
0000
0000
0000
0000
0000
0000
0001
1001
0000
0000
0000
0000
0000
0010
0100
,
0220
0000
0000
0000
,
0330
0000
0000
0000
;

//---------------dance-single - ----------------
#NOTES:
     dance-single:
     :
     Hard:
     13:
     0.633543,0.723346,0.361673,0.198059,0.460703,515.000000,473.000000,42.000000,23.000000,0.000000,0.000000,0.633543,0.723346,0.361673,0.198059,0.460703,515.000000,473.000000,42.000000,23.000000,0.000000,0.000000:
0000
0000
0000
0000
,
0000
0000
0000
0000
,
0000
0000
0000
0000
,
0000
0000
0000
0000
,
0000
0000
0000
0000
,
0000
0000
0000
0000
,
0000
0000
0000
0000
,
1001
0000
0000
1000
0000
1000
0001
0000
,
1001
0000
0000
0001
0000
0001
1000
0000
,
0220
0330
2002
3003
,
0011
1100
0220
0330
,
1001
0000
0000
0001
1000
0000
0010
0000
0100
0000
0000
0100
0010
0000
0000
0010
,
1000
0000
0000
1000
0001
0000
1000
0000
0010
0000
0000
0010
0100
0000
0000
0100
,
0001
0000
0000
0001
1000
0000
0010
0000
1000
0000
0000
1000
0100
0000
0000
0100
,
0010
0000
0000
0010
0001
0000
0100
0000
0010
0000
0000
0010
1000
0000
0000
1000
,
0100
0000
0000
0100
0010
0000
0100
0000
0001
0000
0000
0001
1000
0000
0000
1000
,
0100
0000
0000
0100
0010
0000
0100
0000
0001
0000
0000
0001
1000
0000
0010
0000
,
1000
0000
0000
1000
0100
0000
0000
0100
0010
0000
0000
0010
0001
0000
0000
0001
,
1000
0000
0000
1000
0001
0000
0000
0001
0100
0000
0010
0000
1001
0000
0000
0000
,
0101
0000
0000
0001
0100
0000
0010
0000
0100
0000
0000
0100
0010
0000
0000
0010
,
1000
0000
0000
1000
0100
0000
0010
0000
0001
0000
0000
0001
0100
0000
0000
0100
,
0010
0000
0000
0010
0100
0000
0001
0000
1000
0000
0000
1000
0100
0000
0000
0100
,
0010
0000
0000
0010
0001
0000
1000
0000
0010
0000
0000
0010
1000
0000
0000
1000
,
0001
0000
1000
0001
1000
0000
0010
0000
0100
0000
0010
0000
1000
0000
0100
0000
,
0010
0000
0001
0010
0001
0000
0100
0000
0010
0000
1000
0000
0100
0000
0010
0000
,
0001
0000
0100
0010
0100
0000
0001
0000
1000
0000
0100
0000
0010
0000
0001
0000
,
0001
0000
0010
0000
0100
0000
1000
0000
0010
0000
0100
0010
0100
0000
0010
0000
,
1000
0000
0000
0000
0001
0000
0100
0000
0010
0000
1000
0000
0100
0000
1000
0100
,
1000
0010
0100
0001
2000
0000
3002
0000
,
0013
0000
0000
0000
0001
0000
0010
0000
0100
0000
1000
0000
0010
0000
0100
0001
,
0100
0010
1000
0100
0010
0001
1000
0100
,
0001
0000
0000
0000
1000
0001
1000
0001
1000
0000
0010
0000
0100
0000
0001
0000
,
1001
0000
0000
1010
0000
0000
0101
0000
0000
1100
0000
0000
0011
0000
0100
0000
,
0120
0032
0203
1300
,
1200
0000
0302
0000
0023
0000
0130
0001
,
1020
0000
0032
0000
0203
0000
1300
0010
,
0201
0000
0000
0000
0320
0000
0000
0000
1030
0100
1000
0100
0020
0000
0032
0000
,
0103
0000
0000
1000
0100
0001
0000
0000
0100
0000
0000
0001
0100
1000
0000
0000
,
0010
0000
0000
1000
0010
0001
0000
0000
0010
0000
0000
0001
0010
1000
0000
0000
,
0110
0000
0000
1000
0100
0001
0000
0000
1001
0000
0000
0001
0010
1000
0000
0000
,
1001
1001
1001
0000
0110
0110
0110
0000
,
1000
0100
0010
0001
1001
1001
1001
0000
,
1001
0000
0000
0001
0100
0000
0000
0100
0010
0000
0000
0010
1000
0000
0100
0000
,
0010
0000
0000
0010
0001
0000
0000
0001
0100
0000
0000
0100
0010
0000
1000
0000
,
0100
0000
0000
0100
0001
0000
0000
0001
1000
0000
0000
1000
0001
1000
0001
1000
,
0010
0000
0000
0010
0100
0000
0000
0100
0001
0000
0000
0001
1000
0010
1000
0010
,
1000
0000
0000
1000
0100
0000
0000
0100
0010
0000
0000
0010
0001
0010
0001
0000
,
0100
0000
0000
0100
0010
0000
0000
0010
1000
0000
0000
1000
0100
1000
0100
0000
,
0010
0000
0000
0010
0001
0000
0000
0001
1000
0000
0000
1000
0100
0000
0000
0100
,
0010
0000
0000
0010
0001
0000
0000
0001
1000
0000
0000
0000
1001
0000
0000
0000
,
0010
1000
0100
0010
0001
0010
0100
1000
,
0010
1000
0010
0100
0001
0100
0010
1000
,
0100
0010
0001
1000
0001
0010
0100
1000
,
0001
0100
0010
1000
0001
1000
0100
0010
,
0001
0000
1000
0010
1000
0010
1000
0010
0100
0000
0001
0000
1000
0000
0100
0000
,
0010
0000
0001
0100
0001
0100
0001
0100
0010
0000
1000
0000
0001
0000
1000
0000
,
0100
0000
0010
0001
0010
0000
0001
0000
0100
0000
1000
0000
0100
0000
0001
0000
,
1000
0000
0010
1000
0010
0000
1000
0000
0101
0000
1000
0000
0010
0000
0100
0000
,
0001
0000
0100
0010
0100
0000
0001
0000
0010
0000
1000
0000
0010
0000
0001
0000
,
0100
0000
0001
1000
0001
0000
1000
0000
0101
0000
0000
0000
1100
0000
0000
0000
,
0010
0000
0100
0001
0100
0000
0010
0000
1000
0000
0100
0000
0010
0000
0001
0000
,
0100
0000
0010
1000
0010
0000
0100
0000
0001
0000
1000
0000
0010
0000
0100
0000
,
0001
0000
0000
0001
0100
0000
0010
1000
0010
0000
1000
0000
0100
0000
0000
0000
,
1000
0000
0000
1000
0010
0000
0100
0001
0100
0000
0010
0000
1000
0000
0000
0000
,
0101
0100
0000
1010
0010
0000
1001
1000
,
0000
0110
0010
1000
0100
0010
0001
0001
,
1001
1000
0100
0010
0001
0010
0100
1000
,
1001
0001
0010
0100
1000
0100
0010
0001
,
1001
0000
0000
0000
0000
0000
0000
0010
0100
0000
0000
0000
0000
0000
1000
0002
,
2000
0000
0000
0000
,
3003
0000
0000
0000
;

//---------------dance-single - ----------------
#NOTES:
     dance-single:
     :
     Medium:
     10:
     0.514215,0.542509,0.310005,0.146391,0.008611,418.000000,382.000000,36.000000,17.000000,0.000000,0.000000,0.514215,0.542509,0.310005,0.146391,0.008611,418.000000,382.000000,36.000000,17.000000,0.000000,0.000000:
0000
0000
0000
0000
,
0000
0000
0000
0000
,
0000
0000
0000
0000
,
0000
0000
0000
0000
,
0000
0000
0000
0000
,
0000
0000
0000
0000
,
0000
0000
0000
0000
,
0010
0000
0000
1000
0000
1000
0000
0000
,
0010
0000
0000
0001
0000
0001
0000
0000
,
1001
0000
0110
0000
,
1000
0010
2002
3003
,
1000
0000
0001
1000
0001
1000
0100
1000
,
0001
0000
1000
0001
1000
0001
0010
0001
,
1000
0000
0001
0010
0001
0010
0100
1000
,
0010
0000
1000
0100
1000
0100
0010
0001
,
0100
0000
0010
0100
0010
0100
0001
1000
,
0100
0000
0100
0010
0100
0010
1000
0001
,
0010
0011
1100
0110
,
1001
1001
0110
1001
,
0001
0000
0100
0010
0100
0001
1000
0100
,
0010
0000
0010
0100
0010
1000
0100
0010
,
0001
0000
1000
0100
1000
0001
0100
0001
,
0100
0000
0010
1000
0010
0100
0001
0100
,
0010
0000
1000
0100
0010
0001
0010
0100
,
1000
0001
1000
0001
0100
0010
0100
0010
,
1000
0000
0001
0010
0100
1000
0100
0010
,
0001
0100
0001
0100
0010
1000
0010
1000
,
0100
0000
0001
0100
0010
1000
0010
1000
,
0100
1000
0100
0010
0001
0010
0001
0100
,
0010
0000
1000
0001
0100
0001
1000
0010
,
1000
0001
1000
0001
1000
0100
0010
0001
,
0100
0010
0100
0010
1000
0001
1000
0000
,
0001
0000
0000
0001
0000
0000
1000
0000
0000
1000
0000
0000
1001
0000
0000
0000
,
0220
0000
0330
1000
,
0202
0000
0303
0010
,
2002
0000
0000
3003
,
2000
3000
0002
0203
,
0310
1001
0100
1001
,
1000
0110
0001
0110
,
0001
1010
0100
0011
,
2002
3003
0220
0330
,
1001
0110
1001
0110
,
1000
0010
1000
0010
0100
0001
0100
0001
,
1000
0100
1000
0100
0010
0001
0010
0001
,
1000
0010
1000
0010
0001
0010
0001
0010
,
1000
0010
0100
0010
1000
0000
0010
0000
,
0001
0100
0001
0100
0001
0010
0001
0010
,
0001
0100
0001
0100
0010
1000
0010
1000
,
0001
0100
0010
0000
1000
0010
0100
0000
,
1001
0110
1001
0110
,
1000
0100
1000
0100
0010
0001
0010
0100
,
1000
0001
1000
0001
1000
0100
0010
0001
,
0100
0001
0100
0001
0010
0100
1000
0100
,
0010
0001
0010
0001
0100
0010
1000
0100
,
0001
0010
0001
0010
0001
1000
0001
1000
,
0001
0100
0001
0100
0001
0010
0100
1000
,
1000
0001
1000
0001
1000
0100
1000
0100
,
1000
0010
1000
0010
1000
0100
0010
0001
,
0100
0010
0100
0010
0001
1000
0100
0010
,
0001
1000
0001
1000
0001
0010
0100
1000
,
0010
0100
0010
0100
0001
0010
0100
1000
,
0010
0100
0010
1000
0100
0010
0001
1000
,
0001
0010
0001
0010
0100
1000
0100
1000
,
0010
0100
0010
1000
0001
0010
0100
1000
,
1001
0000
0000
0110
0000
0000
1001
0000
,
1000
0100
0010
0001
0100
0010
1000
0000
,
0001
0010
0001
0010
0100
1000
0100
0000
,
1000
0100
1000
0100
0010
0001
0100
0000
,
1001
0000
0110
0000
,
2002
0000
0000
0000
,
3003
0000
0000
0000
;

//---------------dance-single - ----------------
#NOTES:
     dance-single:
     :
     Easy:
     5:
     0.284172,0.331534,0.215282,0.439174,0.000000,231.000000,206.000000,25.000000,51.000000,0.000000,0.000000,0.284172,0.331534,0.215282,0.439174,0.000000,231.000000,206.000000,25.000000,51.000000,0.000000,0.000000:
0000
0000
0000
0000
,
0000
0000
0000
0000
,
0000
0000
0000
0000
,
0000
0000
0000
0000
,
0000
0000
0000
0000
,
0000
0000
0000
0000
,
0000
0000
0000
0000
,
2000
0000
3000
0000
,
0002
0000
0003
0000
,
1001
0000
0110
0000
,
1001
1001
1001
0000
,
2000
0100
0010
3001
,
0002
0010
0100
1003
,
2000
0010
0001
3100
,
0002
0010
1000
0103
,
2000
0100
0001
3001
,
0002
0100
1000
1003
,
0001
0010
0100
1000
,
0100
0010
0001
1001
,
0200
0001
0001
0310
,
0020
1000
1000
0130
,
0200
0001
0010
0301
,
2000
0001
0100
3001
,
0020
1000
0100
1030
,
0002
0010
1000
0013
,
2000
0010
0001
3010
,
0002
0010
0100
1003
,
2000
0100
0001
3100
,
0020
0100
1000
0130
,
2000
0100
0010
3001
,
0020
0100
1000
0130
,
2000
0001
0001
3001
,
0002
1000
1000
1003
,
0020
0000
0000
0030
,
0200
0000
0000
0300
,
0002
0000
0000
0003
,
2000
3000
0002
0003
,
1000
1001
0000
1001
,
0000
0110
0000
0110
,
0000
1001
0000
0110
,
0020
0030
0200
0300
,
0001
0010
0100
1000
,
0010
0010
1000
0100
,
0010
0010
0001
0100
,
0010
0010
1000
0001
,
0100
0100
0001
1000
,
0001
0010
0100
1000
,
0010
0001
0100
1000
,
0020
0030
0200
0300
,
0001
1000
1001
1001
,
1000
0100
0010
0010
,
0100
0010
0001
0001
,
0010
0100
1000
1000
,
0001
0010
0100
0100
,
0001
1000
0100
0010
,
1000
0001
0010
0100
,
0002
0003
2000
3000
,
0001
1000
0001
1001
,
2000
3000
0002
0003
,
1000
0001
1000
1001
,
0020
0030
0200
0300
,
0001
0010
0100
1000
,
0220
0330
2002
3003
,
1000
0100
0010
0001
,
0220
0330
2002
3003
,
0001
0010
0100
1000
,
0220
0330
2002
3003
,
1000
0100
0010
0001
,
1001
0000
0110
0000
,
2002
0000
0000
0000
,
3003
0000
0000
0000
;

//---------------dance-single - ----------------
#NOTES:
     dance-single:
     :
     Beginner:
     3:
     0.134090,0.180836,0.008611,0.137780,0.000000,109.000000,108.000000,1.000000,16.000000,0.000000,0.000000,0.134090,0.180836,0.008611,0.137780,0.000000,109.000000,108.000000,1.000000,16.000000,0.000000,0.000000:
// measure 0
0000
0000
0000
0000
,  // measure 1
0000
0000
0000
0000
,  // measure 2
0000
0000
0000
0000
,  // measure 3
0000
0000
0000
0000
,  // measure 4
0000
0000
0000
0000
,  // measure 5
0000
0000
0000
0000
,  // measure 6
0000
0000
0000
0000
,  // measure 7
1000
0000
0000
0000
,  // measure 8
0001
0000
0000
0000
,  // measure 9
0100
0000
0100
0000
,  // measure 10
0200
0000
0300
0000
,  // measure 11
0010
0000
0001
0000
,  // measure 12
0100
0000
1000
0000
,  // measure 13
0010
0000
1000
0000
,  // measure 14
0100
0000
0001
0000
,  // measure 15
0100
0000
1000
0000
,  // measure 16
0010
0000
0001
0000
,  // measure 17
0100
0000
0001
0000
,  // measure 18
0010
0000
1000
0000
,  // measure 19
0001
0000
0010
0000
,  // measure 20
1000
0000
0100
0000
,  // measure 21
0001
0000
0100
0000
,  // measure 22
1000
0000
0010
0000
,  // measure 23
1000
0000
0001
0000
,  // measure 24
0010
0000
1000
0000
,  // measure 25
1000
0000
0100
0000
,  // measure 26
0001
0000
1000
0000
,  // measure 27
1000
0000
0001
0000
,  // measure 28
0100
0000
1000
0000
,  // measure 29
1000
0000
0010
0000
,  // measure 30
0001
0000
1000
0000
,  // measure 31
0002
0000
0003
0000
,  // measure 32
2000
0000
3000
0000
,  // measure 33
0020
0000
0030
0000
,  // measure 34
0200
0000
0300
0000
,  // measure 35
0002
0000
0003
0000
,  // measure 36
1000
0000
1000
0000
,  // measure 37
2000
3000
0002
0003
,  // measure 38
2000
3000
0002
0003
,  // measure 39
0200
0300
0200
0300
,  // measure 40
0100
0000
0100
0000
,  // measure 41
0100
0100
0100
0000
,  // measure 42
0001
0000
0000
0000
,  // measure 43
1000
0000
0000
0000
,  // measure 44
0010
0000
0000
0000
,  // measure 45
0100
0000
0000
0000
,  // measure 46
0001
0000
1000
0000
,  // measure 47
0010
0000
0100
0000
,  // measure 48
0001
0000
0010
0000
,  // measure 49
0100
0000
1000
0000
,  // measure 50
0001
0000
0000
0000
,  // measure 51
1000
0000
0000
0000
,  // measure 52
0100
0000
0000
0000
,  // measure 53
0010
0000
0000
0000
,  // measure 54
0001
0000
1000
0000
,  // measure 55
0100
0000
0010
0000
,  // measure 56
0100
0000
1000
0000
,  // measure 57
0001
0000
1000
0000
,  // measure 58
0001
0000
0010
0000
,  // measure 59
0100
0000
0010
0000
,  // measure 60
0001
0000
0100
0000
,  // measure 61
1000
0000
0010
0000
,  // measure 62
1000
0000
0100
0000
,  // measure 63
0001
0000
0010
0000
,  // measure 64
1000
0000
0100
0000
,  // measure 65
0010
0000
0001
0000
,  // measure 66
2000
0000
3000
0000
,  // measure 67
0002
0000
0003
0000
,  // measure 68
0100
0000
0010
0000
,  // measure 69
2002
0000
0000
0000
,  // measure 70
3003
0000
0000
0000
;
