#TITLE:Painful Fate;
#SUBTITLE:;
#ARTIST:BEMANI Sound Team "猫叉Master";
#TITLETRANSLIT:;
#SUBTITLETRANSLIT:;
#ARTISTTRANSLIT:BEMANI Sound Team "Nekomata Master";
#GENRE:;
#CREDIT:;
#BANNER:Painful Fate.png;
#BACKGROUND:Painful Fate-bg.png;
#LYRICSPATH:;
#CDTITLE:;
#MUSIC:Painful Fate.ogg;
#OFFSET:0.093000;
#SAMPLESTART:79.592453;
#SAMPLELENGTH:17.500000;
#SELECTABLE:YES;
#DISPLAYBPM:96.000000:192.000000;
#BPMS:0.000000=192.000000
,200.000000=96.000000
,216.000000=192.000000
,235.000000=36.000000
,235.333328=34.000000
,235.666672=192.000000
;
#STOPS:
;
#BGCHANGES:0.000=Painful Fate.avi=1.000=0=0=0=StretchNoLoop====,
99999=-nosongbg-=1.000=0=0=0 // don't automatically add -songbackground-
;
#KEYSOUNDS:;
#ATTACKS:;

//---------------dance-single - ----------------
#NOTES:
     dance-single:
     :
     Hard:
     14:
     0.638750,0.770634,0.222767,0.437578,0.238679,562.000000,534.000000,28.000000,55.000000,0.000000,0.000000,0.638750,0.770634,0.222767,0.437578,0.238679,562.000000,534.000000,28.000000,55.000000,0.000000,0.000000:
// measure 0
0000
0000
0000
0000
,  // measure 1
0000
0000
0000
0000
,  // measure 2
0000
0000
0000
0000
,  // measure 3
0000
0000
0000
0000
,  // measure 4
0000
0000
0000
0000
,  // measure 5
0000
0000
0000
0000
,  // measure 6
0000
0000
0000
0000
,  // measure 7
0000
0000
0000
0000
,  // measure 8
0000
0000
0000
0000
0000
0000
0000
0000
0000
0000
0000
0000
0000
0000
0001
0010
,  // measure 9
0001
1000
0100
1000
0001
1000
0100
1000
,  // measure 10
0010
0000
1000
0000
0100
0000
1000
0000
0010
1000
0010
0000
1000
0000
0001
1000
,  // measure 11
0001
0100
0010
0100
0001
0100
0010
0100
,  // measure 12
0010
0000
1000
0000
0001
0000
1000
0000
0010
1000
0010
0000
1000
0000
0001
1000
,  // measure 13
0001
0010
0100
1000
0001
0010
0100
1000
,  // measure 14
0001
0000
0100
0000
0001
0000
1000
0001
1000
0001
0100
0000
0001
0000
1000
0001
,  // measure 15
1000
0010
0100
0001
0100
0010
1000
1001
,  // measure 16
0000
0002
0203
0320
,  // measure 17
1030
0000
0001
0100
0000
1000
1100
0000
,  // measure 18
0010
0000
0001
0000
0100
0000
0010
0100
0010
0000
1000
0000
0001
0000
0000
0000
,  // measure 19
1000
0000
0010
1010
0000
0100
0110
0000
,  // measure 20
1000
0000
0010
0000
0100
0000
0001
0100
0001
0100
0001
0000
1000
0000
0010
0000
,  // measure 21
1000
0000
0100
1000
0000
0001
0101
0000
,  // measure 22
0010
0000
1000
0000
0001
0000
1000
0010
1000
0000
0001
0000
0100
0000
0000
0000
,  // measure 23
0010
0000
1000
1010
0000
0001
0101
0000
,  // measure 24
0010
0000
1000
0000
0001
0000
1000
0000
0001
0100
0001
0000
1000
0010
1000
0000
,  // measure 25
0001
0010
0100
1100
0000
1000
1001
0000
,  // measure 26
0010
0001
0101
0000
0010
0100
1001
0000
,  // measure 27
1000
0100
0010
0011
0000
0100
0110
0000
,  // measure 28
0001
0100
0110
0000
1000
0001
0101
0000
,  // measure 29
0001
0010
0100
0010
0000
1000
1010
0000
,  // measure 30
1000
0001
0100
0000
0010
1000
0001
0000
,  // measure 31
1000
0010
0100
0010
0100
0010
0110
0000
,  // measure 32
0000
0000
0002
0000
1003
0100
0010
0001
,  // measure 33
1000
0000
0000
0000
0001
0010
0001
0000
0000
0000
1000
0010
1000
0000
0000
0000
,  // measure 34
0001
0100
0001
0000
0000
0000
1000
0100
1000
0000
0000
0000
0010
0000
0100
0000
,  // measure 35
0001
0000
0000
0000
1000
0010
1000
0000
0000
0000
0000
0000
0001
0100
0001
0000
,  // measure 36
0000
0000
1000
0100
1000
0000
0000
0000
0001
0100
0001
0000
0100
0000
0010
0000
,  // measure 37
1000
0000
0000
0000
0001
0100
0001
0000
0000
0000
1000
0100
1000
0000
0000
0000
,  // measure 38
0001
0100
0001
0000
0000
0000
1000
0010
1000
0000
0000
0000
0001
0000
0100
0000
,  // measure 39
0010
0000
0000
0000
1000
0001
1000
0000
0000
0000
0000
0000
0010
1000
0010
0000
,  // measure 40
0000
0000
0100
0001
0100
0000
0000
0000
0010
1000
0010
1000
0001
0000
0000
0000
,  // measure 41
0101
0000
0001
0010
1000
0001
0100
1000
,  // measure 42
0001
0010
1000
0001
0100
1000
0001
0000
,  // measure 43
1000
0000
0001
1000
0100
0010
0001
1000
,  // measure 44
0100
0001
1000
0010
0001
0000
0110
0000
,  // measure 45
1000
0000
0001
0010
0100
0010
0100
1000
,  // measure 46
0001
0010
0100
0010
0100
1000
1001
0000
,  // measure 47
0110
0000
0001
0010
1000
0001
0100
1000
,  // measure 48
0001
0010
0100
1000
0100
0010
0001
0000
,  // measure 49
2002
0000
0000
0000
0000
0000
0000
0000
3003
0000
0000
0000
1000
0001
1000
0001
,  // measure 50
2000
0000
0001
3200
0000
0000
0310
0002
,  // measure 51
0000
0000
0000
0000
1000
0000
0203
0000
0000
0310
0100
0000
0000
0000
0001
0000
,  // measure 52
1000
0000
0100
0010
0000
1000
0001
0000
0000
0000
1000
0000
0001
0000
0200
0000
,  // measure 53
0000
0000
0000
0000
0301
0010
0100
0000
0000
0000
1001
0000
0000
0000
1000
0010
,  // measure 54
2000
0000
0001
0000
0010
0010
3020
0000
,  // measure 55
0100
0000
1000
0000
0100
0100
0230
0000
,  // measure 56
0001
0000
0010
0000
0001
0001
0302
0000
,  // measure 57
1000
0000
0100
0000
0013
0000
0010
1000
,  // measure 58
0001
0100
1000
0001
0010
1000
0002
0000
,  // measure 59
0003
0000
2000
0000
3010
0000
0001
0100
,  // measure 60
0020
0000
1000
0000
0130
0000
1000
0100
,  // measure 61
0020
0000
0001
0000
0031
0000
0100
0010
,  // measure 62
2000
0000
3001
0100
0020
0000
1000
0000
,  // measure 63
1030
0100
1000
0100
1000
0000
0001
0000
0100
0000
0001
0000
1000
0000
0100
0000
,  // measure 64
0020
0000
0001
0000
0130
0000
1000
0010
,  // measure 65
0200
0000
0001
0000
0310
0000
0001
0100
,  // measure 66
0020
1030
0102
0013
,  // measure 67
0100
0010
0100
0010
0100
0000
0000
0000
0001
0000
1000
0010
2000
0000
0000
0000
,  // measure 68
3002
0000
0100
0000
0013
0000
1000
0001
,  // measure 69
0200
0000
0010
0000
0301
0000
1000
0010
,  // measure 70
0200
0001
0010
0301
,  // measure 71
1000
0010
1000
0010
1000
0000
0001
0000
0100
0000
0010
0000
1000
0000
0100
0000
,  // measure 72
0020
0000
0030
1000
1001
0000
1000
0100
,  // measure 73
0010
0001
0010
0001
0020
0000
0000
0000
0031
0000
0100
0000
0010
0000
1000
0000
,  // measure 74
0020
0000
0000
0000
1000
0000
0000
0000
0130
0000
1000
0001
1000
0000
0010
0000
,  // measure 75
0200
0000
0000
0000
0010
0000
0000
0000
1300
0000
0001
0100
0001
0000
1000
0000
,  // measure 76
0020
0000
0000
0100
0200
0000
0330
0000
,  // measure 77
1000
0010
1000
0010
1000
0000
0001
0000
0100
0000
1000
0000
0001
0000
0010
0000
,  // measure 78
2000
0000
0000
0000
3001
0000
0020
0100
,  // measure 79
0230
0000
0000
0000
0301
0000
1000
0100
,  // measure 80
2200
3300
0202
0303
,  // measure 81
0010
0100
0010
0100
0002
0000
0000
0000
1003
0000
0001
1000
0002
0000
0000
0000
,  // measure 82
0203
0000
0000
0000
0310
0100
0002
0000
,  // measure 83
2003
0000
0010
0000
3010
0100
0002
0000
,  // measure 84
0023
0000
0000
0001
0032
0000
0100
0000
,  // measure 85
0103
0010
0100
0010
1000
0000
0010
0000
0001
0000
1000
0000
0100
0000
0001
0000
,  // measure 86
2000
0000
0001
0001
3002
0000
0100
0100
,  // measure 87
0103
0010
0100
0010
1000
0000
0010
0000
1000
0000
0001
0000
0100
0000
1000
0000
,  // measure 88
0002
0100
1000
0013
,  // measure 89
0001
0100
0001
0100
0001
0000
0100
0000
1000
0000
0001
0000
0010
0000
2000
0000
,  // measure 90
0002
0000
0000
0000
,  // measure 91
0000
0000
3003
0000
,  // measure 92
0000
1001
0000
0000
;

//---------------dance-threepanel - ----------------
#NOTES:
     dance-threepanel:
     :
     Challenge:
     1:
     0.003410,0.113223,0.007956,0.000000,0.000000,3.000000,1.000000,1.000000,0.000000,0.000000,1.000000,0.003410,0.113223,0.007956,0.000000,0.000000,3.000000,1.000000,1.000000,0.000000,0.000000,1.000000:
000
000
000
000
,
000
000
000
000
,
000
000
000
000
,
000
000
000
000
,
000
000
000
000
,
000
000
000
000
,
000
000
000
000
,
000
000
000
000
,
000
000
000
000
,
000
000
000
000
,
000
000
000
000
,
000
000
000
000
,
000
000
000
000
,
000
000
000
000
,
000
000
000
000
,
000
000
000
000
,
000
000
000
000
,
000
000
000
000
,
000
000
000
000
,
000
000
000
000
,
000
000
000
000
,
000
000
000
000
,
000
000
000
000
,
000
000
000
000
,
000
000
000
000
,
000
000
000
000
,
000
000
000
000
,
000
000
000
000
,
000
000
000
000
,
000
000
000
000
,
000
000
000
000
,
000
000
000
000
,
000
000
000
000
,
000
000
000
000
,
000
000
000
000
,
000
000
000
000
,
000
000
000
000
,
000
000
000
000
,
000
000
000
000
,
000
000
000
000
,
000
000
000
000
,
000
000
000
000
,
000
000
000
000
,
000
000
000
000
,
000
000
000
000
,
000
000
000
000
,
000
000
000
000
,
000
000
000
000
,
000
000
000
000
,
000
000
000
000
,
000
000
000
000
,
000
000
000
000
,
000
000
000
000
,
000
000
000
000
,
000
000
000
000
,
000
000
000
000
,
000
000
000
000
,
000
000
000
000
,
000
000
000
000
,
000
000
000
000
,
000
000
000
000
,
000
000
000
000
,
000
000
000
000
,
000
000
000
000
,
000
000
000
000
,
000
000
000
000
,
000
000
000
000
,
000
000
000
000
,
000
000
000
000
,
000
000
000
000
,
000
000
000
000
,
000
000
000
000
,
000
000
000
000
,
000
000
000
000
,
000
000
000
000
,
000
000
000
000
,
000
000
000
000
,
000
000
000
000
,
000
000
000
000
,
000
000
000
000
,
000
000
000
000
,
000
000
000
000
,
000
000
000
000
,
000
000
000
000
,
000
000
000
000
,
000
000
000
000
,
000
000
000
000
,
000
000
000
000
,
000
000
000
000
,
000
000
000
000
,
000
000
000
000
,
000
000
000
000
,
000
000
000
000
,
000
000
000
000
,
000
000
000
000
000
000
000
111
;

//---------------dance-single - ----------------
#NOTES:
     dance-single:
     :
     Medium:
     9:
     0.436441,0.587150,0.469401,0.437578,0.000000,384.000000,325.000000,59.000000,55.000000,0.000000,0.000000,0.436441,0.587150,0.469401,0.437578,0.000000,384.000000,325.000000,59.000000,55.000000,0.000000,0.000000:
// measure 0
0000
0000
0000
0000
,  // measure 1
0000
0000
0000
0000
,  // measure 2
0000
0000
0000
0000
,  // measure 3
0000
0000
0000
0000
,  // measure 4
0000
0000
0000
0000
,  // measure 5
0000
0000
0000
0000
,  // measure 6
0000
0000
0000
0000
,  // measure 7
0000
0000
0000
0000
,  // measure 8
0000
0000
0000
0000
,  // measure 9
1000
0000
1001
0000
1000
0001
0100
0000
,  // measure 10
0001
0000
1001
0000
0001
1000
0100
0000
,  // measure 11
1000
0000
0110
0000
0001
0100
0010
0000
,  // measure 12
0001
0000
0110
0000
1000
0010
0100
0000
,  // measure 13
1000
0000
1001
0000
0010
0100
0001
0100
,  // measure 14
0010
0000
1001
0000
0100
0010
1000
0010
,  // measure 15
0100
0000
1001
0000
0010
0001
0100
0000
,  // measure 16
0000
2000
3020
0032
,  // measure 17
1003
0000
0100
1000
0000
0100
1000
0000
,  // measure 18
0001
0000
0100
0000
0001
1000
0001
0000
,  // measure 19
0010
0000
0001
0010
0000
0001
0010
0000
,  // measure 20
0001
0000
0100
0000
0010
1000
0010
0000
,  // measure 21
1000
0000
0001
0100
0000
0001
0100
0000
,  // measure 22
0010
0000
1000
0000
0001
0010
0100
0000
,  // measure 23
0001
0000
1000
0001
0000
1000
0001
0000
,  // measure 24
1000
0000
0010
0000
0100
0010
0100
0000
,  // measure 25
0001
0000
1000
0010
0000
0100
0001
0000
,  // measure 26
1000
0010
0101
1010
,  // measure 27
0001
0000
0100
0010
0000
1000
0010
0000
,  // measure 28
1000
0001
0110
1001
,  // measure 29
0100
0000
0010
1000
0000
0001
0100
0000
,  // measure 30
0010
1000
0001
0101
,  // measure 31
0000
0010
0000
1000
0100
0010
0001
0000
,  // measure 32
0000
2000
3002
0203
,  // measure 33
0310
0000
1001
0000
0000
1100
0000
0000
,  // measure 34
0011
0000
0000
0110
0000
0000
1001
0000
,  // measure 35
0010
1001
0100
1001
,  // measure 36
0000
1100
0000
0000
0010
0000
1001
0000
,  // measure 37
0100
0000
1001
0000
0000
0011
0000
0000
,  // measure 38
0110
0000
0000
1100
0000
0000
0110
0000
,  // measure 39
1000
0101
0010
1010
,  // measure 40
0000
0101
0000
0000
0110
0000
1001
0000
,  // measure 41
0010
0000
1100
0000
0000
0011
0000
0000
,  // measure 42
0110
0000
0000
1001
0000
0000
0110
0000
,  // measure 43
1000
1100
0001
0011
,  // measure 44
0000
0110
0000
0000
1100
0000
0011
0000
,  // measure 45
1000
0000
0101
0000
0000
1010
0000
0000
,  // measure 46
0110
0000
0000
1001
0000
0000
1100
0000
,  // measure 47
0001
0010
0100
0000
0001
1000
0000
1000
,  // measure 48
0100
0000
0010
0001
0000
0100
0010
0000
,  // measure 49
2002
0000
0000
3003
,  // measure 50
0020
0000
0000
2030
0000
0000
0000
3002
,  // measure 51
0000
0000
0000
2003
0000
3020
0000
0030
,  // measure 52
1000
0000
0100
0010
0000
1000
0100
0010
,  // measure 53
0000
0100
0010
0001
0000
1001
0000
0000
,  // measure 54
0020
0000
1030
0002
,  // measure 55
0000
0000
0103
0020
,  // measure 56
0000
0000
0130
0002
,  // measure 57
0000
0000
0003
1000
,  // measure 58
0001
0100
0010
1001
,  // measure 59
0000
0000
0020
0000
1030
0000
0001
0100
,  // measure 60
0020
0000
0000
0000
0130
0000
0001
1000
,  // measure 61
0020
0000
0000
0000
1030
0000
0001
1000
,  // measure 62
0200
0000
0300
0100
0020
0000
0030
0000
,  // measure 63
1001
0000
1000
0100
1000
0100
1000
0100
,  // measure 64
2000
0000
0001
0010
,  // measure 65
3200
0000
0000
1000
,  // measure 66
2300
0000
3002
0000
,  // measure 67
0103
0010
0200
0000
0310
0000
2000
0000
,  // measure 68
3002
0000
0103
0020
,  // measure 69
0230
0000
0310
2000
,  // measure 70
3002
0000
0100
0000
,  // measure 71
1003
0001
1000
0000
0010
1000
0000
0001
,  // measure 72
2002
0000
0000
3003
,  // measure 73
0110
0002
0010
0103
,  // measure 74
2000
0100
0010
3001
,  // measure 75
0200
0010
0010
0301
,  // measure 76
0002
0100
2000
3003
,  // measure 77
1000
0001
1000
0000
0010
0100
0000
0010
,  // measure 78
0200
0000
0001
0310
,  // measure 79
0102
0000
0100
0000
1003
0000
1000
0001
,  // measure 80
0202
0303
2200
3300
,  // measure 81
0001
0010
0100
0000
0001
1000
0100
0000
,  // measure 82
2002
0000
3003
0000
1000
0001
0100
0000
,  // measure 83
0220
0000
0330
0000
0001
1000
0010
0000
,  // measure 84
2002
0000
0000
3003
,  // measure 85
0010
0001
0100
0001
0100
0001
0100
0010
,  // measure 86
0020
0000
1000
0130
,  // measure 87
1000
0010
1000
0010
0100
0001
0100
0001
,  // measure 88
2000
0000
0010
0000
,  // measure 89
3010
0100
0010
0100
0001
1000
0001
1000
,  // measure 90
0020
0000
0000
0000
,  // measure 91
0000
0000
0030
0000
,  // measure 92
0000
1001
0000
0000
;

//---------------dance-single - ----------------
#NOTES:
     dance-single:
     :
     Easy:
     7:
     0.338696,0.477059,0.469401,0.501225,0.000000,298.000000,239.000000,59.000000,63.000000,0.000000,0.000000,0.338696,0.477059,0.469401,0.501225,0.000000,298.000000,239.000000,59.000000,63.000000,0.000000,0.000000:
// measure 0
0000
0000
0000
0000
,  // measure 1
0000
0000
0000
0000
,  // measure 2
0000
0000
0000
0000
,  // measure 3
0000
0000
0000
0000
,  // measure 4
0000
0000
0000
0000
,  // measure 5
0000
0000
0000
0000
,  // measure 6
0000
0000
0000
0000
,  // measure 7
0000
0000
0000
0000
,  // measure 8
0000
0000
0000
0000
,  // measure 9
0002
0100
0100
0103
,  // measure 10
2000
0100
0100
3100
,  // measure 11
0002
0010
0010
0013
,  // measure 12
2000
0010
0010
3010
,  // measure 13
0200
0010
0010
0310
,  // measure 14
0002
1000
1000
1003
,  // measure 15
0020
0100
0100
0130
,  // measure 16
0000
0002
0100
0103
,  // measure 17
1000
0100
0000
1001
,  // measure 18
0000
0001
0010
0100
,  // measure 19
1000
0100
0000
1001
,  // measure 20
0000
1000
0010
1000
,  // measure 21
0100
0100
0000
1001
,  // measure 22
0000
0010
0001
0100
,  // measure 23
0010
0010
0000
1001
,  // measure 24
0000
0001
0100
1000
,  // measure 25
0010
0110
0000
1001
,  // measure 26
0000
1000
0100
0010
,  // measure 27
0001
1000
0000
0110
,  // measure 28
0000
0001
0010
0100
,  // measure 29
1000
0001
0000
0110
,  // measure 30
0000
1000
0100
0010
,  // measure 31
0000
0001
0000
0000
1000
0000
1001
0000
,  // measure 32
0000
0010
0010
0010
,  // measure 33
1000
0000
1001
0000
0000
1100
0000
0000
,  // measure 34
0101
0000
0000
1100
0000
0000
0101
0000
,  // measure 35
0000
0011
0000
1010
,  // measure 36
0000
0011
0000
0000
1001
0000
1001
0000
,  // measure 37
0000
0000
0110
0000
0000
1001
0000
0000
,  // measure 38
0110
0000
0000
1001
0000
0000
1001
0000
,  // measure 39
0000
1001
0000
1010
,  // measure 40
0000
0101
0000
0000
1001
0000
1001
0000
,  // measure 41
0100
0000
1100
0000
0000
0110
0000
0000
,  // measure 42
0011
0000
0000
0110
0000
0000
1000
0000
,  // measure 43
0001
0100
0000
1001
,  // measure 44
0000
0110
0000
0000
1000
0000
0001
0000
,  // measure 45
1000
0000
1001
0000
0000
0110
0000
0000
,  // measure 46
1001
0000
0000
1100
0000
0000
0101
0000
,  // measure 47
0000
0000
0011
0000
0000
1010
0000
0000
,  // measure 48
0110
0000
0000
1001
0000
0000
2000
0000
,  // measure 49
0002
0000
3003
0000
,  // measure 50
0020
0000
0030
2000
0000
3000
0000
0002
,  // measure 51
0000
0003
0000
0200
0000
0300
0000
0000
,  // measure 52
0001
0000
0000
2000
0000
3000
0000
0002
,  // measure 53
0000
0003
0000
0100
0000
0010
0000
0000
,  // measure 54
2000
0000
0010
3002
,  // measure 55
0000
0000
0100
2003
,  // measure 56
0000
0000
0010
0002
,  // measure 57
0000
0000
3003
0110
,  // measure 58
1000
0000
0001
1000
0000
0001
2000
0000
,  // measure 59
3000
0002
0003
0100
,  // measure 60
0020
0000
0030
1000
,  // measure 61
0002
0000
0003
0100
,  // measure 62
0020
0000
1000
0000
,  // measure 63
1030
0001
0010
0100
,  // measure 64
2002
3003
0100
0010
,  // measure 65
2002
3003
0010
0100
,  // measure 66
0220
0330
2002
3003
,  // measure 67
0010
2000
0001
3001
,  // measure 68
0200
0010
0310
0001
,  // measure 69
0200
0010
0310
0001
,  // measure 70
2000
0100
0100
3100
,  // measure 71
0010
0000
0002
0000
0000
2003
0000
3000
,  // measure 72
2002
0000
3003
0000
,  // measure 73
0010
0100
0020
0000
1030
0000
0001
0000
,  // measure 74
0202
0303
1000
1100
,  // measure 75
2020
3030
0001
0110
,  // measure 76
2002
3003
0220
0330
,  // measure 77
0001
0000
1000
0000
0100
1000
0000
0100
,  // measure 78
2000
0000
3001
0100
,  // measure 79
0020
0000
1030
1000
,  // measure 80
0002
0000
0200
0000
,  // measure 81
0303
0020
0000
0130
,  // measure 82
0002
0000
1003
0100
,  // measure 83
2002
3003
0010
0100
,  // measure 84
2002
0000
0000
3003
,  // measure 85
0010
0000
0100
0000
0001
1000
0000
0001
,  // measure 86
2000
0000
0000
3000
,  // measure 87
0010
0000
0100
0000
0001
0100
0000
0001
,  // measure 88
0200
0000
0000
0300
,  // measure 89
0010
0000
1000
0000
0001
1000
0000
0000
,  // measure 90
0020
0000
0000
0000
,  // measure 91
0000
0000
0030
0000
,  // measure 92
0000
1001
0000
0000
;

//---------------dance-single - ----------------
#NOTES:
     dance-single:
     :
     Beginner:
     3:
     0.123886,0.220181,0.031824,0.071604,0.000000,109.000000,105.000000,4.000000,9.000000,0.000000,0.000000,0.123886,0.220181,0.031824,0.071604,0.000000,109.000000,105.000000,4.000000,9.000000,0.000000,0.000000:
// measure 0
0000
0000
0000
0000
,  // measure 1
0000
0000
0000
0000
,  // measure 2
0000
0000
0000
0000
,  // measure 3
0000
0000
0000
0000
,  // measure 4
0000
0000
0000
0000
,  // measure 5
0000
0000
0000
0000
,  // measure 6
0000
0000
0000
0000
,  // measure 7
0000
0000
0000
0000
,  // measure 8
0000
0000
0000
0000
,  // measure 9
0001
0000
0000
1000
,  // measure 10
0000
0000
0000
0000
,  // measure 11
0010
0000
0000
0100
,  // measure 12
0000
0000
0000
0000
,  // measure 13
0001
0000
0000
1000
,  // measure 14
0000
0000
0000
0000
,  // measure 15
0010
0000
0000
0100
,  // measure 16
0000
0000
0000
0000
,  // measure 17
0001
0000
0000
0001
,  // measure 18
0000
0000
0000
0000
,  // measure 19
1000
0000
0000
1000
,  // measure 20
0000
0000
0000
0000
,  // measure 21
0010
0000
0000
0010
,  // measure 22
0000
0000
0000
0000
,  // measure 23
0100
0000
0000
0100
,  // measure 24
0000
0000
0000
0000
,  // measure 25
0001
0000
0000
0001
,  // measure 26
0000
0000
0000
0000
,  // measure 27
1000
0000
0000
1000
,  // measure 28
0000
0000
0000
0000
,  // measure 29
0010
0000
0000
0010
,  // measure 30
0000
0000
0000
0000
,  // measure 31
0100
0000
0000
0100
,  // measure 32
0000
0000
0000
0000
,  // measure 33
0001
0000
0000
0001
,  // measure 34
0000
0000
0001
0000
,  // measure 35
1000
0000
0000
1000
,  // measure 36
0000
0000
1000
0000
,  // measure 37
0100
0000
0000
0100
,  // measure 38
0000
0000
0100
0000
,  // measure 39
0010
0000
0000
0010
,  // measure 40
0000
0000
0010
0000
,  // measure 41
1000
0000
0000
1000
,  // measure 42
0000
0000
1000
0000
,  // measure 43
0001
0000
0000
0001
,  // measure 44
0000
0000
0001
0000
,  // measure 45
0100
0000
0000
0100
,  // measure 46
0000
0000
0010
0000
,  // measure 47
0010
0000
0000
1000
,  // measure 48
0000
0000
0001
0000
,  // measure 49
2002
0000
0000
0000
,  // measure 50
3003
0000
0000
0000
,  // measure 51
0000
0000
0000
0000
,  // measure 52
0001
0000
0000
0000
,  // measure 53
1000
0000
0000
0000
,  // measure 54
0002
0000
0000
0000
,  // measure 55
0003
0000
0000
0000
,  // measure 56
2000
0000
0000
0000
,  // measure 57
3000
0000
0000
0000
,  // measure 58
0010
0000
0000
1001
,  // measure 59
0000
0010
0000
0100
,  // measure 60
0100
0000
0000
0010
,  // measure 61
0010
0000
0000
0100
,  // measure 62
0100
0000
0100
0000
,  // measure 63
0000
0001
0000
0000
,  // measure 64
1000
0000
0000
0001
,  // measure 65
0001
0000
0000
1000
,  // measure 66
1000
0000
1000
0000
,  // measure 67
0000
0001
0000
0100
,  // measure 68
0100
0000
0000
0010
,  // measure 69
0010
0000
0000
0100
,  // measure 70
0100
0000
0000
0000
,  // measure 71
0000
0001
0000
0000
,  // measure 72
1001
0000
0000
0000
,  // measure 73
0000
1000
0000
0001
,  // measure 74
0001
0000
0000
1000
,  // measure 75
1000
0000
0000
0001
,  // measure 76
0001
0000
0001
0000
,  // measure 77
0000
0100
0000
0000
,  // measure 78
0010
0000
1000
0000
,  // measure 79
0002
0000
0000
0003
,  // measure 80
2000
0000
3000
0000
,  // measure 81
0000
0010
0000
0000
,  // measure 82
0100
0000
0000
0010
,  // measure 83
0010
0000
0000
0100
,  // measure 84
0100
0000
0000
0000
,  // measure 85
0000
1000
0000
0000
,  // measure 86
0002
0000
0000
0003
,  // measure 87
0000
1000
0000
0000
,  // measure 88
0002
0000
0000
0003
,  // measure 89
0000
1000
0000
0000
,  // measure 90
0002
0000
0000
0000
,  // measure 91
0000
0000
0003
0000
,  // measure 92
0000
1001
0000
0000
;
