#TITLE:大桟橋(伊呂波調);
#SUBTITLE:;
#ARTIST:内田兄弟;
#TITLETRANSLIT:Oosanbashi (Iroha chou);
#SUBTITLETRANSLIT:;
#ARTISTTRANSLIT:Uchidakyoudai;
#GENRE:;
#CREDIT:;
#BANNER:Oosanbashi (Iroha Chou).png;
#BACKGROUND:Oosanbashi (Iroha Chou)-bg.png;
#LYRICSPATH:;
#CDTITLE:;
#MUSIC:Oosanbashi (Iroha Chou).ogg;
#OFFSET:0.700000;
#SAMPLESTART:61.495388;
#SAMPLELENGTH:15.384617;
#SELECTABLE:YES;
#BPMS:0.000000=156.000000
;
#STOPS:32.000000=1.154000,
60.500000=0.769000
;
#BGCHANGES:;
#KEYSOUNDS:;
#ATTACKS:;

//---------------dance-single - ----------------
#NOTES:
     dance-single:
     :
     Beginner:
     4:
     0.134583,0.214492,0.000000,0.105744,0.000000,98.000000,98.000000,0.000000,11.000000,0.000000,0.000000,0.134583,0.214492,0.000000,0.105744,0.000000,98.000000,98.000000,0.000000,11.000000,0.000000,0.000000:
0000
0000
0000
0000
,
0000
0000
0000
0000
,
0000
0000
0000
0000
,
0000
0000
0000
0000
,
0000
0000
0000
0000
,
0010
0000
0010
0000
,
0010
0000
0010
0000
,
0020
0000
0000
0000
,
0030
0010
0000
0000
,
1000
0000
0000
0000
,
0000
0001
0000
0000
,
0100
0000
0000
0000
,
0000
0001
0000
0001
,
0000
1000
0000
1000
,
0000
0001
0000
0001
,
0000
0000
0000
1000
,
0000
1000
0000
0001
,
0000
0001
0000
1000
,
0000
0001
0000
1000
,
1000
1000
0000
0010
,
0000
0100
0000
0010
,
0000
0100
0000
0010
,
0010
0010
0010
0010
,
0000
1000
0000
0200
,
0000
0000
0000
0300
,
0000
0100
0000
0020
,
0000
0000
0000
0030
,
0000
0000
0000
0000
,
0000
0001
0000
0001
,
0000
1000
0000
2000
,
0000
0000
0000
3000
,
0000
0010
0000
0020
,
0000
0000
0030
0000
,
0100
0100
0000
0200
,
0000
0000
0000
0300
,
0000
0000
0000
0001
,
0000
0000
1000
1000
,
0000
0001
0000
2000
,
0000
0000
0000
3000
,
0000
0001
0001
0002
,
0000
0000
0000
0003
,
0000
1000
1000
2000
,
0000
0000
0000
3000
,
0000
0000
0010
0010
,
0000
0000
0100
0100
,
0000
0000
0000
0001
,
0000
0001
0000
1000
,
0000
1000
0000
0020
,
0000
0000
0000
0030
,
0000
0100
0000
0010
,
0000
0010
0000
0010
,
0000
0000
0000
1000
,
0000
0001
0000
1000
,
0000
1000
0000
2000
,
0000
0000
3000
0000
,
0001
0000
0001
0001
,
0000
1000
0000
1000
,
0000
0001
0000
0001
,
0000
0100
0000
0100
,
0100
0100
0100
0100
,
0000
0010
0000
0100
,
0000
0010
0000
1000
,
0000
1000
0000
1000
,
1000
1000
1000
1000
;

//---------------dance-single - ----------------
#NOTES:
     dance-single:
     :
     Easy:
     7:
     0.352937,0.499880,0.259553,0.249940,0.000000,257.000000,230.000000,27.000000,26.000000,0.000000,0.000000,0.352937,0.499880,0.259553,0.249940,0.000000,257.000000,230.000000,27.000000,26.000000,0.000000,0.000000:
0000
0000
0000
0000
,
0000
0000
0000
0000
,
0000
0000
0000
0000
,
0000
0000
0000
0000
,
0000
0000
0000
0000
,
0010
0010
0000
0000
0100
0100
0000
0000
,
0001
0001
0000
0000
1000
1000
0000
0000
,
0010
0010
0010
0010
,
0010
1000
0001
1000
,
0001
0001
0000
0000
0001
0000
0100
0000
,
1000
0001
1000
0001
,
1000
1000
0000
0000
1000
0000
0100
0000
,
0001
1000
0100
0010
,
1001
0001
0010
0100
,
1001
0100
0010
1000
,
0001
0001
0000
0000
0000
0000
1000
0000
,
0100
1000
0100
0001
,
0100
0001
0100
1000
,
0100
0001
0100
1000
,
0010
0001
0100
0010
,
1000
0010
0001
0010
,
1000
0100
0001
0010
,
0010
0100
0100
0001
,
1000
0010
0110
2000
,
0001
0000
3001
0020
,
0001
0001
0031
0200
,
0010
0000
0310
0002
,
1000
1000
1003
0020
,
0100
0000
0130
0002
,
0010
0010
0013
2000
,
0100
0000
3100
0020
,
0001
0001
0031
0200
,
0001
0000
0301
2000
,
0010
0010
3010
0200
,
0010
0000
0310
2000
,
0001
0001
3001
0020
,
0001
0000
0031
2000
,
0100
0100
3100
0020
,
0001
0001
0031
2000
,
0001
3001
1001
0010
,
0001
0100
1000
0010
,
1000
0100
0001
0010
,
0100
1000
0001
1000
,
0100
0000
0010
0010
0010
0000
0001
0000
,
0100
1000
1001
1000
,
0100
0001
1001
0001
,
0010
0100
1000
0020
,
0100
0130
0110
2000
,
0100
3010
1010
0002
,
0010
0103
0101
2000
,
3001
0020
0130
2000
,
0100
0100
3100
0002
,
0013
1000
0100
0020
,
0130
0002
0103
1001
,
1001
1001
1001
0000
,
0010
0100
0100
0001
,
0010
1000
1100
0010
,
0001
0100
1100
0010
,
1000
0100
0101
0010
,
0001
0110
1001
0100
,
0110
0001
1001
1000
,
1100
0010
0011
0110
,
1001
0000
0110
0000
1001
0000
0010
0100
,
0010
0000
0100
0000
1001
0000
0010
0020
,
0000
0000
0000
0000
,
0030
0000
0000
0000
;

//---------------dance-single - ----------------
#NOTES:
     dance-single:
     :
     Medium:
     10:
     0.508120,0.562365,0.096131,0.259553,0.043259,370.000000,360.000000,10.000000,27.000000,0.000000,0.000000,0.508120,0.562365,0.096131,0.259553,0.043259,370.000000,360.000000,10.000000,27.000000,0.000000,0.000000:
0000
0000
0000
0000
,
0000
0000
0000
0000
,
0000
0000
0000
0000
,
0000
0000
0000
0000
,
0000
0000
0000
0000
,
1000
1000
0001
0000
0100
0100
0001
0000
,
0010
0010
0001
0000
0100
0100
0001
0000
,
1000
0001
1000
0001
1000
0001
1000
0001
,
1000
0000
0010
0000
0001
0000
1000
0100
,
0010
0001
0000
0010
0100
0000
1000
0001
,
0010
0000
0100
0000
1000
0000
0001
0010
,
0100
1000
0000
0010
0100
0000
0001
1000
,
0100
0000
1000
0100
1000
0000
0001
0010
,
0001
0000
1000
0100
0010
0000
0100
0010
,
0001
0000
1000
0001
1000
0001
0100
0010
,
0100
0100
1100
0000
0011
0000
1000
0001
,
2000
0000
3010
0100
0020
0000
1030
0100
,
0020
0000
0130
0010
0002
0000
0103
0001
,
2000
0000
3010
1000
0002
0000
1003
0100
,
1000
0100
0010
0001
0010
0001
0100
0010
,
2000
0000
3001
0100
0020
0000
1030
0100
,
0020
0000
0031
0010
0200
0000
0301
0010
,
0001
0010
0100
1000
0100
1000
0001
0010
,
0100
1000
0002
0000
2003
0000
3020
0000
,
0100
0000
0000
1000
1030
0000
0100
0100
,
0010
0100
0000
1000
0001
0000
0020
0000
,
1000
0000
0000
0100
0130
0000
0001
0001
,
1000
0001
0000
0100
0010
0000
2000
0000
,
0100
0000
0000
0010
3010
0000
0001
0001
,
1000
0001
0000
0100
0010
0000
2000
0000
,
0100
0000
0000
0001
3001
0000
0010
0010
,
1000
0010
0000
0100
0001
0000
2000
0000
,
0001
0000
0000
0100
3100
0000
0001
0001
,
1000
0100
0000
0010
0001
0000
0200
0000
,
0010
0000
0000
0001
0301
0000
0001
0010
,
0001
0100
0000
0010
1000
0000
0200
0000
,
0010
0000
0000
0010
0310
0000
0002
0000
,
0103
0000
2000
0000
3100
0010
0002
0000
,
0010
0000
0100
0000
1003
0000
0010
0100
,
0010
0100
0001
1000
0001
0000
0000
1000
,
1000
1000
0001
0001
0001
0000
0010
0010
,
1000
0010
0010
1000
1000
0000
0000
0001
,
0001
0001
1000
1000
1000
0000
0100
0100
,
0001
0100
0100
0001
0001
0000
1000
0010
,
0010
0010
1000
0001
0001
0000
1000
0100
,
0100
0100
1000
0001
0001
0000
0010
0001
,
0001
0001
1000
0001
0001
0000
1000
0100
,
0010
0100
1000
0001
1000
0000
0010
0001
,
0000
0100
0000
0000
1000
0000
0000
0100
0000
0000
0001
0000
1000
0000
0100
0000
,
0000
0001
0000
0000
0010
0000
0000
1000
0000
0000
0100
0000
1000
0000
0010
0000
,
0000
0001
0000
0000
0100
0000
0000
0001
0000
0000
1000
0000
0100
0000
0001
0000
,
0000
0010
0000
0000
1000
0000
0000
0100
0000
0000
0010
0000
0001
0000
0100
0000
,
0010
1000
0100
0100
1000
1000
0001
0010
,
1000
0100
1000
1000
0001
0001
0100
0100
,
0010
0010
1000
0001
0100
0110
0000
0001
,
0001
0001
0001
0001
1001
0000
1000
0001
,
0200
0000
0301
1000
0020
0000
1030
0001
,
2000
0000
3010
0100
0020
0000
1030
0100
,
1100
0000
0001
0100
0101
0000
0010
0010
,
0010
0010
0100
0100
0100
0000
0001
0100
,
0101
0000
1000
0100
1100
0000
0010
0100
,
1100
0000
0010
0100
0101
0000
1000
1000
,
0001
0001
0100
0100
0010
0010
1000
0100
,
0010
0000
0001
0000
0100
0000
0100
0000
0100
0000
0000
0000
1000
0001
2000
0000
,
0000
0000
0000
0000
,
3000
0000
0000
0000
;

//---------------dance-single - ----------------
#NOTES:
     dance-single:
     :
     Hard:
     15:
     0.788272,0.874790,0.124970,0.076905,0.769046,574.000000,561.000000,13.000000,8.000000,0.000000,0.000000,0.788272,0.874790,0.124970,0.076905,0.769046,574.000000,561.000000,13.000000,8.000000,0.000000,0.000000:
0000
0000
0000
0000
,
0000
0000
0000
0000
,
0000
0000
0000
0000
,
0000
0000
0000
0000
,
0000
0000
0000
0000
,
0010
0010
1001
0000
0100
0100
1001
0000
,
0010
0010
1001
0000
0100
0100
1001
0000
,
0010
0010
0010
0010
0010
0010
0010
0010
,
0010
0000
0000
0000
0001
0000
0100
0000
0010
1000
0010
0000
0100
0001
0100
0000
,
0010
0000
0110
0000
0000
0000
1000
0000
0100
0010
0100
0000
0001
1000
0001
0000
,
1001
0000
0000
0000
0010
0000
0001
0000
1000
0100
1000
0000
0001
0010
0001
0000
,
0100
0000
0110
0000
0000
0000
0001
0000
1000
0100
1000
0000
0001
0010
0100
0000
,
0100
0000
0000
0000
1000
0000
0100
0000
1000
0100
1000
0000
0001
0100
0001
0000
,
1000
0000
0100
0000
0010
0000
0001
0000
0100
0000
0010
0000
1000
0010
1000
0000
,
0001
0000
0000
0000
1000
0000
0100
0000
0010
0000
0100
0000
1000
0001
1000
0001
,
1000
0001
1000
0000
0011
0000
0000
0000
1100
0000
0000
0000
0010
0000
0001
0000
,
1000
0010
0000
0001
1000
0000
0001
0010
0000
0100
1000
0000
0010
0000
0100
0000
,
0001
1000
0000
0001
0010
0000
0100
1000
0000
0100
0010
0000
1000
0000
0001
0000
,
1000
0100
0000
0010
0001
0000
0100
0001
0000
1000
0010
0000
0100
0000
0001
1000
,
0001
0000
0100
1000
0100
0000
0010
0001
0010
0000
1000
0000
0001
0000
0100
0000
,
0010
1000
0000
1000
0010
0000
0100
0001
0000
0001
0100
0000
0010
0000
0100
0000
,
0001
1000
0000
1000
0010
0000
1000
0001
0000
0001
0010
0000
0001
0000
0001
0000
,
1000
0000
1000
0000
0010
0100
0010
0100
0010
0100
0010
0000
0001
0000
0001
0000
,
1000
0000
1000
0000
0001
0100
0001
0000
1000
0000
0000
0000
0002
0000
0000
0000
,
1000
0000
1000
0000
0000
0000
0100
0000
0100
0000
0103
0000
0000
0000
0100
0010
,
0100
0100
0100
0100
1001
0000
0020
0000
,
1000
0000
1000
0000
0000
0000
0100
0000
0100
0000
0130
0000
0000
0000
1000
0001
,
1000
1000
1000
1000
1001
0000
0020
0000
,
0001
0000
0001
0000
0000
0000
0100
0000
0100
0000
0130
0000
0000
0000
1000
0010
,
1000
0000
0100
0001
0100
0000
1000
0100
1000
0000
0000
0000
2000
0000
0000
0000
,
0010
0000
0010
0000
0000
0000
0001
0000
0001
0000
3001
0000
0000
0000
0100
0010
,
0100
0000
0001
0010
0100
0000
1000
0100
0010
0000
0000
0000
0002
0000
0000
0000
,
0100
0000
0100
0000
0000
0000
1000
0000
1000
0000
1003
0000
0000
0000
0010
1000
,
0010
0100
0100
0100
0110
0000
2000
0000
,
0001
0000
0001
0000
0000
0000
0100
0000
0100
0000
3100
0000
0000
0000
0010
1000
,
0010
0100
0100
0100
0101
0000
2000
0000
,
0001
0000
0001
0000
0000
0000
0010
0000
0010
0000
3010
0000
0000
0000
1000
0010
,
1000
0000
0001
0100
0010
0000
1000
0010
0100
0000
0001
0000
1000
0000
0010
0100
,
0010
0000
0000
0000
0000
0000
1000
0000
0000
0010
0000
0000
1000
0000
0000
0000
0000
0000
0001
0000
0000
0100
0000
0000
0001
0000
0000
0100
0000
0000
0001
0000
0000
0100
0000
0000
0001
0000
0000
0000
0000
0000
1000
0000
0010
0000
1000
0000
,
0010
0000
0000
0000
0000
0000
0100
0000
0001
0000
0100
0000
0001
0000
0000
0000
0000
0000
1000
0000
0001
0000
1000
0000
0001
0000
0000
0000
0000
0000
0100
0000
0000
0000
0000
0000
0010
0000
0000
0000
0000
0000
1000
0000
0000
0100
0000
0000
,
1000
0000
0001
0100
0001
0000
1000
0010
1000
0000
0001
0000
0100
0010
0100
0010
,
0100
0000
0001
0010
0001
0010
0001
0010
0001
0000
0100
0000
0010
0000
1000
0100
,
1000
0000
0001
0100
0001
0000
1000
0010
1000
0000
0001
0000
0100
0010
0100
0010
,
0100
0000
0001
0010
0001
0010
0001
0010
0100
0000
1000
0000
0010
0000
1000
0001
,
1000
0000
0001
0100
0001
0000
0010
0001
0100
0000
0010
0000
1000
0000
1000
0100
,
0010
0000
0001
0010
0100
0000
1000
0100
0010
0000
0001
0000
1000
0000
0010
0100
,
0010
0000
1000
0010
1000
0000
0001
0100
0010
0000
0100
0000
0001
0000
0001
0010
,
0001
0010
0100
1000
0100
1000
0100
0010
0001
0000
1000
0000
0010
0000
1000
0000
,
0001
0010
0000
0100
1000
0000
0100
0010
0000
0010
0100
0000
0001
0000
0100
0000
,
0010
1000
0000
1000
0010
0000
0100
0001
0000
0001
0100
0000
0010
0000
1000
0000
,
0001
0100
0000
0100
0001
0000
1000
0010
0000
0010
1000
0000
0001
0000
1000
0010
,
1000
0010
0100
0001
0100
0001
0100
0010
0100
0000
0000
0000
0001
0010
0001
0000
,
1000
0000
0100
0000
1000
0010
1000
0000
0001
0000
0100
0000
0010
0100
0010
0000
,
1000
0000
0100
0000
0001
0010
0001
0000
0100
0000
0010
0000
1000
0000
0001
0000
,
1000
0000
0001
0000
1000
0001
1000
0001
1000
0001
1000
0000
0000
0000
0001
0000
,
0100
0000
0100
0000
1000
0000
0010
0000
0001
0000
0000
0000
0001
0010
0001
0000
,
1000
0100
0000
0010
0001
0000
0100
0010
0000
0010
0100
0000
0001
1000
0001
0000
,
0010
0100
0000
0100
0010
0000
1000
0100
0000
0100
0010
0000
0001
1000
0001
0000
,
0001
0010
0000
0100
1000
0000
0010
0100
0000
0100
0010
0000
1000
0100
0010
0000
,
0100
0001
0000
0001
0100
0000
0010
1000
0000
1000
0010
0000
1000
0100
1000
0000
,
0001
0010
0000
0100
0001
0000
1000
0010
0000
0100
0010
0000
1000
0100
0010
0000
,
1000
0100
0000
0001
0010
0000
1000
0010
0000
0100
0001
0000
1000
0010
1000
0000
,
0100
0000
0100
0000
0001
0010
0001
0000
0100
0000
0100
0000
1000
0100
1000
0100
,
0010
0001
0010
0001
1000
0100
0010
0100
0010
0001
1000
0100
0010
0100
0020
0000
,
0000
0000
0000
0000
,
0030
0000
0000
0000
;

//---------------dance-double - ----------------
#NOTES:
     dance-double:
     :
     Hard:
     15:
     0.737460,0.812305,0.211488,0.019226,0.538332,537.000000,515.000000,22.000000,2.000000,0.000000,0.000000,0.737460,0.812305,0.211488,0.019226,0.538332,537.000000,515.000000,22.000000,2.000000,0.000000,0.000000:
00000000
00000000
00000000
00000000
,
00000000
00000000
00000000
00000000
,
00000000
00000000
00000000
00000000
,
00000000
00000000
00000000
00000000
,
00000000
00000000
00000000
00000000
,
10000000
10000000
00000000
00000000
00010000
00010000
00000000
00000000
,
00001000
00001000
00000000
00000000
00000001
00000001
00000000
00000000
,
00000100
00000100
00000100
00000100
00000100
00000100
00000100
00000100
,
00000100
00000000
00100000
00010000
10000000
01000000
00010000
00001000
,
00000100
00000001
00000000
00000010
00001000
00000100
00010000
00010000
,
00010000
00000000
00000010
00000100
00000001
00000100
00001000
00010000
,
01000000
10000000
00000000
00100000
01000000
00001000
00010000
00010000
,
00010000
00000000
00000000
00000000
00001000
00000000
00010000
00000000
00100000
00010000
00100000
00000000
10000000
01000000
00100000
00000000
,
00001000
00000000
00010000
00000000
00000010
00000000
00001000
00000000
00000001
00000010
00000100
00000000
00001000
00000100
00001000
00000000
,
00000100
00000000
00010000
00000000
00001000
00000000
00100000
00000000
00010000
00000000
10000000
00000000
00100000
01000000
00100000
01000000
,
00100000
01000000
00100000
00000000
00011000
00000000
00000000
00000000
00001001
00000000
00000000
00000000
00000010
00000000
00000001
00000000
,
00000100
00000001
00000000
00000100
00000001
00000000
00001000
00000100
00000000
00001000
00000100
00000000
00010000
00000000
00001000
00000000
,
00100000
00010000
00000000
00100000
00010000
00000000
10000000
01000000
00000000
10000000
01000000
00000000
00100000
00000000
00001000
00000000
,
00010000
00000010
00000000
00010000
00000010
00000000
00001000
00000100
00000000
00001000
00000100
00000000
00000010
00000000
00000001
00000010
,
00000100
00000000
00000010
00000100
00001000
00000000
00000100
00001000
00000100
00000000
00010000
00000000
00001000
00000000
00010000
00000000
,
00001000
00010000
00001000
00010000
00001000
00000000
00100000
00000000
00010000
01000000
00010000
01000000
00100000
00000000
10000000
00000000
,
01000000
00100000
01000000
00100000
00010000
00000000
00001000
00000000
00010000
00000100
00010000
00000100
00001000
00000000
00000010
00000000
,
00000001
00000010
00001000
00000100
00010000
00001000
01000000
00010000
,
01000000
00000000
10000000
00000000
01000000
00100000
01000000
00000000
00200000
00000000
00000000
00000000
10300000
00000000
00000000
00000000
,
00010000
00000000
00000000
00000000
00000000
00000000
10000000
00000000
10000000
00000000
10000000
00000000
00000000
00000000
00010000
01000000
,
00010000
00010000
00010000
00010000
01010000
00000000
00011000
00000000
,
00001100
00000000
00000000
00000000
00000000
00000000
00000010
00000000
00000010
00000000
00000010
00000000
00000000
00000000
00000001
00000100
,
00000001
00000001
00000001
00000001
00001001
00000000
00001100
00000000
,
00011000
00000000
00000000
00000000
00000000
00000000
00001000
00000000
00001000
00000000
00001000
00000000
00000000
00000000
00100000
00010000
,
00100000
00000000
01000000
00100000
01000000
00000000
10000000
01000000
10000000
00000000
00100000
00000000
01000000
00000000
00000000
00000000
,
00110000
00000000
00000000
00000000
00000000
00000000
00001000
00000000
00001000
00000000
00001000
00000000
00000000
00000000
00010000
00000100
,
00010000
00000000
00000100
00001000
00000100
00000000
00001000
00000010
00001000
00000000
00000001
00000000
00001001
00000000
00000000
00000000
,
00001100
00000000
00000000
00000000
00000000
00000000
00010000
00000000
00001000
00000000
01000000
00000000
00000000
00000000
00100000
01000000
,
00100000
00100000
00100000
00100000
10010000
00000000
00100000
00000000
,
00011000
00000000
00000000
00000000
00000000
00000000
00010000
00000000
00010000
00000000
00010000
00000000
00000000
00000000
00000100
00001000
,
00000100
00000100
00000100
00000100
00001100
00000000
00011000
00000000
,
01010000
00000000
00000000
00000000
00000000
00000000
00010000
00000000
01000000
00000000
10000000
00000000
00000000
00000000
00100000
01000000
,
00100000
00000000
10000000
01000000
10000000
00000000
00100000
00010000
00100000
00000000
00001000
00000000
00010000
00000000
00000100
00000000
,
00000100
00000000
00000000
00000000
00000000
00000000
00000100
00000000
00000000
00000000
00000000
00000000
00001000
00000000
00000000
00000100
00000000
00000000
00001000
00000000
00000000
00000100
00000000
00000000
00000010
00000000
00000000
00000000
00000000
00000000
00000001
00000000
00000000
00000000
00000000
00000000
00001000
00000000
00000000
00000000
00000000
00000000
00000100
00000000
00001000
00000000
00000100
00000000
,
00001000
00000000
00000000
00000000
00000000
00000000
00000001
00000000
00000010
00000000
00000001
00000000
00000010
00000000
00000000
00000000
00000000
00000000
00000100
00000000
00000001
00000000
00000100
00000000
00000001
00000000
00000000
00000000
00000000
00000000
00000000
00000000
00000000
00000000
00000000
00000000
00000100
00000000
00000000
00000000
00000000
00000000
00000010
00000000
00000000
00001000
00000000
00000000
,
00000010
00000010
00000010
00000010
00001010
00000000
00000001
00000100
,
00001000
00000000
00010000
00000000
00100000
00000000
10000000
00000000
01100000
00000000
00000000
00000000
10000000
00000000
00100000
01000000
,
00100000
00100000
00100000
00100000
01100000
00000000
10000000
01000000
,
00010000
00000000
00001000
00000000
00000010
00000000
00000001
00000000
00000100
00000000
00000000
00000000
00000001
00000000
00001000
00000100
,
00001000
00000000
00001000
00000000
00010000
00000000
00010000
00000000
00011000
00000000
00001000
00000000
00001000
00000000
01000000
00010000
,
01000000
00000000
01000000
00000000
00001000
00000000
00001000
00000000
00011000
00000000
00010000
00000000
00010000
00000000
00000010
00001000
,
00000010
00000000
00000010
00000000
00000010
00000000
00000010
00000000
00000110
00000000
00000100
00000000
00000001
00000000
00001000
00000100
,
00010000
00000000
00001000
00100000
00010000
00000000
01000000
00100000
10000000
00000000
00010000
00000000
10000000
00000000
01000000
00000000
,
00100000
00010000
00000000
00010000
00100000
00000000
00001000
00010000
00000000
00010000
00000100
00000000
00001000
00000000
00000001
00000000
,
00000010
00001000
00000000
00001000
00000100
00000000
00000100
00010000
00000000
00010000
00001000
00000000
01000000
00000000
00100000
00000000
,
10000000
00100000
00000000
00100000
01000000
00000000
00010000
00100000
00000000
00100000
00001000
00000000
00010000
00000000
00000010
00001000
,
00000010
00000000
00000100
00000001
00000100
00000001
00000100
00000001
00000100
00000000
00000010
00000000
00001000
00000100
00001000
00000000
,
00000100
00000000
00000100
00000000
00010000
00001000
00010000
00000000
00001000
00000000
00001000
00000000
00100000
00010000
00100000
00000000
,
00010000
00000000
00010000
00000000
10000000
01000000
10000000
00000000
00100000
00000000
00100000
00000000
01000000
00000000
00001000
00000000
,
00010000
00000000
00001000
00010000
00001000
00010000
00001000
00010000
00001000
00010000
00001000
00000000
00000000
00000000
00100000
00000000
,
00010000
01000000
10000000
01000000
00010000
00000000
10000000
00010000
,
00100000
00001000
00100000
00000000
00001000
00000000
00010000
00000000
00000010
00001000
00000010
00000000
00000100
00000000
00000001
00000000
,
00001000
00000100
00001000
00000000
00000100
00000000
00010000
00000000
00001000
00100000
00001000
00000000
01000000
00000000
00010000
00000000
,
10000000
01000000
00000000
00100000
00010000
00000000
01000000
00010000
00000000
00100000
00001000
00000000
00010000
00000000
00000010
00000000
,
00001000
00000100
00000010
00000000
00000100
00000010
00000100
00000010
00000100
00000010
00000100
00000000
00000001
00000000
00000100
00000000
,
00000010
00001000
00000010
00001000
00000010
00000000
00010000
00000000
00001000
00100000
00001000
00100000
00001000
00000000
01000000
00000000
,
00010000
10000000
00010000
10000000
00100000
00000000
01000000
00000000
00010000
00100000
00010000
00000000
10000000
00000000
01000000
00000000
,
00010000
00000000
00001000
00000000
00000010
00000000
00000001
00000000
00000100
00000000
00000010
00000000
00001000
00000100
00001000
00000100
,
00000010
00000001
00000010
00000001
00001000
00000100
00000010
00000001
00001000
00000100
00000010
00000100
00001000
00000001
00002000
00000000
,
00000000
00000000
00000000
00000000
,
00003000
00000000
00000000
00000000
;

//---------------dance-double - ----------------
#NOTES:
     dance-double:
     :
     Medium:
     10:
     0.493013,0.531122,0.009613,0.115357,0.038452,359.000000,358.000000,1.000000,12.000000,0.000000,0.000000,0.493013,0.531122,0.009613,0.115357,0.038452,359.000000,358.000000,1.000000,12.000000,0.000000,0.000000:
00000000
00000000
00000000
00000000
,
00000000
00000000
00000000
00000000
,
00000000
00000000
00000000
00000000
,
00000000
00000000
00000000
00000000
,
00000000
00000000
00000000
00000000
,
00000001
00000001
00000000
00000000
00000100
00000100
00000000
00000000
,
00010000
00010000
00000000
00000000
01000000
01000000
00000000
00000000
,
10000000
00010000
10000000
00010000
10000000
00010000
10000000
00010000
,
10000000
00000000
00001000
00000100
00000010
00000001
00000100
00000100
,
00000100
00000100
00000000
00000010
00001000
00000100
00010000
00010000
,
00010000
00000000
00100000
00010000
01000000
00100000
10000000
10000000
,
10000000
10000000
00000000
00010000
00100000
00001000
00010000
00010000
,
00010000
00000000
00001000
00000100
00000010
00000000
00000001
00000010
,
00000100
00000000
00010000
00001000
00010000
00001000
00010000
00001000
,
00010000
00000000
00100000
00010000
01000000
00010000
10000000
00010000
,
01000000
00010000
00000000
00000000
00000000
00000000
10000000
01000000
,
00100000
00000000
01000000
00100000
00010000
00000000
00001000
00010000
,
00000010
00000000
00001000
00000100
00000010
00000000
00000001
00000010
,
00000100
00000000
00000010
00000100
00001000
00000000
00010000
00001000
,
01000000
00000000
00100000
01000000
10000000
00000000
00100000
01000000
,
00100000
01000000
00100000
10000000
01000000
00000000
00010000
00100000
,
00010000
00100000
00001000
00010000
00000100
00000000
00001000
00000100
,
00000010
00000001
00001000
00000100
00000010
00000001
00000200
00000000
,
00000320
00020030
00032000
00203000
,
00010000
00000000
00000000
00010000
00310000
00000000
01000000
01000000
,
00100000
01000000
00000000
01000000
00100000
00000000
20000000
00000000
,
01000000
00000000
00000000
01000000
31000000
00000000
00100000
00100000
,
00010000
00100000
00000000
00100000
00001000
00000000
00020000
00000000
,
00000010
00000000
00000000
00000100
00030100
00000000
00001000
00001000
,
00000100
00001000
00000000
00000001
00001000
00000000
00000020
00000000
,
00001000
00000000
00000000
00000100
00000130
00000000
00001000
00001000
,
00000100
00010000
00000000
00010000
00001000
00000000
00200000
00000000
,
00010000
00000000
00000000
01000000
01300000
00000000
10000000
10000000
,
00010000
00100000
00000000
00100000
00001000
00000000
00020000
00000000
,
00000010
00000000
00000000
00000100
00030100
00000000
00001000
00001000
,
00000001
00000010
00000000
00000100
00001000
00000000
00000200
00000000
,
00010000
00000000
00000000
00001000
00001300
00000000
00010000
00001000
,
00100000
00010000
00000000
01000000
00100000
00000000
10000000
00010000
,
00010000
00100000
00100000
01000000
01000000
10000000
10000000
00000000
,
00010000
00000000
00100000
00001000
00010000
00000000
00000100
00001000
,
00000010
00001000
00000001
00000001
00000001
00000000
00001000
00000100
,
00010000
00001000
00010000
00010000
00010000
00000000
00001000
01000000
,
00100000
01000000
00010000
00010000
00010000
00000000
10000000
00100000
,
10000000
00010000
00100000
00100000
00100000
00000000
00001000
00010000
,
00000010
00001000
00000100
00000100
00000100
00000000
00000010
00000001
,
00000100
00000010
00001000
00001000
00001000
00000000
00000100
00010000
,
00001000
00010000
00000010
00000010
00000010
00000000
00001000
00000100
,
00000010
00000001
00000010
00000100
00001000
00000000
00000010
00000001
,
00000000
00000100
00000000
00000000
00001000
00000000
00000000
00010000
00000000
00000000
01000000
00000000
00000000
00000000
10000000
00000000
,
00000000
01000000
00000000
00000000
00010000
00000000
00000000
00001000
00000000
00000000
00000100
00000000
00000000
00000000
00000001
00000000
,
00000000
00000010
00000000
00000000
00001000
00000000
00000000
00010000
00000000
00000000
01000000
00000000
00000000
00000000
10000000
00000000
,
00000000
00100000
00000000
00000000
00010000
00000000
00000000
00001000
00000000
00000000
00000010
00000000
00000100
00000000
00000100
00000000
,
00000100
00000000
00000001
00000010
00000100
00000000
00001000
00001000
,
00001000
00000000
00000100
00010000
00001000
00000000
00100000
00100000
,
00010000
00010000
01000000
01000000
00100000
00100000
00000000
10000000
,
01000000
00100000
00010000
01000000
01100000
00000000
10000000
01000000
,
00100000
00000000
00010000
00100000
01000000
00000000
00001000
00010000
,
00100000
00000000
00001000
00010000
00000010
00000000
00001000
00000100
,
00000010
00000000
00000001
00000010
00000100
00000000
00001000
00010000
,
00001000
00000000
00100000
00010000
01000000
00000000
00100000
10000000
,
01000000
00100000
00010000
01000000
01000000
00000000
00001000
00010000
,
00000100
00001000
00000010
00000010
00000010
00000000
00000001
00000010
,
00000100
00001000
00000010
00000100
00001000
00000100
00010000
00010000
,
00001000
00001000
00100000
00010000
01000000
10000000
00100000
00200000
,
00000000
00000000
00000000
00000000
,
00300000
00000000
00000000
00000000
;

//---------------dance-double - ----------------
#NOTES:
     dance-double:
     :
     Easy:
     7:
     0.308992,0.435713,0.163422,0.259553,0.000000,225.000000,208.000000,17.000000,27.000000,0.000000,0.000000,0.308992,0.435713,0.163422,0.259553,0.000000,225.000000,208.000000,17.000000,27.000000,0.000000,0.000000:
// measure 0
00000000
00000000
00000000
00000000
,  // measure 1
00000000
00000000
00000000
00000000
,  // measure 2
00000000
00000000
00000000
00000000
,  // measure 3
00000000
00000000
00000000
00000000
,  // measure 4
00000000
00000000
00000000
00000000
,  // measure 5
00010000
00000000
00010000
00000000
,  // measure 6
00001000
00000000
00001000
00000000
,  // measure 7
00010000
00001000
00010000
00001000
,  // measure 8
00000000
00000000
10000000
01000000
,  // measure 9
00010000
00000000
00001000
00000100
,  // measure 10
00000001
00000000
00000001
00000100
,  // measure 11
00001000
00000000
00010000
01000000
,  // measure 12
10000000
00100000
00100000
00010000
,  // measure 13
10010000
00100000
00100000
10000000
,  // measure 14
10010000
10000000
01000000
00100000
,  // measure 15
00010000
00000000
00000000
00001000
,  // measure 16
00010000
00001000
00100000
00010000
,  // measure 17
01000000
10000000
00100000
00001000
,  // measure 18
00001000
00010000
00000100
00001000
,  // measure 19
00000010
00000001
00000100
00010000
,  // measure 20
00010000
00001000
00100000
00010000
,  // measure 21
01000000
10000000
00100000
00001000
,  // measure 22
00001000
00010000
00010000
00022000
,  // measure 23
00033000
00010000
00000100
00002000
,  // measure 24
00000010
00000000
00003010
00000002
,  // measure 25
00000100
00000100
00000103
00002000
,  // measure 26
00000100
00000000
00003100
00020000
,  // measure 27
00001000
00001000
00031000
00002000
,  // measure 28
00100000
00000000
01003000
00020000
,  // measure 29
10000000
10000000
10030000
02000000
,  // measure 30
00001000
00000000
03001000
00020000
,  // measure 31
00000100
00000100
00030100
00002000
,  // measure 32
00000001
00000000
00003010
00000200
,  // measure 33
00000010
00000010
00000310
00020000
,  // measure 34
00000100
00000000
00030100
00002000
,  // measure 35
01000000
01000000
01003000
00020000
,  // measure 36
10000000
00000000
01000000
02000000
,  // measure 37
03030000
22000000
33000000
00200000
,  // measure 38
00001000
00001000
00001000
00002000
,  // measure 39
00303000
00100000
00001000
00010000
,  // measure 40
00010000
00001000
00100000
00010000
,  // measure 41
01000000
10000000
00100000
00001000
,  // measure 42
00001000
00010000
00000100
00001000
,  // measure 43
00000010
00000001
00000100
00000020
,  // measure 44
00000030
00001000
00010000
00200000
,  // measure 45
00300000
00010000
00001000
00000010
,  // measure 46
00001000
00000100
00000001
00000010
,  // measure 47
00001000
00001100
00000011
00000100
,  // measure 48
00001000
00011000
00011000
00100000
,  // measure 49
00010000
00011000
00011000
00000200
,  // measure 50
00000300
00020000
00030000
00002000
,  // measure 51
00003000
02000000
03000000
00010000
,  // measure 52
00100000
01000000
10010000
01000000
,  // measure 53
00100000
00001000
00010000
00011000
,  // measure 54
00011000
00011000
00011000
00000000
,  // measure 55
00010000
00010000
00011000
00010000
,  // measure 56
00000100
00001000
00000010
00000001
,  // measure 57
00000100
00001000
00010000
00100000
,  // measure 58
10000000
01000000
00010000
00001000
,  // measure 59
00000100
00000010
00001001
00000010
,  // measure 60
00000010
00000100
00010000
00100000
,  // measure 61
00100000
00001000
00010000
00000100
,  // measure 62
00001000
00010000
00100000
00001000
,  // measure 63
00001000
00000000
00010000
00000000
00010000
00000000
00001000
00002000
,  // measure 64
00000000
00000000
00000000
00003000
;
