#TITLE:西馬込交通曲;
#SUBTITLE:;
#ARTIST:サイモンマン;
#TITLETRANSLIT:Nishimagome koutsuu kyoku;
#SUBTITLETRANSLIT:;
#ARTISTTRANSLIT:Simonman;
#GENRE:;
#CREDIT:;
#BANNER:Nishimagome koutsuu kyoku.png;
#BACKGROUND:Nishimagome koutsuu kyoku-bg.png;
#LYRICSPATH:;
#CDTITLE:;
#MUSIC:Nishimagome koutsuu kyoku.ogg;
#OFFSET:0.969000;
#SAMPLESTART:93.632385;
#SAMPLELENGTH:12.631577;
#SELECTABLE:YES;
#BPMS:0.000000=190.000000
,145.000000=191.000000
,145.500000=190.000000
,166.000000=185.000000
,169.000000=180.000000
,171.000000=175.000000
,174.000000=170.000000
,175.000000=165.000000
,175.500000=157.000000
,176.000000=160.000000
,177.000000=155.000000
,178.000000=150.000000
,179.000000=145.000000
,180.000000=140.000000
,181.000000=130.000000
,181.500000=124.000000
,182.000000=120.000000
,183.000000=110.000000
,184.000000=100.000000
,185.000000=90.000000
,186.000000=80.000000
,188.000000=85.000000
,190.000000=90.000000
,191.000000=91.000000
,192.000000=95.000000
,194.000000=100.000000
,195.000000=105.000000
,196.000000=110.000000
,197.000000=115.000000
,198.000000=120.000000
,199.000000=124.999992
,200.000000=130.000000
,201.000000=135.000000
,202.000000=120.000000
,202.500000=140.000000
,203.500000=145.000000
,204.000000=121.000000
,205.000000=150.000000
,206.000000=155.000000
,207.000000=160.000000
,207.333328=119.000000
,207.666672=165.000000
,208.000000=170.000000
,209.000000=175.000000
,210.000000=180.000000
,211.000000=185.000000
,212.000000=190.000000
,213.000000=195.000000
,214.000000=200.000000
,215.000000=205.000000
,216.000000=210.000000
,217.000000=215.000000
,218.000000=220.000000
,219.000000=225.000000
,220.000000=230.000000
,221.000000=234.000000
,222.000000=240.000000
,223.000000=245.000015
,224.000000=249.999985
,225.000000=256.000000
,226.000000=260.000000
,227.000000=265.000000
,228.000000=270.000000
,229.000000=274.000000
,230.000000=280.000000
,231.000000=285.000000
,232.000000=290.000000
,233.000000=295.000000
,234.000000=300.000000
,243.666672=380.000000
,249.000000=190.000000
,249.500000=202.000000
,250.000000=189.000000
,250.500000=222.000000
,251.000000=190.000000
;
#STOPS:
;
#BGCHANGES:;
#KEYSOUNDS:;
#ATTACKS:;

//---------------dance-single - ----------------
#NOTES:
     dance-single:
     :
     Hard:
     17:
     0.924472,1.173382,0.374440,0.293040,0.875051,795.000000,749.000000,46.000000,36.000000,0.000000,0.000000,0.924472,1.173382,0.374440,0.293040,0.875051,795.000000,749.000000,46.000000,36.000000,0.000000,0.000000:
0000
0000
0000
0000
,
0000
0000
0000
0000
,
0000
0000
0000
0000
,
0000
0000
0000
0000
,
0000
0000
0000
0000
,
0000
0000
0000
0000
0002
0000
1003
0020
,
0000
1000
0100
0100
,
0130
0001
2000
0000
0010
0000
0010
0000
,
3002
0000
1003
0020
0100
0000
0100
0000
,
0130
0001
2000
0000
0010
0000
0010
0000
,
3001
1000
0010
0000
0200
0000
0310
2000
,
0000
3001
2000
0000
0010
0000
0010
0000
,
3010
0100
0002
0000
1000
0000
1000
0000
,
2003
0000
3010
0100
0002
0000
0010
0000
,
0010
0203
0010
0310
,
1000
0000
0001
0000
0100
0000
0010
0000
1000
0000
0010
1000
0000
0000
0001
0100
,
0010
0000
1000
0100
0001
0000
1000
0000
,
0011
0000
0000
0000
1001
0000
0000
0000
1000
0000
0001
0010
0001
0000
1000
0010
,
1000
0000
0001
0000
1000
0000
0100
0000
0010
0000
0001
0100
0010
0000
0100
0010
,
1000
0000
0001
0000
0010
0000
0100
0000
1000
0000
0001
0010
0001
0000
1000
0100
,
1000
0000
0001
0000
0100
0000
0010
0000
1000
0000
0001
0010
0001
0000
1000
0100
,
0010
0000
0100
0000
0010
0000
0001
0000
1000
0000
0010
0100
0001
0000
1000
0010
,
1000
0000
0000
0000
0002
0000
0103
0001
0100
0000
0010
1000
0010
0000
1000
0000
,
0100
0000
0010
0000
0001
0000
0100
0010
0100
0000
0001
1000
0001
0000
0010
0000
,
0100
0000
1000
0000
0001
0000
1000
0100
1000
0000
0001
0100
0001
0000
1000
0000
,
0010
0000
0100
0000
0001
0000
0010
0001
0100
0000
0010
1000
0100
0000
0010
0000
,
0001
0000
0010
0000
0100
0000
1000
0010
0100
0000
0001
0100
0010
0000
1000
0000
,
0002
0000
0103
0001
1000
0000
0001
1000
0100
0000
1000
0000
0010
0000
0100
0000
,
0001
0000
0010
0001
1000
0000
0001
1000
0010
0000
1000
0000
0100
0000
0010
0000
,
0001
0000
1000
0100
0010
0000
0100
1000
0001
0000
1000
0000
0001
0010
0100
0010
,
0001
0000
1000
0010
0100
0000
0010
0100
0001
0000
1000
0000
0010
0100
0010
1000
,
0010
0000
0100
0001
1000
0000
0001
1000
0010
0000
0000
0000
1010
0000
0010
0100
,
0010
0000
1000
0100
0010
0000
0100
0010
0001
0000
1000
0100
0010
0000
1000
0010
,
0100
0000
0010
1000
0100
0000
1000
0001
0100
0000
0001
1000
0010
0000
0100
0010
,
1000
0000
0010
0100
0001
0000
1000
0100
0010
0000
0100
0010
0001
0000
1000
0010
,
1000
0000
0001
0100
0001
0000
0100
0010
0100
0010
0100
0010
0100
0000
0001
0010
,
0100
0010
0001
0000
1000
0000
0001
0000
1100
0000
1000
0100
1000
0000
0001
0000
,
0011
0000
0001
0100
0001
0000
0100
0000
0110
0000
0010
1000
0010
0000
0100
0000
,
0101
0000
0001
1000
0010
0000
1000
0000
1010
0000
0010
0100
0001
0000
0100
0000
,
0110
0000
0010
1000
0100
0000
0010
0000
0011
0000
0001
0100
0010
0000
1000
0000
,
1100
0000
1000
0010
0100
0000
0001
0000
1001
0000
0001
1000
0100
0000
0010
0000
,
0011
0000
0010
0000
0011
0000
0000
0000
1001
0000
1000
0100
0010
0001
0010
0100
,
1000
0000
0001
0010
0100
1000
0100
0010
0001
0000
1000
0010
0100
0010
1000
0010
,
0100
0000
0001
0100
0010
0100
0001
0100
0010
0000
1000
0100
0010
0100
1000
0001
,
1000
0000
0001
0010
0100
0010
0001
1000
0001
0000
1000
0100
0010
0001
1000
0100
,
0010
0000
1000
0010
0100
0010
1000
0010
0001
0010
1000
0001
1000
0100
0001
0100
,
1000
0100
0001
1000
0010
0001
1000
0100
0002
0000
0000
0000
0000
0000
0000
0000
,
0000
0000
0000
0000
,
0003
0000
0000
1000
0001
0000
0000
0000
,
0000
0000
2000
0000
0000
0000
0000
0000
0000
0000
0000
0000
3000
0000
0000
0000
0000
0000
0000
0000
0000
0000
0000
0000
0000
0000
0000
0000
0000
0000
0000
0000
0000
0000
0000
0000
0000
0000
0000
0001
0000
0000
0000
0000
0000
0000
0000
0000
,
0000
0001
0000
0000
0000
0000
0000
1000
0001
0000
0000
1000
0001
1000
0000
0010
,
0000
0000
1000
0001
0000
0000
0000
0000
0000
2000
0000
0000
,
3001
0000
0000
0000
0000
0000
0000
0000
0000
0000
0000
0000
0000
0000
0000
0000
0000
0000
0000
0000
0000
0000
0000
0000
1000
0000
0000
0000
0000
0000
0000
0000
0000
0000
0000
0000
0100
0000
0000
0000
0000
0000
0000
0000
0000
0000
0000
0000
0000
0000
0000
0000
0000
0000
0000
0000
0000
0000
0000
0000
0000
0000
0000
0000
0000
0000
0000
0000
0000
0000
0000
0000
1000
0000
0000
0000
0000
0000
0000
0000
0000
0000
0000
0000
0100
0000
0000
0000
0000
0000
0000
0000
0000
0000
0000
0000
1000
0000
0000
0000
0000
0000
0000
0000
0000
0000
0000
0000
0000
0000
0000
0000
0000
0000
0000
0000
0000
0000
0000
0000
0000
0000
0000
0000
0000
0000
0000
0000
0001
0000
0000
0000
0000
0000
0000
0000
0000
0000
0100
0000
0000
0000
0000
0000
0000
0000
0000
0000
0000
0000
0000
0000
0000
0000
0000
0000
0000
0000
0000
0000
0000
0000
0000
0000
0000
0000
0000
0000
0000
0000
0000
0000
0000
0000
0000
0000
0000
0000
0000
0000
0001
0000
0000
0000
0000
0000
0000
0000
0000
0000
0000
0000
,
0100
0000
0000
0000
0000
0000
0000
0000
0000
0000
0000
0000
0001
0000
0000
0000
0000
0000
0000
0000
0000
0000
0000
0000
0000
0000
0000
0000
0000
0000
0000
0000
0000
0000
0000
0000
1000
0000
0000
0000
0000
0000
0000
0000
0000
0000
0000
0000
0100
0000
0000
0000
0000
0000
0000
0000
0000
0000
0000
0000
0000
0000
0000
0000
0000
0000
0000
0000
0000
0000
0000
0000
0000
0000
0000
0000
0000
0000
0000
0000
0000
0000
0000
0000
0000
0000
0000
0000
1000
0000
0000
0000
0000
0000
0000
0000
0000
0000
0000
0000
0000
0000
0010
0000
0000
0000
0000
0000
0000
0000
0000
0000
0000
0000
0000
0000
0000
0000
0000
0000
0000
0000
0000
0000
0000
0000
0000
0000
0000
0000
0000
0000
0000
0000
0000
0000
0000
0000
0100
0000
0000
0000
0000
0000
0000
0000
0000
0000
0000
0000
0000
0000
0000
0000
0000
0000
0000
0000
0000
0000
0000
0000
0100
0000
0000
0000
0000
0000
0000
0000
0000
0000
0000
0000
0000
0000
0000
0000
0000
0000
0000
0000
0000
0000
0000
0000
0000
0000
0000
0000
0000
0000
,
0000
0001
1000
0000
0001
1000
0001
0000
,
0000
0000
1000
0000
0000
0001
0000
0000
0000
1000
0000
0000
0000
0000
0000
0001
0000
0000
1000
0000
0000
0000
0100
0000
,
0000
0000
0000
0000
0000
0000
0000
0000
0010
0000
0000
0000
0000
0000
0000
0001
0000
0000
0000
0000
0000
1000
0000
0000
0000
0000
0000
0000
0000
0000
0000
0000
0000
0000
0000
0000
0000
0000
0000
0000
0000
0000
0010
0000
0000
0000
0000
0000
,
0000
0000
0000
0000
0000
0000
0000
0000
1000
0000
0000
0000
0000
0000
0000
0000
0000
0000
0000
0000
0000
0000
0000
0000
0000
0000
0000
0000
0000
0000
0000
0000
0010
0000
0000
0000
0000
0000
0000
0000
0000
0000
0000
0000
0000
0000
0000
0000
0000
0000
0000
0000
0000
0000
0000
0000
0000
0000
0000
0000
0000
0000
0000
0000
0000
0000
0000
0000
0000
0000
0000
0000
0000
0000
0000
0000
0000
0000
0000
0000
0100
0000
0000
0000
0000
0000
0000
0000
0000
0000
0000
0000
0000
0000
0000
0000
0000
0000
0000
0000
0000
0000
0000
0000
0000
0000
0000
0000
0001
0000
0000
0000
0000
0000
0000
0000
0000
0000
0000
0000
0000
0000
0000
0000
0000
0000
0000
0000
0000
0000
0000
0000
0100
0000
0000
0000
0000
0000
0000
0000
0000
0000
0000
0000
0000
0000
0000
0000
0000
0000
0000
0000
0000
0000
0000
0000
0000
0000
0000
0000
0000
0000
0000
0000
0000
0000
0000
0000
0000
0000
0000
0000
0000
0000
0000
0000
0000
0000
0000
0000
0000
0000
0000
0000
0000
0000
0010
0000
0000
0000
0000
0000
,
0000
0000
0000
1000
0000
0000
0010
0000
0000
0000
0000
0000
0001
0000
0000
0000
0100
0000
0000
0000
0001
0000
0000
0000
,
0000
0000
0000
0000
0000
0000
1000
0000
0000
0000
0000
0000
0000
0000
0000
0010
0000
0000
0000
0000
0000
0000
1000
0000
0000
0000
0000
0000
0000
0000
0000
0000
0000
0000
0000
0000
0000
0000
0000
0000
1001
0000
0000
0000
0000
0000
0000
0000
,
0000
2002
0000
0000
0000
3003
0000
0000
,
0000
0000
0000
0000
,
0000
0000
0000
0000
1100
0000
0011
0000
1100
0000
0000
0001
0100
0000
0101
0000
,
1100
0000
0000
0010
1000
0000
0101
0000
1000
0100
0000
0010
0001
0000
0110
0000
,
1001
0000
0000
0000
0020
0000
1030
0000
0002
0000
0103
0000
0001
0010
0000
0010
,
0001
0000
0100
0000
0010
1000
0000
1000
0010
0000
0100
0000
0002
0000
0103
0000
,
0020
0000
1030
0000
0002
0000
1003
0000
0002
0000
0103
0000
0010
1000
0000
1000
,
0100
0000
0010
0000
0001
0100
0000
0100
0010
0000
1000
0000
0002
0000
0013
0000
,
0200
0000
1300
0000
0020
0000
0130
0000
0020
0000
0130
0000
0001
1000
0000
1000
,
0100
0000
0010
0000
0001
1000
0000
1000
0010
0000
0100
0000
0002
0000
0013
0000
,
2000
0000
3010
0000
0002
0000
0103
0000
2000
0000
3100
0000
0010
0001
0000
1000
,
0100
0000
0010
0000
0001
0100
0000
0010
1000
0000
0010
0000
0110
0000
1001
0000
,
1100
0000
0000
0000
0010
0000
0001
0100
0010
0000
1000
0000
0001
0100
0010
0100
,
0001
0000
1000
0000
0010
1000
0100
1000
0010
0000
1000
0000
0001
0100
0010
0000
,
0100
0010
1000
0000
0001
0010
0100
0010
0001
0000
1000
0000
0001
0100
1000
0100
,
0001
0000
1000
0000
0001
0010
0100
0010
0001
0000
1100
0000
0101
0000
1000
0000
,
0001
0100
0010
0100
0001
0000
0101
0000
1001
0000
0010
0000
0101
0000
0001
0000
,
1001
0000
1000
0000
1100
0000
1000
0000
0010
0100
0001
1000
0001
0000
1000
0000
,
0010
0100
0001
0010
0001
0000
0100
0000
0010
1000
0100
0000
1000
0010
0100
0000
,
0001
0000
0011
0000
0001
0000
1001
0000
0001
1000
0100
0010
0001
0000
1000
0000
,
0001
0100
0010
1000
0001
0000
1000
0000
0010
0100
0010
0000
1000
0100
0010
0001
,
0100
0000
0001
0000
1000
0100
0010
0000
0100
0010
1000
0001
0100
0000
0001
0000
,
1001
0000
0001
0000
1000
0100
0010
0100
1000
0000
0001
0000
1000
0100
0001
0100
,
1000
0000
0001
0000
1010
0000
0001
0000
1000
0100
0010
0001
0100
0000
0001
0000
,
1000
0000
0001
0000
0010
0001
0100
0001
0010
0000
0001
0000
1000
0100
0010
0100
,
1000
0000
0001
0000
1010
0000
0100
0000
0010
1000
0001
1000
0100
0000
1000
0000
,
0011
0000
1000
0000
0001
0010
0100
1000
0010
0000
1000
0000
0001
0000
1000
0000
,
0001
0010
0100
0010
0001
0000
1000
0000
0010
0100
1000
0100
0010
0000
1000
0000
,
0101
0000
1000
0000
0001
0100
1000
0100
0001
0000
1000
0000
0110
0000
1000
0000
,
0001
0010
0100
0010
0001
0000
0110
0000
0001
0100
0010
0100
0001
1000
0001
0000
,
1000
0100
0010
0100
1000
0001
1000
0000
0001
0010
0100
0010
0001
1000
0010
0000
,
1001
0000
1000
2002
0000
0000
0000
0000
0000
0000
0000
0000
0000
0000
0000
0000
,
0000
0000
0000
0000
,
3003
0000
0000
0000
;

//---------------dance-single - ----------------
#NOTES:
     dance-single:
     :
     Medium:
     14:
     0.697715,0.946276,0.244200,0.284900,0.529101,600.000000,570.000000,30.000000,35.000000,0.000000,0.000000,0.697715,0.946276,0.244200,0.284900,0.529101,600.000000,570.000000,30.000000,35.000000,0.000000,0.000000:
0000
0000
0000
0000
,
0000
0000
0000
0000
,
0000
0000
0000
0000
,
0000
0000
0000
0000
,
0000
0000
0000
0000
,
0000
0000
0000
0000
2000
0000
0000
0002
,
0000
3000
0100
0000
0100
0000
0103
0000
,
0100
0010
2000
0000
0010
0000
0010
0000
,
3020
0000
0000
0200
0000
0000
0330
0000
,
0001
1000
0020
0000
1000
0000
1030
0000
,
0001
1000
0001
1000
0020
0000
0000
0200
,
0000
0330
0002
1000
,
1003
0010
0200
0000
0010
0000
0310
0000
,
1000
0000
0001
1000
0200
0000
0010
0000
,
0010
0000
0310
0000
1000
0100
0010
0000
,
1001
0000
0000
0001
1000
0000
0010
0000
0010
0000
0010
0000
0110
0000
0000
0000
,
1000
0000
0000
1000
0001
0000
0000
1000
0100
0000
0010
0000
0001
1000
0001
1000
,
0001
0000
0000
0000
0110
0000
0000
0000
1000
0000
0001
0100
0000
0000
0001
0100
,
0000
0000
0010
0000
1000
0000
0100
0000
0010
0000
0001
1000
0000
0000
0001
1000
,
0000
0000
0110
0000
0110
0000
0100
0000
0001
0000
1000
0010
0000
0000
1000
0010
,
0000
0000
1000
0000
0001
0000
0010
0000
0001
0000
1000
0100
0000
0000
1000
0100
,
1000
0000
0001
0000
1000
0000
0010
0000
0100
0000
0010
0100
0000
0000
0010
0100
,
0010
0000
1000
0000
0001
0000
1000
0100
0000
0000
1000
0100
0000
0000
1000
0000
,
0001
0000
0010
0000
0001
0000
1000
0001
0000
0000
1000
0001
0000
0000
1000
0000
,
1001
0000
1001
0000
1000
0000
0010
0100
0000
0000
0010
0100
0000
0000
0010
0000
,
1000
0000
0100
0000
0010
0000
0001
0100
0000
0000
0001
0100
0001
0000
0000
0100
,
0000
0000
1000
0000
0001
1000
0000
0000
0010
0000
0000
0000
0100
0010
0100
0010
,
0100
0000
0001
0100
0000
0000
0001
0100
0000
0000
0010
0000
1000
0000
0100
0000
,
0010
0000
0001
0100
0000
0000
0001
0100
0010
0000
1000
0000
0001
0010
0001
0010
,
0001
0000
1000
0010
0000
0000
1000
0100
0000
0000
0010
0000
0001
0000
0100
0000
,
0010
0000
1000
0001
0000
0000
1000
0001
1000
0000
0010
0000
0100
0000
0010
0100
,
0010
0000
1000
0000
0001
0000
1000
0000
0010
0000
0000
0000
0100
0000
0010
1000
,
0010
0000
1000
0100
1000
0000
0010
0000
0100
0000
0001
0000
0010
0000
0001
1000
,
0001
0000
1000
0010
1000
0000
0010
0000
0010
0000
0100
0010
1000
0000
0001
1000
,
0001
0000
1000
0001
1000
0000
0010
0000
0010
0000
0000
0000
1000
0000
0001
0100
,
0001
0000
1000
0100
1000
0000
0010
0000
0000
0000
1000
0000
0001
0100
0001
0100
,
0010
1000
0010
1000
0001
0100
0010
1000
0001
0000
1000
0000
0100
0000
0010
0000
,
0001
1000
0100
0010
0001
0010
0100
1000
,
0001
0010
0100
1000
0001
0100
0010
1000
,
0001
0100
0010
1000
0001
1000
0010
0100
,
0001
1000
0010
0100
1000
0100
0010
0001
,
1000
0010
0110
0000
1000
0001
0100
0001
,
1000
0010
0100
0010
1000
0100
0010
0001
,
1000
0100
0010
0001
1000
0001
0100
0001
,
1000
0010
1000
0010
0100
0001
0100
0001
,
1000
0010
0100
0000
0001
0100
0010
0000
1000
0100
0010
0000
0001
0010
0100
0000
,
1000
0100
0001
0000
0001
1000
0001
1000
2002
0000
0000
0000
0000
0000
0000
0000
,
0000
0000
0000
0000
,
3003
0000
0000
0010
0100
0000
0000
0000
,
0000
0000
0020
0000
0000
0000
0000
0000
0000
0000
0000
0000
0030
0000
0000
0000
0000
0000
0000
0000
0000
0000
0000
0000
0000
0000
0000
0000
0000
0000
0000
0000
0000
0000
0000
0000
0000
0000
0000
1000
0000
0000
0000
0000
0000
0000
0000
0000
,
0000
1000
0000
0000
0000
0000
0000
0000
0000
0000
0000
0000
0000
0001
0000
1000
,
0000
0000
0000
0000
,
2000
3000
2000
3000
,
0000
2000
0000
0000
0000
0000
0000
0000
0000
3000
0000
0000
0000
0000
0000
0000
0000
0000
0000
2000
0000
0000
0000
0000
0000
0000
0000
3000
0000
0000
0000
0000
,
0000
0000
0000
2000
0000
0000
0000
0000
0000
0000
0000
3000
0000
0000
0000
0000
0000
0000
0000
0000
0200
0000
0000
0000
0000
0000
0000
0000
0300
0000
0000
0000
,
0000
0000
0000
0000
0000
0200
0000
0000
0000
0000
0000
0000
0000
0300
0000
0000
0000
0000
0000
0000
0000
0000
0000
0020
0000
0000
0000
0000
0000
0000
0000
0000
,
0000
0030
0000
0000
0000
0000
0000
0000
0000
0000
0020
0000
0000
0000
0000
0000
0000
0000
0000
0000
0000
0030
0000
0000
0000
0000
0000
0002
0000
0000
0000
0000
,
0000
0000
0000
0003
0000
0000
0000
0000
0000
0000
0000
0000
0002
0000
0000
0000
0000
0000
0000
0000
0003
0000
0000
0000
0000
0000
0000
0000
0000
2002
0000
0000
,
0000
0000
0000
0000
0000
0000
0000
3003
0000
0000
0000
0000
0000
0000
0000
2002
0000
0000
0000
0000
0000
0000
0000
0000
0000
0000
0000
3003
0000
0000
0000
0000
,
0000
0000
0000
2002
0000
0000
0000
0000
0000
3003
0000
0000
0000
0000
0000
0000
0000
0000
0000
0000
0110
0000
0000
0000
,
0000
0220
0000
0000
0330
0000
0000
0000
,
0000
0000
0000
0000
,
0000
0000
0010
0100
0010
0000
1000
0001
,
1000
0000
0000
0000
0001
0000
1000
0001
0000
0100
0000
0100
0010
0000
1000
0000
,
1001
0000
0010
0000
1010
0000
0001
0100
,
0001
0000
1000
0100
0010
0001
1000
0000
,
0011
0000
1010
0000
0010
0000
1000
0100
,
0010
0000
0100
0001
1000
0010
1000
0000
,
1010
0000
0001
1000
0010
0000
0000
0000
0010
0000
0000
0000
0001
0000
0100
0000
,
1000
0000
0001
0010
1000
0010
0001
0000
,
1010
0000
0011
0000
0010
0000
0001
0100
,
1000
0000
0010
0100
0010
0100
0110
0000
,
1001
0000
0000
0000
1000
0000
0100
0000
1000
0000
0001
0000
1000
0010
0000
0010
,
0000
0000
0100
0000
1000
0010
0000
0010
0000
0000
1000
0000
0001
0000
1000
0000
,
0100
0000
0010
0000
0001
0000
0100
0000
0001
0000
1000
0000
0010
0100
0000
0100
,
0000
0000
0001
0000
1000
0100
0000
0100
0000
0000
0010
0000
1001
0000
0000
0000
,
0001
0100
0000
0100
0000
0000
0010
0000
1001
0000
1000
0000
1000
0000
0000
0000
,
0001
0000
0100
0000
1000
0000
0100
0000
0001
1000
0000
1000
0000
0000
0001
0000
,
1000
0100
0000
0100
0000
0000
0010
0000
0001
0000
1000
0000
0100
0000
1000
0000
,
0001
0000
0010
0000
0001
0000
0100
0000
0010
1000
0000
1000
0000
0000
0001
0000
,
1000
0100
0000
0100
0000
0000
0010
0000
0001
0000
1000
0000
0001
0010
0000
0010
,
0000
0000
0001
0000
1000
0000
0100
0000
1000
0010
1000
0010
1000
0000
0001
0000
,
0100
0000
0010
0000
1000
0010
0000
0010
1000
0000
0001
0000
0100
0010
0000
0010
,
0100
0000
0001
0000
1000
0000
0100
0000
0010
0001
0010
0001
0100
0000
0010
0000
,
1000
0000
0001
0000
1000
0010
0000
0010
1000
0000
0001
0000
0100
0010
0000
0010
,
0100
0000
0001
0000
1001
0000
0001
0000
1000
0100
0000
0010
0001
0000
0100
0000
,
0110
0000
0100
0000
0001
0010
0001
0010
0001
0000
1000
0000
0010
0000
1000
0000
,
0001
0010
0000
0010
0100
0000
0010
0000
0001
1000
0000
1000
0100
0000
0010
0000
,
0001
0000
1000
0000
0010
0100
0001
0100
0010
0000
1000
0000
1001
0000
1000
0000
,
0001
0100
0000
0100
0010
0000
0100
0000
0001
0010
0000
0010
0100
0000
1000
0000
,
0001
0010
0000
0010
0100
0000
1000
0000
0001
0010
0000
0010
0100
0000
1000
0000
,
0110
0000
0000
2002
0000
0000
0000
0000
0000
0000
0000
0000
0000
0000
0000
0000
,
0000
0000
0000
0000
,
3003
0000
0000
0000
;

//---------------dance-single - ----------------
#NOTES:
     dance-single:
     :
     Easy:
     9:
     0.433746,0.605617,0.333740,0.569801,0.044770,373.000000,332.000000,41.000000,70.000000,0.000000,0.000000,0.433746,0.605617,0.333740,0.569801,0.044770,373.000000,332.000000,41.000000,70.000000,0.000000,0.000000:
// measure 0
0000
0000
0000
0000
,  // measure 1
0000
0000
0000
0000
,  // measure 2
0000
0000
0000
0000
,  // measure 3
0000
0000
0000
0000
,  // measure 4
0000
0000
0000
0000
,  // measure 5
0000
0000
0000
0000
2000
0000
0000
0002
,  // measure 6
0000
3003
0010
0010
,  // measure 7
0100
0100
1000
0001
,  // measure 8
2000
0000
0000
0002
0000
0000
3003
0000
,  // measure 9
0100
0100
0010
0010
,  // measure 10
1000
0000
0001
0000
2000
0000
0000
0002
,  // measure 11
0000
3003
0010
0010
,  // measure 12
0100
0100
0001
1000
,  // measure 13
0020
0000
0000
0200
0000
0000
0330
0000
,  // measure 14
0001
0001
1000
1000
,  // measure 15
0010
0100
0001
1000
,  // measure 16
0020
0000
0000
0200
0000
0330
0110
0000
,  // measure 17
1001
0000
1100
0000
0001
1000
0001
1000
,  // measure 18
0001
0000
0100
0000
0010
1000
0010
1000
,  // measure 19
0010
0000
1000
0000
0001
0010
0001
0010
,  // measure 20
0001
0000
1000
0000
0010
0100
0010
0100
,  // measure 21
0010
0000
1000
0000
0001
0100
0001
0100
,  // measure 22
0010
0000
0010
1000
0010
1000
0010
0000
,  // measure 23
1000
0000
0001
0010
0001
0010
0001
0000
,  // measure 24
1000
0000
0010
0100
0010
0100
0010
0000
,  // measure 25
1000
0000
0001
0100
0001
0100
0001
0000
,  // measure 26
1000
0000
0010
0100
0010
0000
1001
0000
,  // measure 27
1000
0100
1000
0100
1000
0000
0001
0000
,  // measure 28
1000
0010
1000
0010
1000
0000
0001
0000
,  // measure 29
0100
0010
0100
0010
0100
0000
0001
0000
,  // measure 30
1000
0100
0010
0100
1000
0000
0001
0000
,  // measure 31
0100
0010
0001
0010
0100
0000
0001
1000
,  // measure 32
0010
1000
0001
0000
1000
0000
0010
0100
,  // measure 33
0010
0100
0010
0000
1000
0000
0001
0010
,  // measure 34
0100
0010
0001
0000
1000
0000
0010
0100
,  // measure 35
0010
0100
0010
0000
1000
0000
0001
0100
,  // measure 36
0010
0100
0001
0000
2000
0000
3001
0000
,  // measure 37
0002
1003
2000
3100
,  // measure 38
0200
0310
0020
0031
,  // measure 39
0002
1003
2000
3001
,  // measure 40
0200
0301
0020
0031
,  // measure 41
0100
0110
2002
3003
,  // measure 42
2200
3300
0022
0033
,  // measure 43
0220
0330
2002
3003
,  // measure 44
0220
0330
1000
0100
,  // measure 45
0010
0001
1000
0010
,  // measure 46
0100
0001
2002
0000
,  // measure 47
0000
0000
0000
0000
,  // measure 48
3003
0000
0000
0000
,  // measure 49
0000
0000
0000
0000
,  // measure 50
0000
0000
0000
0000
,  // measure 51
0000
0000
0000
0000
,  // measure 52
2000
3000
2000
3000
,  // measure 53
0000
2000
0000
0000
0000
0000
0000
0000
0000
3000
0000
0000
0000
0000
0000
0000
0000
0000
0000
2000
0000
0000
0000
0000
0000
0000
0000
3000
0000
0000
0000
0000
,  // measure 54
0000
0000
0000
2000
0000
0000
0000
0000
0000
0000
0000
3000
0000
0000
0000
0000
0000
0000
0000
0000
2000
0000
0000
0000
0000
0000
0000
0000
3000
0000
0000
0000
,  // measure 55
0000
0000
0000
0000
0000
0000
0000
0000
0000
0000
0000
0000
0000
0000
0000
0000
0000
0000
0000
0000
0000
0000
0000
0000
0000
0000
0000
0000
0000
0000
0000
0000
2000
0000
0000
0000
0000
0000
0000
0000
0000
0000
0000
0000
0000
0000
0000
0000
0000
0000
0000
0000
0000
0000
0000
0000
0000
0000
0000
0000
0000
0000
0000
0000
0000
0000
0000
0000
0000
0000
0000
0000
0000
0000
0000
0000
0000
0000
0000
0000
0000
0000
0000
0000
0000
0000
0000
0000
0000
0000
0000
0000
0000
0000
0000
0000
3000
0000
0000
0000
0000
0000
0000
0000
0000
0000
0000
0000
0000
0000
0000
0000
0000
0000
0000
0000
0000
0000
0000
0000
0000
0000
0000
0000
0000
0000
0000
0000
0000
0000
0000
0000
0000
0000
0000
0000
0000
0000
2000
0000
0000
0000
0000
0000
0000
0000
0000
0000
0000
0000
0000
0000
0000
0000
0000
0000
0000
0000
0000
0000
0000
0000
0000
0000
0000
0000
0000
0000
0000
0000
0000
0000
0000
0000
0000
0000
0000
0000
0000
0000
0000
0000
0000
0000
0000
0000
0000
0000
0000
0000
0000
0000
,  // measure 56
0000
0000
3000
0000
0000
0000
0000
0000
0000
0000
2000
0000
0000
0000
0000
0000
0000
0000
0000
0000
0000
0000
3000
0000
0000
0000
0000
2000
0000
0000
0000
0000
,  // measure 57
0000
0000
0000
0000
0000
0000
3000
0000
0000
0000
0000
0000
2000
0000
0000
0000
0000
0000
0000
0000
0000
0000
0000
0000
3000
0000
0000
0000
0000
2002
0000
0000
,  // measure 58
0000
0000
0000
0000
0000
0000
0000
3003
0000
0000
0000
0000
0000
0000
0000
2002
0000
0000
0000
0000
0000
0000
0000
0000
0000
0000
0000
3003
0000
0000
0000
0000
,  // measure 59
0000
0000
0000
2002
0000
0000
0000
0000
0000
3003
0000
0000
0000
0000
0000
0000
0000
0000
0000
0000
0110
0000
0000
0000
,  // measure 60
0000
0220
0000
0000
0330
0000
0000
0000
,  // measure 61
0000
0000
0000
0000
,  // measure 62
0000
0000
0010
0100
0010
0000
0100
0010
,  // measure 63
0100
0000
0001
0000
0000
1000
0001
1000
,  // measure 64
0001
0100
0100
0220
,  // measure 65
0330
2002
3003
0010
,  // measure 66
0100
0010
0010
0220
,  // measure 67
0330
2002
3003
0100
,  // measure 68
0010
1000
1000
2002
,  // measure 69
3003
2002
3003
0100
,  // measure 70
0010
0001
0001
2002
,  // measure 71
3003
2002
3003
0010
,  // measure 72
0100
0000
0001
0000
0001
0000
1000
0001
,  // measure 73
1000
0001
0010
0100
,  // measure 74
1001
0000
1000
0000
1000
0000
0010
0100
,  // measure 75
0010
1000
0100
0001
,  // measure 76
1000
0010
0001
1001
,  // measure 77
0010
0000
0010
0000
1000
0001
1000
0000
,  // measure 78
0001
0010
0100
1000
,  // measure 79
0100
0000
0100
0000
1000
0001
1000
0000
,  // measure 80
0001
0100
1000
0001
,  // measure 81
0010
1000
0110
0001
,  // measure 82
0001
0000
1000
0010
1000
0000
0001
0100
,  // measure 83
0001
1001
0110
1001
,  // measure 84
0010
0000
1000
0100
1000
0000
0001
0100
,  // measure 85
0001
0000
1001
0000
1000
0100
1000
0000
,  // measure 86
1001
0110
0110
1001
,  // measure 87
0001
0010
0001
0000
1000
0100
1000
0000
,  // measure 88
1001
0110
1001
1001
,  // measure 89
0010
0100
0010
0000
1000
0100
0010
0000
,  // measure 90
0100
0010
0001
0000
1000
0100
0010
0000
,  // measure 91
0001
0000
0000
2002
0000
0000
0000
0000
0000
0000
0000
0000
0000
0000
0000
0000
,  // measure 92
0000
0000
0000
0000
,  // measure 93
3003
0000
0000
0000
;

//---------------dance-single - ----------------
#NOTES:
     dance-single:
     :
     Beginner:
     7:
     0.230246,0.296296,0.048840,0.301180,0.040700,198.000000,192.000000,6.000000,37.000000,0.000000,0.000000,0.230246,0.296296,0.048840,0.301180,0.040700,198.000000,192.000000,6.000000,37.000000,0.000000,0.000000:
// measure 0
0000
0000
0000
0000
,  // measure 1
0000
0000
0000
0000
,  // measure 2
0000
0000
0000
0000
,  // measure 3
0000
0000
0000
0000
,  // measure 4
0000
0000
0000
0000
,  // measure 5
0000
0000
0000
0000
1000
0000
0000
0001
,  // measure 6
0000
0000
0010
0000
,  // measure 7
0100
0000
1000
0000
,  // measure 8
0001
0000
0000
1000
0000
0000
0000
0000
,  // measure 9
0100
0000
0010
0000
,  // measure 10
0001
0000
0000
0000
1000
0000
0000
0001
,  // measure 11
0000
0000
0010
0000
,  // measure 12
0001
0000
0100
0000
,  // measure 13
0010
0000
0000
0100
0000
0000
0000
0000
,  // measure 14
0001
0000
0100
0000
,  // measure 15
1000
0000
1001
0000
,  // measure 16
0100
0000
0000
0100
0000
0000
0000
0000
,  // measure 17
0000
1001
0001
1000
,  // measure 18
0001
0000
0010
0100
,  // measure 19
0010
0000
0100
0010
,  // measure 20
0100
0000
0010
0100
,  // measure 21
0010
0000
0001
1000
,  // measure 22
0001
1000
0001
1000
,  // measure 23
0000
0001
0100
0001
,  // measure 24
0000
0010
1000
0010
,  // measure 25
0000
0001
1000
0001
,  // measure 26
0000
0010
0100
0010
,  // measure 27
1000
0001
1000
0000
,  // measure 28
0001
0001
0001
0000
,  // measure 29
1000
1000
1000
0000
,  // measure 30
0001
1000
0001
0000
,  // measure 31
0100
0010
0100
0010
,  // measure 32
0100
0010
0000
1000
,  // measure 33
0010
1000
0000
0001
,  // measure 34
0100
0001
0000
0010
,  // measure 35
1000
0010
0000
0001
,  // measure 36
1000
0001
2000
3000
,  // measure 37
0002
0003
2000
3000
,  // measure 38
0200
0300
0020
0030
,  // measure 39
0002
0003
2000
3000
,  // measure 40
0200
0300
0020
0030
,  // measure 41
0002
0003
2000
3000
,  // measure 42
0200
0300
0020
0030
,  // measure 43
0200
0300
2000
3000
,  // measure 44
0002
0003
2000
3000
,  // measure 45
0002
0003
2000
3000
,  // measure 46
0002
0003
2002
0000
,  // measure 47
0000
0000
0000
0000
,  // measure 48
3003
0000
0000
0000
,  // measure 49
0000
0000
0000
0000
,  // measure 50
0000
0000
0000
0000
,  // measure 51
0000
0000
0000
0000
,  // measure 52
2000
3000
2000
3000
,  // measure 53
0000
2000
0000
0000
0000
0000
0000
0000
0000
3000
0000
0000
0000
0000
0000
0000
0000
0000
0000
2000
0000
0000
0000
0000
0000
0000
0000
3000
0000
0000
0000
0000
,  // measure 54
0000
0000
0000
2000
0000
0000
0000
0000
0000
0000
0000
3000
0000
0000
0000
0000
0000
0000
0000
0000
2000
0000
0000
0000
0000
0000
0000
0000
3000
0000
0000
0000
,  // measure 55
0000
0000
0000
0000
0000
0000
0000
0000
0000
0000
0000
0000
0000
0000
0000
0000
0000
0000
0000
0000
0000
0000
0000
0000
0000
0000
0000
0000
0000
0000
0000
0000
2000
0000
0000
0000
0000
0000
0000
0000
0000
0000
0000
0000
0000
0000
0000
0000
0000
0000
0000
0000
0000
0000
0000
0000
0000
0000
0000
0000
0000
0000
0000
0000
0000
0000
0000
0000
0000
0000
0000
0000
0000
0000
0000
0000
0000
0000
0000
0000
0000
0000
0000
0000
0000
0000
0000
0000
0000
0000
0000
0000
0000
0000
0000
0000
3000
0000
0000
0000
0000
0000
0000
0000
0000
0000
0000
0000
0000
0000
0000
0000
0000
0000
0000
0000
0000
0000
0000
0000
0000
0000
0000
0000
0000
0000
0000
0000
0000
0000
0000
0000
0000
0000
0000
0000
0000
0000
2000
0000
0000
0000
0000
0000
0000
0000
0000
0000
0000
0000
0000
0000
0000
0000
0000
0000
0000
0000
0000
0000
0000
0000
0000
0000
0000
0000
0000
0000
0000
0000
0000
0000
0000
0000
0000
0000
0000
0000
0000
0000
0000
0000
0000
0000
0000
0000
0000
0000
0000
0000
0000
0000
,  // measure 56
0000
0000
3000
0000
0000
0000
0000
0000
0000
0000
2000
0000
0000
0000
0000
0000
0000
0000
0000
0000
0000
0000
3000
0000
0000
0000
0000
2000
0000
0000
0000
0000
,  // measure 57
0000
0000
0000
0000
0000
0000
3000
0000
0000
0000
0000
0000
2000
0000
0000
0000
0000
0000
0000
0000
0000
0000
0000
0000
3000
0000
0000
0000
0000
2000
0000
0000
,  // measure 58
0000
0000
0000
0000
0000
0000
0000
3000
0000
0000
0000
0000
0000
0000
0000
2000
0000
0000
0000
0000
0000
0000
0000
0000
0000
0000
0000
3000
0000
0000
0000
0000
,  // measure 59
0000
0000
0000
2000
0000
0000
0000
0000
0000
3000
0000
0000
0000
0000
0000
0000
0000
0000
0000
0000
0100
0000
0000
0000
,  // measure 60
0000
0200
0000
0000
0300
0000
0000
0000
,  // measure 61
0000
0000
0000
0000
,  // measure 62
0000
0010
0000
0100
,  // measure 63
0000
0001
0000
0001
,  // measure 64
0001
0001
0000
0100
,  // measure 65
0000
1000
0000
0010
,  // measure 66
0000
1000
0000
0100
,  // measure 67
0000
0001
0000
0010
,  // measure 68
0000
1000
0000
0001
,  // measure 69
0000
0100
0000
0010
,  // measure 70
0000
0001
0000
0100
,  // measure 71
0000
0010
0000
0110
,  // measure 72
0000
0001
0001
0001
,  // measure 73
0000
1000
0000
1000
,  // measure 74
0000
1000
1000
1000
,  // measure 75
0000
0001
0000
0001
,  // measure 76
1000
0000
1000
0000
,  // measure 77
0010
0000
0010
0000
,  // measure 78
0100
0000
0100
0000
,  // measure 79
0010
0000
0100
0000
,  // measure 80
0010
0000
0010
0100
,  // measure 81
0000
0100
0000
0001
,  // measure 82
0001
1000
0000
1000
,  // measure 83
1000
0001
0000
0001
,  // measure 84
1000
0001
0000
1000
,  // measure 85
1000
0001
1000
1000
,  // measure 86
0001
0000
0010
0010
,  // measure 87
0010
0000
1000
1000
,  // measure 88
0001
0000
0001
0001
,  // measure 89
1000
0000
0010
0000
,  // measure 90
0100
0000
1001
0000
,  // measure 91
1001
0000
0000
0000
;
