#TITLE:Night! Night! Night!;
#SUBTITLE:;
#ARTIST:MM;
#TITLETRANSLIT:;
#SUBTITLETRANSLIT:;
#ARTISTTRANSLIT:;
#GENRE:;
#CREDIT:;
#BANNER:Night! Night! Night!.png;
#BACKGROUND:Night! Night! Night!-bg.png;
#LYRICSPATH:;
#CDTITLE:;
#MUSIC:Night! Night! Night!.ogg;
#OFFSET:0.000000;
#SAMPLESTART:39.636364;
#SAMPLELENGTH:14.545456;
#SELECTABLE:YES;
#BPMS:0.000000=165.000000
;
#STOPS:
;
#BGCHANGES:;
#KEYSOUNDS:;
#ATTACKS:;

//---------------dance-single - ----------------
#NOTES:
     dance-single:
     :
     Hard:
     12:
     0.626159,0.663769,0.585499,0.056924,0.097583,539.000000,467.000000,72.000000,7.000000,0.000000,0.000000,0.626159,0.663769,0.585499,0.056924,0.097583,539.000000,467.000000,72.000000,7.000000,0.000000,0.000000:
0000
0000
0000
0000
,
0000
0000
0000
0000
,
0000
0000
0000
0000
,
0000
0000
0000
0000
,
0000
0000
0000
0000
,
0000
0000
1000
1001
,
0001
0100
0000
0010
0000
1000
0001
1000
,
0000
0010
0100
0010
0000
0100
0001
1000
,
0000
0010
0000
0010
0000
0001
1000
0001
,
1000
0000
0110
0000
0100
0100
0010
0010
,
0220
0000
0000
0330
,
0100
0001
0010
0100
1000
0100
0010
0001
,
1000
0010
0100
0010
0001
0010
0100
0010
,
0100
1000
0100
0010
0001
0010
0100
1000
,
0001
0010
0100
0010
1000
0010
0100
0010
,
0100
0000
0010
0100
0000
0000
0001
0000
1000
0000
0100
0000
0010
0000
0001
0000
,
1000
0000
0010
1000
0000
0000
0001
0000
0100
0000
0010
0000
1000
0000
0100
0000
,
1000
0100
0010
0001
0100
0010
1000
0001
,
1000
0100
0010
0100
1000
0001
1000
0000
,
1001
0000
0000
0000
,
0010
0000
1000
0000
0100
0000
0010
0000
0001
0100
0001
0000
1000
0000
0000
0000
,
0010
0000
0100
0000
0001
0000
1000
0000
0001
0100
0001
0000
1000
0000
0000
0000
,
0010
0000
0100
0000
0001
0000
1000
0000
0010
0100
0010
0000
1000
0000
0000
0000
,
0001
0000
1000
0000
0001
0000
0000
0000
1001
1000
0001
0000
0100
0000
0000
0000
,
0001
0100
0110
0000
1000
0001
0110
0000
,
0001
1000
0100
0010
0001
1000
0110
0000
,
0001
0100
0001
0000
1000
0000
0000
0000
0010
1000
0010
0000
0100
0000
0000
0000
,
1001
1100
0110
0011
,
1001
0000
1001
0000
1001
0000
1000
0001
,
1000
1000
0100
0010
0000
0001
0010
0001
,
0100
0000
1001
0000
0110
0000
0010
1000
,
0100
0010
0001
0001
0000
0100
0010
1000
,
1001
0000
1001
0000
1001
0000
0010
0001
,
0100
0010
1000
1000
0000
0001
1000
0100
,
0010
0000
1001
0000
0110
0000
0001
0010
,
0100
0010
0001
1000
0000
0010
0110
0000
,
0000
0010
0000
0010
0000
1000
0000
0001
,
0000
0100
0000
0100
0000
1001
0101
1100
,
0000
0001
0000
0001
0000
0100
0000
0010
,
0000
1000
0000
1000
0000
1001
1100
0101
,
0000
1001
0000
0010
0000
0100
0000
0001
,
0000
1010
0000
0100
0000
0010
0000
1000
,
0000
0110
0000
0001
0000
0010
0000
1000
,
0000
0101
0000
0010
1000
0100
0010
0000
,
1000
0100
1000
0010
1000
1000
0001
0100
,
0010
0100
0010
0010
0100
1000
1000
1000
,
0001
0100
0001
0010
0001
0001
1000
0100
,
0010
0100
0010
0010
0100
0001
0001
0000
,
1000
0001
0110
0000
0001
1000
0110
0000
,
1000
0000
0100
0000
0010
0000
0001
0000
0100
0010
0100
0000
0010
0000
0000
0000
,
0001
0000
1000
0000
0101
0000
0000
0000
1000
0100
1000
0000
0010
0000
0000
0000
,
0100
0110
1100
0011
,
1001
0000
1001
0000
1001
0000
0010
2000
,
0000
3001
0010
0100
0010
0001
1000
0010
,
0110
0000
1001
0000
0110
0000
0001
0020
,
0000
0031
0100
0010
0000
1000
0100
0010
,
0110
0000
1001
0000
0110
0000
0001
0200
,
0000
0310
1000
0100
0000
0010
0001
0100
,
0001
1000
0001
0010
0001
0000
1000
0100
,
0010
0001
0100
0010
0000
1000
1001
0000
,
0010
0000
0001
0000
1000
0001
0000
1000
0001
0000
1000
0001
0000
0000
1000
0000
,
0100
0000
0010
0000
0001
0010
0000
0001
0010
0000
0001
0010
0000
0000
1000
0000
,
0100
0000
0010
0000
0100
0001
0000
0100
0001
0000
0100
0001
0000
0100
0001
0000
,
0000
1100
0110
0011
,
0200
0000
0320
0000
,
1030
0100
0001
0010
,
1000
0100
0010
0100
0001
0001
0000
1001
,
0000
0001
0010
0100
0010
0001
1000
0100
,
1100
0000
0110
0000
0011
0000
0100
0010
,
1000
0001
0010
0100
0000
1000
0100
0010
,
0001
0010
0001
0010
0100
1000
0100
1000
,
0000
0001
0010
0100
0000
1000
0001
1000
,
1001
1100
0101
0110
,
0101
0000
1100
0000
0110
0000
0100
0100
,
0001
0000
1100
0000
0001
0010
0100
0000
,
1000
0100
0010
0001
0100
0100
0010
0010
,
1001
0000
1100
0000
0011
0000
0100
0001
,
1000
0010
1000
0100
0010
0001
0100
0100
,
1001
0000
0011
0000
1100
0000
0001
0010
,
0000
1000
0100
0010
0000
0110
1001
0000
,
1000
1000
0000
0001
0010
0001
1000
0000
,
0100
0000
1000
0010
0000
0001
0000
0001
1000
0001
1000
0000
0000
0000
0000
0000
;

//---------------dance-double - ----------------
#NOTES:
     dance-double:
     :
     Hard:
     13:
     0.616865,0.663769,0.634291,0.056924,0.117913,531.000000,453.000000,78.000000,7.000000,0.000000,0.000000,0.616865,0.663769,0.634291,0.056924,0.117913,531.000000,453.000000,78.000000,7.000000,0.000000,0.000000:
00000000
00000000
00000000
00000000
,
00000000
00000000
00000000
00000000
,
00000000
00000000
00000000
00000000
,
00000000
00000000
00000000
00000000
,
00000000
00000000
00000000
00000000
,
00000000
00000000
10000000
10010000
,
10000000
01000000
00100000
00000000
00001000
00010000
00000100
00000000
,
00001000
00000100
00000010
00000001
00000000
00000100
00000010
00000000
,
00000001
00000100
00000010
00000000
00001000
00000100
00010000
00000000
,
00001000
00100000
00010000
00100000
00001000
01000000
00010000
00000000
,
20020000
00000000
00000000
30030000
,
10000000
01000000
00100000
00010000
00100000
00010000
00010000
00000000
,
00001000
00010000
00000100
00001000
00000001
00000001
00000100
00000000
,
00000001
00000010
00000100
00001000
00000100
00000010
00000001
00000000
,
00001000
00001000
00000100
00000100
00010000
00001000
01000000
00000000
,
00010000
00100000
01000000
10000000
01000000
00100000
00010000
00000000
,
00100000
00001000
00010000
00001000
00010000
00000100
00001000
00000000
,
00000001
00000010
00000100
00000010
00000001
00001000
00000100
00000000
,
00010000
00011000
00110000
01100000
,
20020000
00000000
00000000
30030000
,
10000000
00000000
01000000
00000000
00100000
00000000
00000000
00000000
00001000
00010000
00001000
00000000
00010000
00000000
00000000
00000000
,
00000100
00000000
00001000
00000000
00000010
00000000
00000000
00000000
00000001
00000100
00000001
00000000
00001000
00000000
00000000
00000000
,
00000010
00000000
00001000
00000000
00000100
00000000
00000000
00000000
00010000
00001000
00010000
00000000
00001000
00000000
00000000
00000000
,
00100000
00000000
00010000
00000000
01000000
00000000
00000000
00000000
00100000
10000000
00100000
00000000
10000000
00000000
00000000
00000000
,
00100000
00000000
00001000
00000000
00010000
00000000
00000100
00000000
00001000
00000010
00001000
00000000
00000001
00000000
00000000
00000000
,
00000100
00000000
00000010
00000000
00001000
00000000
00000100
00000000
00010000
00001000
00010000
00000000
00001000
00000000
00000000
00000000
,
00100000
00000000
00010000
00000000
01000000
00000000
00100000
00000000
10000000
01000000
00100000
00000000
00010000
00000000
00000000
00000000
,
00000000
10010000
00011000
00001001
,
00000110
00000000
00000110
00000000
00000110
00000000
00000001
00000100
,
00001000
00000100
00000001
00000010
00000000
00001000
00000100
00010000
,
00011000
00000000
00110000
00000000
01100000
00000000
10000000
01000000
,
00100000
00010000
01000000
00100000
00000000
00010000
00100000
01000000
,
01100000
00000000
10010000
00000000
01100000
00000000
10000000
01000000
,
00000000
00100000
00001000
00010000
00000000
00000100
00001000
00000010
,
00000100
00000000
00000101
00000000
00001100
00000000
00000001
00000010
,
00000100
00001000
00000100
00010000
00000000
00001000
00011000
00000000
,
00100000
00010000
00000000
01000000
00000000
10000000
00000000
00100000
,
00000000
00001000
00000000
00000100
00000000
00000101
00001001
00001010
,
00000000
00000100
00000000
00010000
00000000
00100000
00000000
01000000
,
00000000
10000000
01000000
00100000
00000000
00110000
01010000
10010000
,
00000000
01000000
00000000
00001000
00000000
00010000
00000000
00000010
,
00000000
00001000
00000100
00000010
00000000
00001001
00001100
00000101
,
00000000
00000010
00001000
00000100
00000000
00010000
00001000
00100000
,
00000000
00010000
01000000
10000000
00000000
00100000
01100000
00000000
,
00000000
00000000
00000000
00000000
00000000
00000000
10000000
00000000
00010000
00000000
00000000
00010000
00000000
00000000
00010000
00000000
,
00000000
10010000
00000000
00011000
,
00000000
00000000
00000000
00000000
00000000
00000000
00001000
00000000
00000010
00000000
00000000
00000010
00000000
00000000
00000010
00000000
,
00000000
00000101
00001100
00011000
,
00100000
00010000
00100000
00010000
10000000
01000000
00100000
00001000
,
00010000
00000100
00010000
00000100
00001000
00000100
00000010
00000001
,
00000100
00000010
00000100
00000010
00001000
00000100
00010000
00001000
,
00010000
00011000
01010000
11000000
,
01100000
00000000
01100000
00000000
01100000
00000000
10000000
02000000
,
00000000
03100000
00001000
00010000
00000000
00000100
00001000
00000100
,
00000010
00000000
00000011
00000000
00001100
00000000
00000010
00002000
,
00000000
00003100
00010000
00001000
00000000
00100000
00010000
01000000
,
01100000
00000000
10010000
00000000
01100000
00000000
10000000
02000000
,
00000000
03010000
00100000
00001000
00000000
00010000
00000010
00001000
,
00000001
00000000
00001100
00000000
00000011
00000000
00000100
00000010
,
00000000
00001000
00000100
00000010
00000000
00000001
00001000
00000000
,
00000010
00000000
00001000
00000000
00000001
00000100
00000000
00000001
00000100
00000000
00000001
00000100
00000000
00000000
00000010
00000000
,
00001000
00000000
00000100
00000000
00010000
00000100
00000000
00010000
00000100
00000000
00010000
00000100
00000000
00000000
00010000
00000000
,
00001000
00000000
00100000
00000000
00010000
01000000
00000000
00010000
01000000
00000000
00100000
10000000
00000000
00100000
10000000
00000000
,
00000000
10000000
01000000
00100000
,
10010000
00000000
10010000
00000000
10010000
00000000
00000000
10000000
,
00000000
01000000
00100000
00010000
00000000
00000000
00011000
00000000
,
00001000
00010000
00001000
00010000
00000100
00001000
00000100
00001000
,
00000010
00000100
00000001
00001000
00000100
00000010
00000001
00001000
,
00000100
00000000
00001100
00000000
00011000
00000000
00100000
00010000
,
01000000
00100000
10000000
01000000
00100000
01000000
10000000
00010000
,
01010000
00000000
11000000
00000000
01010000
00000000
01000000
00001000
,
00010000
00000000
00001000
00000000
00010000
00000000
00000100
00000000
00001000
00000100
00001000
00000000
00000010
00000000
00000100
00000000
,
00000101
00001100
00000101
00001100
,
00000110
00001001
00001100
00011000
,
00001100
00000000
00001100
00000000
00101000
00000000
00100000
00010000
,
01000000
00000000
00100000
00000000
10000000
00000000
01000000
00000000
00100000
00010000
00100000
00010000
01000000
00000000
00010000
00000000
,
00110000
00000000
00011000
00000000
00001010
00000000
00000010
00001000
,
00000100
00000000
00000010
00000000
00000001
00000000
00000100
00000000
00000010
00001000
00000010
00001000
00000100
00000000
00000010
00000000
,
00000101
00000000
00001100
00000000
00000101
00000000
00001000
00000100
,
00000000
00010000
00001000
00101000
00000000
00100000
00110000
00000000
,
01000000
01100000
00000000
10000000
01000000
00100000
00010000
00000000
,
00100000
00100000
00001000
00001000
00000000
00010000
00000000
00010000
00010000
00000100
00000100
00000000
00000000
00000000
00000000
00000000
;

//---------------dance-double - ----------------
#NOTES:
     dance-double:
     :
     Medium:
     10:
     0.551810,0.597392,0.674950,0.097583,0.024396,475.000000,392.000000,83.000000,12.000000,0.000000,0.000000,0.551810,0.597392,0.674950,0.097583,0.024396,475.000000,392.000000,83.000000,12.000000,0.000000,0.000000:
00000000
00000000
00000000
00000000
,
00000000
00000000
00000000
00000000
,
00000000
00000000
00000000
00000000
,
00000000
00000000
00000000
00000000
,
00000000
00000000
00000000
00000000
,
00000000
00000000
00000000
00000000
,
10000000
10000000
10000000
00000000
,
00010000
00100000
00001000
00000000
,
00010000
00000100
00001000
00000010
,
00001001
00000000
00000100
00000000
00000010
00000010
00000010
00000000
,
00001001
00000000
00000000
00000000
,
00000001
00000100
00000001
00000000
00001000
00000100
00010000
00000000
,
00001000
00100000
00001000
00000000
00100000
00010000
01000000
00000000
,
00000000
10000000
01000000
00100000
01000000
00100000
00010000
00000000
,
00100000
00110000
00011000
00001100
,
00000010
00001000
00000100
00000000
00000010
00000001
00000100
00000000
,
00000010
00001000
00000100
00000000
00010000
00001000
00100000
00000000
,
00000000
00010000
00100000
01000000
00100000
01000000
10000000
00000000
,
01100000
00110000
00011000
00001100
,
00022000
00000000
00000000
00033000
,
00100000
00010000
01000000
00000000
00100000
00100000
00100000
00000000
,
10000000
01000000
00100000
00000000
00001000
00001000
00001000
00000000
,
00010000
00000100
00001000
00000000
00000001
00000100
00000010
00000000
,
00001000
00000100
00010000
00000000
00001000
00001000
00001000
00000000
,
00100000
00010000
01000000
00000000
00100000
00100000
01100000
00000000
,
10000000
01000000
00100000
00000000
00010000
00010000
00110000
00000000
,
00001000
00010000
00000100
00000000
00001000
00001000
00001010
00000000
,
00000001
00000100
00001000
00010000
,
00011000
00000000
00011000
00000000
00011000
00000000
00000000
00100000
,
00000000
00010000
01000000
10000000
00000000
00000000
00100000
00000000
,
00011000
00000000
00011000
00000000
00011000
00000000
00000000
00010000
,
00000000
00000100
00001000
00000010
00000000
00000100
00000001
00000000
,
00001001
00000000
00001001
00000000
00001001
00000000
00000000
00000010
,
00000000
00001000
00000100
00010000
00000000
00001000
00100000
00010000
,
00010000
00000000
01000000
00200000
00000000
00000000
00000000
10300000
,
00000000
01000000
00100000
00010000
00000000
00010000
00001000
00000000
,
00011000
00000000
00001100
00000000
00001000
00000100
00000010
00000001
,
00000101
00000000
00001100
00000000
00000100
00010000
00001000
00010000
,
00000100
00001000
00000100
00000010
00000100
00000010
00000001
00000000
,
00000110
00001100
00011000
00110000
,
01010000
00000000
10010000
00000000
10000000
01000000
00100000
00000000
,
01010000
00000000
10010000
00000000
00100000
00001000
00010000
00000000
,
00100000
00010000
10000000
01000000
00100000
01000000
10000000
00000000
,
01010000
00011000
00001100
00001010
,
00000001
00000010
00000100
00000000
00000010
00000010
00000110
00000000
,
00001000
00000100
00010000
00000000
00001000
00001000
00011000
00000000
,
00100000
00010000
01000000
00100000
10000000
10000000
10010000
00000000
,
00100000
00001000
00010000
00000100
00000100
00000100
00001100
00000000
,
00000010
00000100
00000101
00000000
00001000
00000100
00001100
00000000
,
00010000
00001000
00101000
00000000
00100000
00010000
01010000
00000000
,
00100000
10000000
01000000
00100000
00010000
00100000
00010000
00000000
,
01000000
10010000
00110000
00011000
,
00001100
00000000
00001100
00000000
00001100
00000000
00000001
00000010
,
00000001
00001000
00000100
00000010
00000000
00001000
00000100
00010000
,
00011000
00000000
00011000
00000000
00101000
00000000
00100000
00010000
,
00000000
10000000
01000000
00100000
00000000
01000000
00010000
00100000
,
00110000
00000000
00110000
00000000
00011000
00000000
00000100
00010000
,
00000000
00000100
00010000
00001000
00000000
00001000
00100000
00010000
,
01000000
00000000
00100000
02200000
00000000
03300000
00000000
10010000
,
00000000
00010000
00100000
01000000
00000000
10000000
10010000
00000000
,
10000000
00000000
01000000
00000000
00000000
00100000
00000000
00000000
00010000
00000000
00000000
00001000
00000000
00000000
00010000
00000000
,
00000100
00000000
00001000
00000000
00000000
00000010
00000000
00000000
00000001
00000000
00000000
00000100
00000000
00000000
00001000
00000000
,
00000010
00000000
00000100
00000000
00000000
00001000
00000000
00000000
00010000
00000000
00000000
00001000
00000000
00000000
00000100
00000000
,
00000000
00000101
00001100
00000101
,
00002002
00003003
00000220
00000330
,
00000001
00000100
00001000
00010000
,
00100000
00000000
00100000
00000000
10010000
00000000
10000000
01000000
,
00100000
01000000
10000000
00010000
00000000
00100000
00001000
00010000
,
00011000
00000000
00101000
00000000
00011000
00000000
00010000
00000100
,
00001000
00000010
00001000
00000010
00000000
00001000
00000001
00000100
,
00000020
00000000
00001030
00000200
00000000
00000000
00010300
00001000
,
00000000
00100000
00010000
01000000
00000000
00100000
10000000
01000000
,
11000000
01010000
11000000
01010000
,
00011000
00001100
00000110
00001001
,
00001001
00000000
00000010
00001000
00000100
00000000
00000100
00001000
,
00000000
00000100
00010000
00001000
00000000
00001000
00100000
00010000
,
01000000
00000000
01010000
00000000
11000000
00000000
00100000
01000000
,
00000000
00001000
00010000
00001000
00000000
00010000
00000100
00001000
,
00000010
00000000
00000100
00000002
00000000
00000000
00000000
00001003
,
00000000
00000010
00001000
00000100
00000000
00010000
00011000
00000000
,
00100000
00010000
00000000
10000000
01000000
00100000
00010000
00000000
,
01000000
00100000
01000000
00100000
00000000
10010000
00000000
00000000
;

//---------------dance-double - ----------------
#NOTES:
     dance-double:
     :
     Easy:
     7:
     0.351996,0.564204,0.439124,0.138243,0.000000,303.000000,249.000000,54.000000,17.000000,0.000000,0.000000,0.351996,0.564204,0.439124,0.138243,0.000000,303.000000,249.000000,54.000000,17.000000,0.000000,0.000000:
00000000
00000000
00000000
00000000
,
00000000
00000000
00000000
00000000
,
00000000
00000000
00000000
00000000
,
00000000
00000000
00000000
00000000
,
00000000
00000000
00000000
00000000
,
00000000
00000000
00000000
00000000
,
00100000
00100000
00100000
00000000
,
01000000
00000000
00010000
00000000
,
00001000
00000000
00000100
00000000
,
00000010
00000010
00000010
00000010
,
00000010
00000000
00000000
00000000
,
00000001
00000100
00001000
00001000
,
00010000
01000000
10000000
10000000
,
00000000
00100000
01000000
10010000
,
10000000
01000000
00100000
00010000
,
10000000
10000000
00100000
00010000
,
00001000
00001000
00000010
00000001
,
00000000
00000010
00000100
00001001
,
00000010
00000010
00000100
00000100
,
00000000
00000000
00000000
00000000
,
00000010
00000100
00000101
00001100
,
00000100
00010000
00011000
00101000
,
00010000
01000000
10100000
01010000
,
01000000
00100000
01010000
00011000
,
00010000
00010000
00000010
00000110
,
00000001
00000001
00001000
00001100
,
00000100
00010000
00001000
01000000
,
00100000
10000000
01000000
00100000
,
10010000
10010000
10010000
00000000
,
10000000
01000000
00010000
00000000
,
00011000
00011000
00011000
00000000
,
00000100
00001000
00000010
00000001
,
00001001
00001001
00001001
00000000
,
00000001
00000100
00001000
00000000
,
00010000
00002000
00003000
00200000
,
00300000
00010000
01000000
10010000
,
00100000
00100000
10000000
01010000
,
00100000
00100000
00001000
00011000
,
00010000
00000100
00001000
00000010
,
00000001
00000100
00001000
00010000
,
00001000
00001000
00110000
01010000
,
00100000
00100000
10010000
01010000
,
00100000
10000000
01000000
00010000
,
00001000
00000100
00000001
00001001
,
00000020
00000030
00000100
00000000
,
00000001
00000100
00001000
00010000
,
00200000
00300000
02000000
03000000
,
10000000
01000000
00010000
00001000
,
00000200
00000300
00000020
00000030
,
00000001
00001000
00000100
00010000
,
00001000
00001000
00010000
00010000
,
00001000
00100000
00010000
01000000
,
10010000
10010000
10010000
00000000
,
10000000
00100000
00010000
00000000
,
10000000
01000000
00100000
00000000
,
00001000
00010000
00000100
00000000
,
00001001
00001001
00001001
00000000
,
00000001
00000100
00001000
00000000
,
00010000
00002000
00003000
00200000
,
00300000
01000000
00100000
10010000
,
02200000
00000000
00000000
03300000
,
00022000
00000000
00000000
00033000
,
00000220
00000000
00000000
00000330
,
00000000
00000001
00000100
00001000
,
00000010
00000010
00000010
00000000
,
00001000
00000000
00010000
00000000
,
00100000
00100000
00100000
10000000
,
01000000
00100000
00001000
00010000
,
00000010
00000010
00000010
00000001
,
00000100
00001000
00010000
01000000
,
00200000
00300000
02000000
03000000
,
00010000
10000000
01000000
00000000
,
10010000
10010000
10010000
10010000
,
11000000
00110000
11000000
00110000
,
10000000
01000000
00100000
00000000
,
00001000
00010000
00000100
00001000
,
00000010
00000010
00001001
00000000
,
00000001
00000100
00000010
00001000
,
00000100
00010000
00001000
01000000
,
00100000
10000000
01000000
00100000
,
10010000
00000000
01100000
10010000
,
00000000
01100000
00000000
10010000
00000000
10010000
00000000
00000000
;

//---------------dance-single - ----------------
#NOTES:
     dance-single:
     :
     Easy:
     7:
     0.381039,0.564204,0.609895,0.154507,0.000000,328.000000,253.000000,75.000000,19.000000,0.000000,0.000000,0.381039,0.564204,0.609895,0.154507,0.000000,328.000000,253.000000,75.000000,19.000000,0.000000,0.000000:
0000
0000
0000
0000
,
0000
0000
0000
0000
,
0000
0000
0000
0000
,
0000
0000
0000
0000
,
0000
0000
0000
0000
,
0000
0000
0000
0000
,
0010
0010
0010
0000
,
0100
0000
0001
0000
,
1000
0100
0010
0001
,
0100
0100
0100
0100
,
0110
0000
0000
0000
,
0001
0010
1000
1001
,
0001
0100
1000
1001
,
0000
0010
0100
1001
,
1000
0100
0010
0001
,
1000
1000
0010
0011
,
0001
0001
0100
1100
,
0000
0010
0100
1001
,
0010
0010
0100
0100
,
0000
0000
0000
0000
,
0010
0100
0101
1100
,
0010
0010
1010
0011
,
0100
0100
1010
0101
,
0010
0010
0101
1010
,
0001
0001
1000
0110
,
1000
1000
0001
0110
,
0001
0011
1000
1100
,
0010
1001
0100
0010
,
1001
1001
1001
0000
,
1000
0100
0001
0000
,
1001
1001
1001
0000
,
0001
0010
0100
1000
,
1001
1001
1001
0000
,
0010
0001
0100
1000
,
0010
0002
0003
2000
,
3000
0001
0100
1001
,
0010
0010
1000
0101
,
0010
0010
0001
1100
,
0001
0010
0101
1010
,
1000
0100
1010
0101
,
0010
0010
0011
0101
,
0010
0010
1010
0110
,
0010
1000
0100
0001
,
0010
0010
0100
1001
,
0020
0030
0100
0000
,
0001
0100
1000
0001
,
0020
0030
0200
0300
,
1000
0100
0010
0001
,
0200
0300
0020
0030
,
1000
0100
0010
0001
,
0100
0100
0010
0010
,
0000
0010
0001
0100
,
1001
1001
1001
0000
,
1000
0010
0001
0000
,
1000
0100
0010
0001
,
0100
0100
1001
0000
,
0110
0110
0110
0000
,
0001
0010
0100
1000
,
0001
0200
0300
0020
,
0030
0100
0010
1001
,
0220
0000
0000
0330
,
2002
0000
0000
3003
,
0220
0000
0000
0330
,
0000
1000
0100
0010
,
0001
0001
0001
0000
,
0100
0000
1000
0000
,
0010
0010
0010
1000
,
0100
0010
0001
0100
,
1001
1001
1001
1000
,
0100
0010
0001
0100
,
0020
0030
0200
0300
,
0001
1000
0100
0000
,
1001
1001
1001
1001
,
1100
0011
1100
0011
,
1000
0100
0010
0001
,
1001
0110
1001
0010
,
0101
0101
0101
0010
,
1000
0100
0010
0001
,
0100
0002
0003
2000
,
3000
0001
0010
0100
,
1001
0000
0110
1001
,
0000
0110
0000
1001
0000
1001
0000
0000
;

//---------------dance-single - ----------------
#NOTES:
     dance-single:
     :
     Medium:
     10:
     0.554133,0.597392,0.878249,0.138243,0.008132,477.000000,369.000000,108.000000,17.000000,0.000000,0.000000,0.554133,0.597392,0.878249,0.138243,0.008132,477.000000,369.000000,108.000000,17.000000,0.000000,0.000000:
0000
0000
0000
0000
,
0000
0000
0000
0000
,
0000
0000
0000
0000
,
0000
0000
0000
0000
,
0000
0000
0000
0000
,
0000
0000
0000
0000
,
0100
0100
0200
0300
,
0010
1000
0100
0001
,
0010
0100
1000
0010
,
0100
0010
0100
0000
0010
0100
0010
0000
,
2002
0000
0000
3003
,
1000
0000
1100
0000
0001
0100
0001
0000
,
0010
0000
0110
0000
0001
0100
0001
0000
,
0000
1000
0010
0100
0010
0100
0010
0000
,
0001
0011
0110
1100
,
0010
0000
0110
0000
1000
0100
0010
0000
,
0100
0000
0110
0000
0001
0010
0100
0000
,
0000
1000
0100
1000
0100
0010
0001
0000
,
0100
0101
1010
0101
,
2002
0000
0000
3003
,
0010
0010
0010
0000
1000
0100
0010
0000
,
0100
0100
0100
0000
0001
0010
0100
0000
,
0001
0001
0001
0000
1000
0100
0010
0000
,
1000
1000
1000
0000
0001
0010
0100
0000
,
0001
0001
0001
0000
1000
0100
0010
0000
,
0001
0100
0001
0000
1000
1000
1000
0000
,
1000
0100
1000
0000
0001
0001
0001
0000
,
0000
0110
1001
0110
,
1001
0000
1001
0000
1001
0000
0000
0020
,
0000
0130
0001
1000
0000
0001
0100
0010
,
0110
0000
0110
0000
1001
0000
0000
2000
,
0000
3010
0100
0010
0000
1000
0100
0010
,
0110
0000
0110
0000
1001
0000
0000
0002
,
0000
0103
0010
0100
0000
0001
1000
0100
,
0010
0000
0100
0020
0000
0000
0000
1030
,
0000
0001
0100
0001
0000
1000
1100
0000
,
0000
0101
0000
0101
0000
1100
0000
1100
,
0000
0011
0000
0011
0000
0100
0100
0100
,
0000
1010
0000
1010
0000
0011
0000
0011
,
0000
0110
0000
0110
0000
0001
0001
0001
,
0000
1100
0000
1100
0000
0101
0000
0101
,
0000
0011
0000
0011
0000
1000
1000
1000
,
0000
0101
0000
1100
0000
0101
0000
1100
,
0000
0010
0000
0100
0000
0001
1001
0000
,
1100
1000
0001
0101
,
0010
0110
1000
1100
,
0001
0010
0001
0000
1000
0100
1000
0000
,
0001
0010
0100
1000
0100
0010
0001
0000
,
1100
0000
0011
0000
1100
1100
1100
0000
,
0001
0000
0110
0000
1000
1000
1000
0000
,
0001
0100
0010
1000
0100
0010
0001
0000
,
0110
1001
0110
1001
,
1100
0000
1100
0000
1100
0000
0000
0001
,
0000
0100
0010
1000
0000
0001
0010
0100
,
0101
0000
0101
0000
1100
0000
0000
0110
,
0000
1000
0100
0010
0000
0100
0010
0001
,
1001
0000
1001
0000
1001
0000
0000
1100
,
0000
0001
0010
0100
0000
1000
0100
1000
,
1000
0000
0001
0202
0000
0000
0303
0100
,
0000
0010
0100
0010
0000
1000
1001
0000
,
2200
0000
0000
3300
,
0022
0000
0000
0033
,
0100
0000
0010
0000
0000
0110
0000
0000
0110
0000
0000
0110
0000
0000
0110
0000
,
0000
1000
0100
0010
,
1001
0000
1001
0000
1001
0000
0000
0010
,
0000
0100
0010
0100
0000
0001
1001
0000
,
0010
1000
0010
1000
0010
0000
1000
0100
,
0000
0010
0001
0100
0000
0001
0100
0000
,
1010
0000
0101
0000
1010
0000
0001
0010
,
0000
1000
0100
0010
0000
0001
1000
0100
,
0010
0100
1000
0002
0000
1003
0100
0010
,
0000
0001
0100
0010
0000
1000
0100
0010
,
0011
0110
1100
0110
,
0011
0101
1001
0101
,
0011
0000
1100
0000
0110
0000
0001
1000
,
0100
1000
0010
0100
0001
1000
1000
0001
,
1001
0000
1100
0000
0011
0000
0100
0110
,
0000
1001
0000
1100
0000
0001
0010
0100
,
1000
0100
0010
0002
0000
0100
0103
0001
,
0000
0100
1000
1100
0000
0100
0101
0000
,
1000
0100
0000
0010
0001
0100
1000
0000
,
0010
0100
1000
0001
0000
1001
0000
0000
;

//---------------dance-single - ----------------
#NOTES:
     dance-single:
     :
     Beginner:
     5:
     0.199813,0.265101,0.016264,0.032528,0.000000,172.000000,170.000000,2.000000,4.000000,0.000000,0.000000,0.199813,0.265101,0.016264,0.032528,0.000000,172.000000,170.000000,2.000000,4.000000,0.000000,0.000000:
// measure 0
0000
0000
0000
0000
,  // measure 1
0000
0000
0000
0000
,  // measure 2
0000
0000
0000
0000
,  // measure 3
0000
0000
0000
0000
,  // measure 4
0000
0000
0000
0000
,  // measure 5
0000
0000
0000
0000
,  // measure 6
0010
0000
0010
0000
,  // measure 7
0000
1000
0000
1000
,  // measure 8
0000
0001
0000
0001
,  // measure 9
0000
1000
1000
1000
,  // measure 10
0000
0000
0000
0000
,  // measure 11
0010
0000
0010
0000
,  // measure 12
0100
0000
0100
0000
,  // measure 13
0001
0000
0001
0000
,  // measure 14
1000
0000
1000
0000
,  // measure 15
0010
0000
0100
0000
,  // measure 16
0001
0000
1000
0000
,  // measure 17
0001
0000
0100
0000
,  // measure 18
0010
0000
0010
0000
,  // measure 19
0000
0000
0000
0000
,  // measure 20
1000
0000
0001
0001
,  // measure 21
0001
0000
0100
0100
,  // measure 22
0100
0000
0010
0010
,  // measure 23
0010
0000
1000
1000
,  // measure 24
1000
0000
0001
0001
,  // measure 25
0001
0000
1000
1000
,  // measure 26
1000
0000
0010
0010
,  // measure 27
0010
0000
0000
0000
,  // measure 28
0100
0100
0100
0000
,  // measure 29
0001
0000
1000
0000
,  // measure 30
0010
0010
0010
0000
,  // measure 31
1000
0000
0001
0000
,  // measure 32
1000
1000
1000
0000
,  // measure 33
0010
0000
0100
0000
,  // measure 34
0001
0000
1000
0000
,  // measure 35
0010
0010
0010
0000
,  // measure 36
0100
0000
0100
0000
,  // measure 37
0001
0000
0001
0000
,  // measure 38
0010
0000
0010
0000
,  // measure 39
1000
0000
1000
0000
,  // measure 40
0100
0000
0001
0000
,  // measure 41
0010
0000
1000
0000
,  // measure 42
0010
0000
0001
0000
,  // measure 43
0100
0000
1000
0000
,  // measure 44
0002
0000
0003
0000
,  // measure 45
2000
0000
3000
0000
,  // measure 46
0020
0000
0030
0000
,  // measure 47
0200
0000
0300
0000
,  // measure 48
0001
0000
1000
0000
,  // measure 49
0001
0000
1000
0000
,  // measure 50
0010
0010
0010
0000
,  // measure 51
0100
0100
0100
0000
,  // measure 52
0010
0010
0010
0000
,  // measure 53
1000
0000
0100
0000
,  // measure 54
0010
0010
0010
0000
,  // measure 55
0001
0000
0100
0000
,  // measure 56
0100
0100
0100
0000
,  // measure 57
0001
0000
1000
0000
,  // measure 58
0010
0000
0100
0000
,  // measure 59
0001
0001
0001
0000
,  // measure 60
1001
0000
0000
0000
,  // measure 61
0110
0000
0000
0000
,  // measure 62
1000
1000
1000
1000
,  // measure 63
0000
0000
0000
0000
,  // measure 64
0010
0000
0010
0000
,  // measure 65
0100
0000
0100
0000
,  // measure 66
0001
0001
0001
0000
,  // measure 67
1000
0000
0100
0000
,  // measure 68
1000
1000
1000
0000
,  // measure 69
0001
0000
0100
0000
,  // measure 70
0010
0010
0010
0000
,  // measure 71
0100
0100
0100
0000
,  // measure 72
0001
0001
0001
0001
,  // measure 73
0001
0001
0001
0000
,  // measure 74
1000
0000
0100
0000
,  // measure 75
0010
0010
0010
0000
,  // measure 76
0001
0001
0001
0000
,  // measure 77
0100
0000
0100
0000
,  // measure 78
0010
0000
0010
0000
,  // measure 79
1000
1000
1000
0000
,  // measure 80
0001
0000
0001
0001
,  // measure 81
0000
1000
1000
0000
;
