#TITLE:Next Tales 2 Oath;
#SUBTITLE:(IIDX 20th Anniv. "Ring" Theme);
#ARTIST:Hommarju;
#TITLETRANSLIT:;
#SUBTITLETRANSLIT:;
#ARTISTTRANSLIT:;
#GENRE:beatmania IIDX;
#CREDIT:;
#BANNER:Next Tales 2 Oath.png;
#BACKGROUND:Next Tales 2 Oath-bg.png;
#LYRICSPATH:;
#CDTITLE:;
#MUSIC:Next Tales 2 Oath.ogg;
#OFFSET:1.022001;
#SAMPLESTART:33.629776;
#SAMPLELENGTH:12.000000;
#LASTBEATHINT:0.066003;
#SELECTABLE:YES;
#DISPLAYBPM:180.000000;
#BPMS:0.000000=180.000000
,100.000000=182.399994
,101.000000=183.000000
,104.000000=180.000000
,179.000000=188.000000
,180.000000=180.000000
,188.000000=199.000000
,189.000000=180.000000
,203.000000=188.000000
,203.333328=182.000000
,207.333328=180.000000
;
#STOPS:
;
#BGCHANGES:0.000=Next Tales 2 Oath.avi=1.000=0=0=0=StretchNoLoop====,
99999=-nosongbg-=1.000=0=0=0 // don't automatically add -songbackground-
;
#KEYSOUNDS:;
#ATTACKS:;

//---------------dance-single - ----------------
#NOTES:
     dance-single:
     :
     Hard:
     16:
     0.847618,1.131641,0.854214,0.084652,0.981192,771.000000,660.000000,111.000000,11.000000,0.000000,0.000000,0.847618,1.131641,0.854214,0.084652,0.981192,771.000000,660.000000,111.000000,11.000000,0.000000,0.000000:
// measure 0
0000
0000
0000
0000
,  // measure 1
0000
0000
0000
0000
,  // measure 2
0000
0000
0000
0000
,  // measure 3
0000
0000
0000
0000
,  // measure 4
0000
0000
0000
0000
,  // measure 5
0000
0000
0000
0000
,  // measure 6
0000
0000
0000
0000
,  // measure 7
0000
0000
0000
0000
,  // measure 8
0000
0000
0000
0000
,  // measure 9
1000
0000
0000
0001
0000
0000
1000
0000
0000
0100
0000
0000
0010
0000
0001
0000
,  // measure 10
1000
0000
0000
0010
0000
0000
0001
0000
0000
0010
0000
0000
1000
0000
0100
0000
,  // measure 11
0010
0000
0000
1000
0000
0000
0010
0000
0000
0100
0000
0000
0001
0000
1000
0000
,  // measure 12
0001
0000
0000
0010
0000
0000
1000
0000
0000
0010
0000
0000
0001
0000
0100
0000
,  // measure 13
0010
0000
0100
0010
0000
1000
0010
0000
1000
0010
0000
0100
0010
0000
1000
0000
,  // measure 14
0001
0000
0010
0001
0000
0100
0001
0000
0100
0001
0000
0010
0001
0000
1000
0000
,  // measure 15
0010
0000
0100
0010
0000
1000
0010
0000
1000
0010
0000
0100
0010
0000
1000
0000
,  // measure 16
0001
0000
0100
0001
0000
0000
0001
0100
0001
0000
0000
1000
0000
0000
1001
0000
,  // measure 17
0000
0000
0011
0000
0000
0011
0000
0000
1010
0000
0000
1010
0000
0000
0110
0000
,  // measure 18
0000
0000
1010
0000
0000
1010
0000
0000
0011
0000
0000
0011
0000
0000
1010
0000
,  // measure 19
0000
0000
0101
0000
0000
0101
0000
0000
1100
0000
0000
1100
0000
0000
0101
0000
,  // measure 20
0000
0000
0110
0000
0000
0110
0000
0000
1001
0000
0000
1100
0000
0000
0001
0000
,  // measure 21
0101
0000
0001
1000
0000
1000
0001
0000
1000
0000
0010
0100
0000
0100
0010
0000
,  // measure 22
1000
0000
0001
0010
0000
0010
0001
0000
1000
0000
0010
0100
0000
0100
0001
0000
,  // measure 23
1000
0010
1000
0010
0100
0001
0100
0001
1000
0100
1000
0100
0010
0001
0010
0001
,  // measure 24
1000
0100
0010
0001
1000
0001
0010
0100
1000
0100
0010
0001
0100
0010
1000
0001
,  // measure 25
2000
0000
0010
0000
0001
0000
3100
0010
,  // measure 26
0002
0100
1000
0013
,  // measure 27
0010
0000
0001
0010
0000
0010
0000
0001
0000
1000
0100
0000
0010
0000
0001
0000
,  // measure 28
1000
0000
0010
1000
0000
1000
0000
0010
0000
0100
0001
0000
1000
0001
0100
0001
,  // measure 29
1000
0000
0010
0100
0000
0001
0010
0100
1000
0000
0001
0000
0100
0000
0010
0000
,  // measure 30
0100
0000
0010
1000
0000
1000
0010
0100
0010
0000
1000
0001
0000
1000
0100
0000
,  // measure 31
0010
0001
0000
0100
0000
0010
1000
0010
0000
1000
0001
0000
1000
0100
0010
0000
,  // measure 32
0001
0000
1000
0010
0000
0010
0000
1000
0000
0001
0010
0000
1000
0100
0010
0000
,  // measure 33
0001
0000
1000
0100
0000
1000
0001
0100
0010
0000
1000
0001
0000
1000
0100
0010
,  // measure 34
0001
0000
1000
0100
0000
0010
0001
0100
0010
0000
0000
1010
0000
0000
0101
0000
,  // measure 35
0101
0000
0001
0100
0000
0010
0000
1010
0000
1000
0001
1000
0100
1000
0010
1000
,  // measure 36
0001
0000
1000
0100
0000
1000
0000
0001
0000
1000
0010
0100
0010
1000
0001
0010
,  // measure 37
0001
0000
1000
0001
1000
0001
1000
0100
0010
0001
1000
0010
1000
0000
0001
0000
,  // measure 38
0100
0000
0010
1000
0010
0100
0010
1000
0010
0000
0000
1010
0000
0000
0101
0000
,  // measure 39
1001
0000
0010
1000
0000
0001
0010
0100
1000
0000
0001
0100
0000
1000
0100
0010
,  // measure 40
0001
0000
1000
0010
0000
0001
0010
0100
1000
0000
0001
0100
0000
1000
0100
0010
,  // measure 41
0001
1000
0001
1000
0000
0001
0010
0100
1000
0100
0010
0001
0000
1000
0001
0000
,  // measure 42
0001
0010
0100
1000
0001
0010
0100
1000
0100
0000
0000
0101
0000
0000
1100
0000
,  // measure 43
0000
0000
0011
0000
0000
0101
0000
0000
1001
0000
0000
1100
0000
0000
0101
0000
,  // measure 44
0000
0000
1010
0000
0000
0011
0000
0000
0101
0000
0000
1100
0000
0000
1001
0000
,  // measure 45
1000
0100
0010
0001
0100
0000
1001
0000
0001
0010
0100
1000
0010
0000
1100
0000
,  // measure 46
1000
0100
0010
0001
1000
0100
0010
0001
1000
0000
0000
0101
0000
0000
1010
0000
,  // measure 47
2000
0000
0000
0001
0000
0000
0010
0000
,  // measure 48
0000
0001
0000
0000
3100
0000
0010
0000
,  // measure 49
0002
0000
0000
0010
0000
0000
0100
0000
,  // measure 50
0000
1000
0000
0000
0103
0000
1001
0000
,  // measure 51
1010
0000
0000
1010
0000
0000
0101
0000
1000
0000
0000
0110
0000
0000
0001
0000
,  // measure 52
1001
0000
0000
1001
0000
0000
0110
0000
0001
0000
0000
0110
0000
0000
1000
0000
,  // measure 53
0011
0000
0000
0101
0000
0000
1000
0000
0101
0000
0000
1001
0000
0000
0010
0000
,  // measure 54
1100
0000
0000
0011
0000
0000
0100
0000
1001
0000
0000
0110
0000
0000
0011
0000
,  // measure 55
1000
0100
0010
0001
0010
0100
1000
0000
0001
0100
0010
1000
0010
0100
0001
0000
,  // measure 56
1000
0100
0010
0001
0010
0100
0010
0001
1000
0100
0010
0001
0010
0100
1000
0001
,  // measure 57
0200
0000
0000
0001
0000
0000
0010
0000
,  // measure 58
0000
0001
0001
0300
1000
0100
0010
0001
,  // measure 59
0100
0000
0001
0100
0000
0010
1000
0000
,  // measure 60
0010
0010
0010
0000
1010
0000
0101
0000
,  // measure 61
0101
0101
0010
0010
0011
0011
1000
1000
,  // measure 62
0110
0110
0010
0010
1010
1010
0001
0001
,  // measure 63
0001
0010
0001
0010
0001
0010
0100
0000
0110
0000
1100
0000
2002
0000
3003
0000
,  // measure 64
0001
0010
0100
0010
0001
0010
0100
0000
1100
0000
1001
0000
0202
0000
0303
0000
,  // measure 65
0010
0000
0100
0010
0000
0100
0010
0000
0001
0000
1000
0000
0001
0000
0000
0000
,  // measure 66
0100
0000
0010
0100
0000
0010
0100
0000
0001
0000
1000
0000
0001
0000
0000
0000
,  // measure 67
0100
1000
0100
0010
0100
0001
0100
0010
,  // measure 68
0110
0000
0000
1100
0000
0000
0011
0000
0100
0000
0000
1000
0000
0000
1001
0000
,  // measure 69
0001
0000
0001
1000
0001
0000
0000
0100
0001
0000
0000
1000
0100
0000
0000
0010
,  // measure 70
0100
0000
0100
1000
0100
0000
0000
0001
1000
0000
0000
0000
0011
0000
0000
0000
,  // measure 71
0100
0100
0000
0001
0001
0000
1000
1000
0010
0000
0000
0000
1001
0000
0000
0000
,  // measure 72
0100
0100
0000
0001
0001
0000
0010
0010
0100
0000
0010
1000
0000
0001
0010
0000
,  // measure 73
0011
0000
1000
0100
0000
0010
0001
0000
1100
0000
0001
0010
0000
0100
1000
0000
,  // measure 74
0101
0000
0010
0100
0000
0010
0100
0000
1001
0000
0100
0010
0000
0100
0010
0000
,  // measure 75
1000
0100
0010
0100
0010
0001
1000
0100
0010
0100
1000
0001
0010
0100
0010
0001
,  // measure 76
1000
0001
0010
0100
1000
0100
0010
0001
1000
0000
0000
0101
0000
0000
1010
0000
,  // measure 77
0000
0000
0011
0000
0000
0101
0000
0000
1001
0000
0000
1010
0000
0000
1100
0000
,  // measure 78
0000
0000
0110
0000
0000
1001
0000
0000
0011
0000
0000
1100
0000
0000
0110
0000
,  // measure 79
0000
0000
1001
0000
0000
0101
0000
0000
0011
0000
0000
1001
0000
0000
0110
0000
,  // measure 80
0000
0000
1001
0000
0000
1010
0000
0000
1100
0000
0000
0011
0000
0000
0110
0000
,  // measure 81
0001
0000
0010
0001
0000
0100
0001
0000
1000
0000
0010
0100
0000
0001
0010
0000
,  // measure 82
0001
0000
1000
0100
0000
0010
0001
0000
1000
0000
0001
0010
0000
0100
1000
0000
,  // measure 83
0001
0010
0001
0010
0100
1000
0100
1000
0001
0010
0100
0010
0001
1000
0100
0010
,  // measure 84
0001
1000
0100
0001
0100
1000
0001
0010
1000
0010
0001
1000
0100
0010
0001
1000
,  // measure 85
2002
0000
0000
0000
,  // measure 86
0000
0000
3003
0000
;

//---------------dance-single - ----------------
#NOTES:
     dance-single:
     :
     Medium:
     12:
     0.555184,0.732238,0.577172,0.084652,0.292434,505.000000,430.000000,75.000000,11.000000,0.000000,0.000000,0.555184,0.732238,0.577172,0.084652,0.292434,505.000000,430.000000,75.000000,11.000000,0.000000,0.000000:
0000
0000
0000
0000
,
0000
0000
0000
0000
,
0000
0000
0000
0000
,
0000
0000
0000
0000
,
0000
0000
0000
0000
,
0000
0000
0000
0000
,
0000
0000
0000
0000
,
0000
0000
0000
0000
,
0000
0000
0000
0000
,
0001
0000
0010
0100
1000
0000
0010
0100
,
0001
0000
1000
0100
0001
0100
1000
0000
,
0001
0000
0100
0010
1000
0000
0100
0010
,
0001
0000
1000
0010
0001
0010
1000
0000
,
0001
0000
0010
0100
0010
0000
0001
0000
,
1000
0000
0010
0100
0010
0000
1000
0000
,
0001
0000
0100
0010
0100
0000
0001
0000
,
2000
0000
0000
0000
0000
0000
0000
0000
0001
0000
0000
0001
0000
0000
3001
0000
,
0000
0000
0001
0000
0000
0001
0000
0000
1001
0000
0000
1001
0000
0000
1001
0000
,
0000
0000
1000
0000
0000
1000
0000
0000
1001
0000
0000
1001
0000
0000
1001
0000
,
0000
0000
0010
0000
0000
0010
0000
0000
0110
0000
0000
0110
0000
0000
0110
0000
,
0000
0000
0100
0000
0000
0100
0000
0000
0110
0000
0000
0110
0000
0000
0100
0000
,
0001
0000
0000
0001
0000
0000
0001
0000
1000
0000
0000
1000
0000
0000
1000
0000
,
0010
0000
0000
0010
0000
0000
0010
0000
0100
0000
0000
0100
0000
0000
0100
0000
,
0001
0010
0001
0010
0100
1000
0100
1000
,
0001
0010
0100
1000
0100
0010
0001
1000
,
2002
0000
0000
0000
,
3003
0000
0000
0000
,
1000
0001
1000
0001
1000
0001
1000
0001
,
1000
0010
1000
0010
1000
0100
1000
1100
,
0001
1000
0001
1000
0001
1000
0001
1000
,
0001
0000
1001
0000
0001
0000
1001
0000
0001
0000
0000
0010
0000
0000
0100
0000
,
0001
0010
0100
1000
0001
0010
0100
1000
,
0001
0010
0100
1000
0001
0100
1000
0000
,
0010
1000
0001
0100
0010
1000
0001
0100
,
0010
0000
1000
0000
0001
0000
0100
0000
0010
0000
0000
1000
0000
0000
0001
0000
,
0100
0000
0000
0100
0001
0000
0000
0001
1000
0000
0010
0000
1000
0000
0001
0000
,
0100
0000
0000
0100
0010
0000
0000
0010
1000
0000
0001
0000
0100
0000
0010
0000
,
1000
0000
0000
1000
0001
0000
0000
0001
0100
0000
0010
0000
1000
0000
0001
0000
,
0100
0000
0000
0100
0001
0000
0000
0001
0100
0000
0000
1001
0000
0000
0010
0000
,
0001
0000
0000
0101
0000
0000
0001
0000
1000
0000
0000
1010
0000
0000
1000
0000
,
0001
0000
0000
1001
0000
0000
1000
0000
0010
0000
0000
0110
0000
0000
0100
0000
,
0001
0010
0100
1000
1000
0100
0010
0001
,
1000
0000
0100
0000
0010
0000
0001
0000
0001
0000
0000
0100
0000
0000
0010
0000
,
0000
0000
1010
0000
0000
1010
0000
0000
1000
0000
0000
1000
0000
0000
1000
0000
,
0000
0000
0101
0000
0000
0101
0000
0000
0001
0000
0000
0001
0000
0000
0001
0000
,
1000
0000
0000
0001
0000
0000
0100
0000
1000
0000
0000
1000
0000
0000
0010
0000
,
0001
0000
0000
0001
0000
0000
0100
0000
1000
0000
0000
1000
0000
0000
0010
0000
,
2002
0000
0000
0000
,
0000
0000
0000
0000
,
0000
0000
0000
0000
,
3003
0000
0000
0000
,
0001
0000
0000
0010
0000
0000
1000
0000
0100
0000
0000
1000
0000
0000
0010
0000
,
0001
0000
0000
0100
0000
0000
1000
0000
0010
0000
0000
1000
0000
0000
0100
0000
,
0001
0000
0000
0001
0000
0000
0010
0000
1000
0000
0000
1000
0000
0000
0100
0000
,
0001
0000
0000
0001
0000
0000
0010
0000
1000
0000
0000
1000
0000
0000
0100
0000
,
1010
0000
0000
0010
0000
0000
1000
0000
0011
0000
0000
0010
0000
0000
0001
0000
,
1010
0000
0000
1010
0000
0000
1010
0000
0101
0000
0000
0101
0000
0000
1000
0000
,
2002
0000
0000
0000
,
0000
0000
3003
0000
,
0001
1000
0010
0100
,
0001
1000
0010
0100
0220
0000
0330
0000
,
0100
0000
0000
0010
0001
0000
0000
0000
0001
0000
0001
0000
0001
0000
0000
0000
,
1000
0000
0000
0100
1000
0000
0000
0000
0001
0000
0001
0000
0100
0000
0000
0000
,
0010
0000
0000
0001
0100
0000
0000
0000
1000
0000
1000
0000
1000
0000
0000
0000
,
0001
0001
0001
0001
0001
0001
0001
0000
,
0010
1000
0000
0000
0001
0000
0000
0001
0100
0000
0100
0000
0001
0000
0001
0000
,
1000
1000
0010
0010
0100
0100
0001
0001
,
1000
0100
0010
0001
1000
0100
0010
0001
,
1000
0000
0010
0000
0100
0000
0001
0000
1000
0000
0000
1001
0000
0000
0001
0000
,
1000
0000
0001
0100
0010
0001
1000
0100
,
0001
1000
0100
1000
0000
0010
0010
0100
,
0001
0000
1000
0100
0010
1000
0001
0100
,
1000
0000
0100
0000
1000
0000
0001
0000
0100
0000
0000
0110
0000
0000
0000
0000
,
0011
0000
0000
1100
0000
0000
0000
0000
1010
0000
0000
0101
0000
0000
0000
0000
,
0110
0000
0000
1001
0000
0000
0000
0000
0011
0000
0000
0101
0000
0000
0000
0000
,
1100
0000
0000
0101
0000
0000
0000
0000
0011
0000
0000
1010
0000
0000
0000
0000
,
0101
0000
0000
1100
0000
0000
0001
0000
0010
0000
0000
0100
0000
0000
1001
0000
,
0000
0000
1100
0000
0000
0011
0000
0000
0110
0000
0000
1001
0000
0000
0110
0000
,
0000
0000
0011
0000
0000
1100
0000
0000
0110
0000
0000
1001
0000
0000
0110
0000
,
0000
0000
1010
0000
0000
0011
0000
0000
1010
0000
0000
0011
0000
0000
1001
0000
,
0000
0000
0101
0000
0000
1100
0000
0000
0101
0000
0000
1100
0000
0000
0010
0000
,
1010
0000
0000
1000
0000
0000
0100
0000
0101
0000
0000
0001
0000
0000
0010
0000
,
0011
0000
0000
0010
0000
0000
0100
0000
0110
0000
0000
0010
0000
0000
0010
0000
,
1000
0100
0010
0001
0001
0010
0100
1000
,
0001
0010
0100
1000
1000
0100
0010
0001
,
2002
0000
0000
0000
,
0000
0000
3003
0000
;

//---------------dance-single - ----------------
#NOTES:
     dance-single:
     :
     Easy:
     7:
     0.351800,0.599104,0.800345,0.307825,0.015391,320.000000,216.000000,104.000000,40.000000,0.000000,0.000000,0.351800,0.599104,0.800345,0.307825,0.015391,320.000000,216.000000,104.000000,40.000000,0.000000,0.000000:
0000
0000
0000
0000
,
0000
0000
0000
0000
,
0000
0000
0000
0000
,
0000
0000
0000
0000
,
0000
0000
0000
0000
,
0000
0000
0000
0000
,
0000
0000
0000
0000
,
0000
0000
0000
0000
,
0000
0000
0000
0000
,
0002
0000
0203
0000
,
2300
0000
3000
0000
,
2000
0000
3020
0000
,
0032
0000
0003
0000
,
0002
1000
1000
1003
,
2000
0100
0100
3100
,
0020
0001
0001
0031
,
0200
0310
0020
0130
,
0000
0101
0000
0000
1100
0000
0000
0000
,
0000
1100
0000
0000
0101
0000
0000
0000
,
0000
0110
0000
0000
1001
0000
0000
0000
,
0000
0011
0000
0000
1100
0000
0000
0000
,
0202
0303
2200
3300
,
2020
3030
0022
0033
,
1100
1100
0101
0101
,
0011
0011
1010
1010
,
2002
0000
0000
0000
,
3003
0000
0000
0000
,
0001
1000
0001
1001
,
0001
0010
0100
1001
,
1000
0100
0010
1001
,
0010
0100
0001
1001
,
0100
0010
1000
1001
,
1000
0001
1000
0001
,
0010
0100
0010
0100
,
1000
0001
2002
3003
,
0001
0010
1100
0010
,
1000
0100
0011
0100
,
0001
0100
1010
0100
,
0001
1000
0110
1001
,
0001
0010
1000
0110
,
1000
0010
0001
0110
,
0202
0303
2020
3030
,
0220
0330
1001
0110
,
0000
0101
0000
0000
2020
0000
3030
0000
,
0000
1100
0000
0000
0022
0000
0033
0000
,
0011
0011
1100
1100
,
0110
1001
0110
1001
,
2002
0000
0000
0000
,
0000
0000
0000
0000
,
3003
0000
0000
0000
,
0000
0000
0000
0000
,
1100
0000
0011
0000
,
1100
0000
0011
0000
,
1010
0000
1010
0000
,
0011
0000
0011
0000
,
0010
0000
0000
0010
0000
0000
0000
0000
0100
0000
0000
0100
0000
0000
0000
0000
,
0001
0000
0000
0001
0000
0000
0000
0000
1000
0000
0000
1000
0000
0000
0000
0000
,
2002
0000
0000
0000
,
0000
0000
0000
0000
,
3003
0000
0000
0000
,
0020
0000
0000
0130
,
1000
0001
0110
0110
,
0001
1000
0110
0110
,
1000
0100
0011
0011
,
0001
0010
1100
1100
,
0001
0010
1000
0101
,
1000
0010
0001
1100
,
0010
0100
1001
0110
,
1000
0100
0011
1001
,
0010
0010
0101
0101
,
0010
0010
1100
1100
,
0001
0010
0100
1000
,
1000
0100
0010
0001
,
0110
0000
1001
0000
,
1100
0000
0011
0000
,
0110
0000
1001
0000
,
0101
0000
1010
0000
,
0000
1001
0000
0000
0110
0000
0000
0000
,
0000
1100
0000
0000
0011
0000
0000
0000
,
0000
0011
0000
0000
1100
0000
0000
0000
,
0000
0110
0000
0000
1001
0000
0000
0000
,
0011
0011
1100
1100
,
0110
0110
1001
1001
,
0001
0010
0100
1000
,
1000
0100
0010
0001
,
2002
0000
0000
0000
,
0000
0000
3003
0000
;

//---------------dance-single - ----------------
#NOTES:
     dance-single:
     :
     Beginner:
     4:
     0.140720,0.294358,0.130826,0.100043,0.000000,128.000000,111.000000,17.000000,13.000000,0.000000,0.000000,0.140720,0.294358,0.130826,0.100043,0.000000,128.000000,111.000000,17.000000,13.000000,0.000000,0.000000:
0000
0000
0000
0000
,
0000
0000
0000
0000
,
0000
0000
0000
0000
,
0000
0000
0000
0000
,
0000
0000
0000
0000
,
0000
0000
0000
0000
,
0000
0000
0000
0000
,
0000
0000
0000
0000
,
0000
0000
0000
0000
,
1000
0000
0000
0000
,
1000
0000
0000
0000
,
0001
0000
0000
0000
,
0001
0000
0000
0000
,
0100
0000
0000
0000
,
0100
0000
0000
0000
,
0010
0000
0000
0000
,
0010
0000
0000
0000
,
0000
1001
0000
0000
0000
0000
0000
0000
,
0000
0110
0000
0000
0000
0000
0000
0000
,
0000
1001
0000
0000
0000
0000
0000
0000
,
0000
0110
0000
0000
0000
0000
0000
0000
,
0010
0000
0010
0000
,
0100
0000
0100
0000
,
1000
0000
0001
0000
,
1000
0000
0001
0000
,
2002
0000
0000
0000
,
3003
0000
0000
0000
,
0100
0000
0001
0000
,
0020
0000
0030
0000
,
0100
0000
1000
0000
,
0020
0000
0030
0000
,
1000
0000
0100
0000
,
0002
0000
0003
0000
,
0001
0000
0100
0000
,
2000
0000
3000
0000
,
0010
0000
0100
0000
,
0002
0000
0003
0000
,
0100
0000
0010
0000
,
2000
0000
3000
0000
,
0001
0000
0100
0000
,
2000
0000
3000
0000
,
1000
0000
0010
0000
,
0002
0000
0003
0000
,
0000
1001
0000
0000
0000
0000
0000
0000
,
0000
0110
0000
0000
0000
0000
0000
0000
,
1000
0000
0001
0000
,
1000
0000
0001
0000
,
1001
0000
0000
0000
,
0000
0000
0000
0000
,
0000
0000
0000
0000
,
0000
0000
0000
0000
,
0010
0000
0010
0000
,
0100
0000
0100
0000
,
1000
0000
0001
0000
,
1000
0000
0001
0000
,
0010
0000
0100
0000
,
1000
0000
0001
0000
,
2002
0000
0000
0000
,
0000
0000
0000
0000
,
3003
0000
0000
0000
,
0020
0000
0030
0000
,
0010
0000
0010
0000
,
0100
0000
0100
0000
,
1000
0000
0001
0000
,
1000
0000
0001
0000
,
0010
0000
1000
0000
,
0100
0000
0001
0000
,
0010
0000
0001
0000
,
0100
0000
1000
0000
,
0001
0000
1000
0000
,
0001
0000
1000
0000
,
0100
0000
0100
0000
,
0010
0000
0010
0000
,
1001
0000
1001
0000
,
1001
0000
1001
0000
,
0010
0000
0000
0000
,
0010
0000
0000
0000
,
0000
1001
0000
0000
0000
0000
0000
0000
,
0000
0110
0000
0000
0000
0000
0000
0000
,
0000
1001
0000
0000
0000
0000
0000
0000
,
0000
0110
0000
0000
0000
0000
0000
0000
,
0010
0000
0001
0000
,
0100
0000
1000
0000
,
0010
0000
0010
0000
,
0010
0010
0010
0010
,
0010
0000
0000
0000
;

//---------------dance-double - ----------------
#NOTES:
     dance-double:
     :
     Easy:
     7:
     0.318819,0.465970,0.492520,0.069261,0.000000,290.000000,226.000000,64.000000,9.000000,0.000000,0.000000,0.318819,0.465970,0.492520,0.069261,0.000000,290.000000,226.000000,64.000000,9.000000,0.000000,0.000000:
00000000
00000000
00000000
00000000
,
00000000
00000000
00000000
00000000
,
00000000
00000000
00000000
00000000
,
00000000
00000000
00000000
00000000
,
00000000
00000000
00000000
00000000
,
00000000
00000000
00000000
00000000
,
00000000
00000000
00000000
00000000
,
00000000
00000000
00000000
00000000
,
00000000
00000000
00000000
00000000
,
00000001
00000001
00000001
00000100
,
00001000
00001000
00001000
00100000
,
10000000
10000000
10000000
01000000
,
00010000
00010000
00010000
00000100
,
00000010
00000010
00000010
00001000
,
00010000
00010000
00010000
00001000
,
01000000
01000000
01000000
00010000
,
10010000
00000000
10010000
00000000
,
00000000
00110000
00000000
00000000
00011000
00000000
00000000
00000000
,
00000000
00000110
00000000
00000000
00001001
00000000
00000000
00000000
,
00000000
00001100
00000000
00000000
00011000
00000000
00000000
00000000
,
00000000
01010000
00000000
00000000
00011000
00000000
00000000
00000000
,
00001100
00000000
00011000
00000000
,
00001100
00000000
00001010
00000000
,
00011000
00000000
00110000
00000000
,
01010000
00000000
00110000
00000000
,
20020000
00000000
00000000
00000000
,
00000000
00000000
00000000
30030000
,
10000000
01000000
00010000
00001000
,
00000100
00001000
00010000
01000000
,
00001000
00010000
00000100
00000010
,
00000100
00010000
00001000
00100000
,
00010000
00100000
01000000
10000000
,
00010000
00100000
00001000
00001000
,
00010000
00001000
00000100
00000010
,
00000001
00000000
00001001
00000000
,
00000010
00001000
00000100
00000100
,
00010000
00001000
01000000
01000000
,
00100000
10000000
01000000
00010000
,
00100000
00001000
00010000
00010000
,
00011000
00000000
00000110
00000000
,
00011000
00000000
01100000
00000000
,
00010000
00100000
01000000
00001000
,
00010000
00000100
00000010
00000001
,
00000000
00000110
00000000
00000000
00001001
00000000
00000000
00000000
,
00000000
00001100
00000000
00000000
00011000
00000000
00000000
00000000
,
00010010
00010000
00101000
00100000
,
10010000
10000000
00110000
00010000
,
00022000
00000000
00000000
00000000
,
00000000
00000000
00000000
00000000
,
00033000
00000000
00000000
00000000
,
00000000
00000000
00000000
00000000
,
10000000
01000000
00010000
00100000
,
00001000
00010000
00000010
00000100
,
00001001
00000000
00001100
00000000
,
00011000
00000000
00110000
00000000
,
10010000
01000000
00100000
00001000
,
00010000
00000010
00000100
00000001
,
00002002
00000000
00000000
00000000
,
00000000
00000000
00000000
00000000
,
00003003
00000000
00000000
00000000
,
00000020
00000000
00000000
00010030
,
00001000
00100000
00010000
01000000
,
10000000
00100000
00010000
01000000
,
00001000
00010000
00000100
00001000
,
00000100
00000010
00001001
00001100
,
00000010
00001000
00000100
00010000
,
00001000
01000000
00100000
10000000
,
01000000
00100000
00001000
00010000
,
00000010
00000100
00001001
00001100
,
00000010
00010000
00001000
01000000
,
00100000
10000000
01000000
00010000
,
00100000
00001000
00010000
00000010
,
00001000
00000100
00000001
00001010
,
00000101
00000000
00001100
00000000
,
00011000
00000000
00110000
00000000
,
10100000
00000000
01010000
00000000
,
00110000
00000000
00011000
00000000
,
00000000
00010010
00000000
00000000
00001010
00000000
00000000
00000101
,
00000000
00001001
00000000
00000000
00001100
00000000
00000000
00010100
,
00000000
00010100
00000000
00000000
00101000
00000000
00000000
00110000
,
00000000
01010000
00000000
00000000
10100000
00000000
00000000
00010000
,
10000000
01000000
00100000
00001000
,
00010000
00000010
00000100
00000001
,
00000010
00001000
00010000
01000000
,
10000000
00100000
00001000
00010000
,
00022000
00000000
00000000
00000000
,
00000000
00000000
00033000
00000000
;

//---------------dance-double - ----------------
#NOTES:
     dance-double:
     :
     Hard:
     16:
     0.755270,1.098358,0.638737,0.069261,0.842671,687.000000,604.000000,83.000000,9.000000,0.000000,0.000000,0.755270,1.098358,0.638737,0.069261,0.842671,687.000000,604.000000,83.000000,9.000000,0.000000,0.000000:
00000000
00000000
00000000
00000000
,
00000000
00000000
00000000
00000000
,
00000000
00000000
00000000
00000000
,
00000000
00000000
00000000
00000000
,
00000000
00000000
00000000
00000000
,
00000000
00000000
00000000
00000000
,
00000000
00000000
00000000
00000000
,
00000000
00000000
00000000
00000000
,
00000000
00000000
00000000
00000000
,
00001000
00000000
00000000
00000100
00000000
00000000
00000010
00000000
00000000
00000001
00000000
00000000
00000100
00000000
00000010
00000000
,
00001000
00000000
00000000
00000100
00000000
00000000
00010000
00000000
00000000
00001000
00000000
00000000
01000000
00000000
00100000
00000000
,
10000000
00000000
00000000
01000000
00000000
00000000
00100000
00000000
00000000
00001000
00000000
00000000
00010000
00000000
00000010
00000000
,
00001000
00000000
00000000
00000001
00000000
00000000
00000010
00000000
00000000
00000100
00000000
00000000
00010000
00000000
00001000
00000000
,
00001000
00000000
00000000
00010000
00000000
00000000
00000010
00000000
00001000
00000001
00000000
00001000
00000001
00000000
00001000
00000000
,
00000010
00000000
00000000
00001000
00000000
00000000
00000100
00000000
00010000
00000100
00000000
00010000
00000100
00000000
00010000
00000000
,
00001000
00000000
00000000
01000000
00000000
00000000
00100000
00000000
01000000
00100000
00000000
01000000
00100000
00000000
10000000
00000000
,
00010000
00000000
00000000
00100000
00000000
00000000
00001000
00000000
00010000
00000000
00000000
00000100
00000000
00000000
00001010
00000000
,
00000000
00000000
00000011
00000000
00000000
00000011
00000000
00000000
00001100
00000000
00000000
00001100
00000000
00000000
00001010
00000000
,
00000000
00000000
00011000
00000000
00000000
00011000
00000000
00000000
00101000
00000000
00000000
00101000
00000000
00000000
01010000
00000000
,
00000000
00000000
10100000
00000000
00000000
10100000
00000000
00000000
00110000
00000000
00000000
00110000
00000000
00000000
01010000
00000000
,
00000000
00000000
00011000
00000000
00000000
00011000
00000000
00000000
00010010
00000000
00000000
00010010
00000000
00000000
00001010
00000000
,
00001000
00000000
00000001
00000100
00000000
00000100
00000001
00000000
00001000
00000000
00000100
00010000
00000000
00010000
00000100
00000000
,
00010000
00000000
00001000
00100000
00000000
00100000
00010000
00000000
01000000
00000000
00100000
10000000
00000000
10000000
01000000
00000000
,
00100000
00000000
00010000
01000000
00000000
01000000
00010000
00000000
00100000
00000000
00010000
01000000
00000000
01000000
00100000
00000000
,
01000000
00100000
01000000
00100000
01000000
00100000
01000000
00100000
01000000
00100000
01000000
00100000
01000000
00000000
00000000
00000000
,
10000000
00000000
00000000
01000000
00000000
00100000
00000000
00010000
00000000
00000000
00001000
00000000
00000100
00000000
00000010
00000000
,
00000001
00000000
00001000
00000010
00000000
00000010
00000000
00000010
00000000
00000000
00001000
00000000
00001100
00000000
00000000
00000000
,
00000001
00000000
00000100
00000010
00000000
00000010
00000000
00010000
00000000
00000000
00001000
00000000
00100000
00000000
00010000
00000000
,
10000000
00000000
01000000
00100000
00000000
00100000
00000000
00001000
00000000
00000000
00010000
00000000
00000100
00000000
00001000
00000000
,
00000010
00000000
00001000
00000010
00000000
00000000
00000100
00000010
00000100
00000000
00000001
00000000
00001000
00000000
00000100
00000000
,
00000010
00000000
00001000
00000010
00000000
00000000
00001000
00000100
00001000
00000000
00000000
00001100
00000000
00000000
00000100
00000000
,
00010000
00000000
00001000
00100000
00000000
00010000
00000000
01000000
00000000
00000000
00100000
00000000
10000000
00000000
01000000
00000000
,
00100000
00000000
00010000
00100000
00000000
00100000
00000000
00001000
00000000
00000000
00010000
00000000
00000010
00000000
00001000
00000001
,
00000100
00000000
00000010
00000100
00000000
00000010
00001000
00000010
00000000
00001000
00000100
00000000
00010000
00000000
00001000
00000000
,
00100000
00000000
00010000
01000000
00000000
00100000
10000000
01000000
00100000
00000000
00000000
00101000
00000000
00000000
00001000
00000000
,
00010000
00000000
00000100
00001000
00000000
00000001
00000000
00000010
00000000
00000100
00010000
00000000
00001000
00000000
00100000
00010000
,
01000000
00000000
00100000
10000000
00000000
01000000
00000000
00100000
00000000
00001000
00010000
00000000
00000100
00001000
00000010
00001000
,
00000100
00000000
00000001
00001000
00000000
00000100
00000000
00010000
00000000
00001000
01000000
00000000
00100000
01000000
10000000
01000000
,
00100000
00000000
01000000
00010000
00000000
00100000
00001000
00000000
00010000
00000000
00000100
00001000
00000000
00000001
00000100
00000000
,
00000101
00000000
00000001
00001000
00000000
00000000
00001100
00000000
00010100
00000000
00001000
00010000
00000000
00000000
00101000
00000000
,
00011000
00000000
00010000
01000000
00000000
00000000
00100000
00000000
10100000
00000000
10000000
00010000
00000000
00000000
00100000
00000000
,
00110000
00010000
01000000
00100000
10000000
01000000
00010000
00001000
,
00000100
00000000
00000001
00000000
00000010
00000000
00000100
00000000
00001000
00000000
00000000
00000001
00000000
00000000
00000110
00000000
,
00000000
00000000
00001010
00000000
00000000
00001100
00000000
00000000
00001010
00000000
00000000
00001001
00000000
00000000
00001100
00000000
,
00000000
00000000
00010100
00000000
00000000
00011000
00000000
00000000
00010010
00000000
00000000
00011000
00000000
00000000
00010100
00000000
,
00001000
00010000
00001000
00010000
00000100
00001000
00000100
00001000
00000001
00000010
00000100
00000010
00000001
00001000
00000100
00010000
,
00001000
00010000
00001000
00100000
00010000
01000000
00100000
10000000
01000000
00100000
00010000
01000000
00001000
00010000
00001000
00000000
,
00020000
00000000
00000000
00000000
,
00000000
00000000
00030000
00000000
,
00020000
00000000
00000000
00000010
00000000
00000000
00000100
00000000
,
00000000
00001000
00000000
00000000
00030100
00000000
00010000
00000000
,
00011000
00000000
00000000
00101000
00000000
00000000
00100000
00000000
00010000
00000000
01000000
00100000
00000000
10000000
01000000
00000000
,
11000000
00000000
00000000
10100000
00000000
00000000
01010000
00000000
01000000
00000000
00010000
00100000
00000000
00010000
01000000
00000000
,
01010000
00000000
00000000
01000000
00000000
00000000
00010000
00000000
00110000
00000000
00000000
00100000
00000000
00000000
00001000
00000000
,
00011000
00000000
00000000
00010000
00000000
00000000
00000100
00000000
00001100
00000000
00000000
00001010
00000000
00000000
00001001
00000000
,
00000001
00000010
00000100
00000010
00000001
00000000
00001000
00000000
00000100
00010000
00001000
00010000
00000100
00000000
00010000
00000000
,
00001000
00100000
00001000
00100000
00010000
01000000
00010000
01000000
00100000
10000000
00100000
10000000
00010000
00100000
01000000
10000000
,
00200000
00000000
00000000
00000000
,
00300000
00000000
00000000
00000000
,
10000000
00000000
00000000
01000000
00000000
00100000
00000000
00010000
00000000
00000000
00001000
00000000
00000100
00000000
00000010
00000000
,
00000001
00000000
00000010
00000100
00000000
00001000
00000000
00000100
00000000
00000000
00010000
00000000
00011000
00000000
00000000
00000000
,
00000100
00001000
00000000
00000000
00000010
00000000
00000001
00000000
00001000
00000000
00000100
00001000
00000000
00000000
00000001
00000000
,
00001000
00000001
00000000
00000000
00000010
00000000
00000100
00000000
00000010
00000000
00000001
00000000
00000100
00001000
00000000
00010000
,
00001000
00010000
00000000
00000000
00100000
00000000
10000000
00000000
00010000
00000000
01000000
00010000
00000000
00000000
10000000
00000000
,
00100000
00000000
01000000
00100000
00000000
10000000
01000000
00100000
00010000
00000000
00100000
00010000
00000000
00000000
00001000
00000000
,
00020000
00000000
00000000
00000000
00130000
00000000
01000000
00000000
10000000
00000000
00010000
10000000
00010000
10000000
00010000
10000000
,
00200000
00000000
00000000
00000000
10300000
00000000
01000000
00000000
00010000
00001000
00010000
00000000
00000100
00000000
00000010
00000001
,
00002000
00000000
00003001
00001000
00020000
00000000
00032000
00000000
,
00003100
00000000
00000010
00000001
00000010
00000000
00000100
00000000
00010000
00000000
00000000
00010100
00000000
00000000
00001100
00000000
,
00000100
00000000
00000001
00000000
00001000
00000100
00001000
00000000
00000100
00000000
00000100
00010000
00000000
00010000
00001000
00000000
,
01000000
00000000
00010000
00000000
10000000
01000000
10000000
00000000
00010000
00000000
00010000
00100000
00000000
00100000
00001000
00000000
,
00010000
00000000
00000010
00000000
00010000
00001000
00010000
00000000
00001000
00000000
00001000
01000000
00000000
01000000
00010000
00000000
,
10000000
00000000
01000000
00000000
00100000
00000000
00010000
00000000
01000000
00000000
00000000
01010000
00000000
00000000
00010000
00000000
,
00100000
00000000
00000000
00011000
00000000
00000000
00010000
00000000
00000010
00000000
00000000
00001010
00000000
00000000
00000001
00000000
,
00001000
00000000
00000000
00001100
00000000
00000000
00010000
00000000
00001000
00000000
00000000
01001000
00000000
00000000
01000000
00000000
,
00100000
10000000
01000000
00100000
00010000
00001000
00000100
00000010
,
00000001
00000000
00000010
00000000
00000100
00000000
00001000
00000000
00000010
00000000
00000000
00000110
00000000
00000000
00001001
00000000
,
00000000
00000000
00000011
00000000
00000000
00000110
00000000
00000000
00001100
00000000
00000000
00011000
00000000
00000000
00110000
00000000
,
00000000
00000000
11000000
00000000
00000000
01100000
00000000
00000000
00110000
00000000
00000000
00011000
00000000
00000000
00001100
00000000
,
00000000
00000000
00000101
00000000
00000000
00001010
00000000
00000000
00011000
00000000
00000000
00101000
00000000
00000000
01010000
00000000
,
00000000
00000000
10100000
00000000
00000000
01010000
00000000
00000000
00011000
00000000
00000000
00010100
00000000
00000000
00001010
00000000
,
00000001
00000010
00000100
00000010
00000001
00001000
00000100
00000000
00001000
00000100
00010000
00001000
00100000
00010000
01000000
00000000
,
00100000
10000000
01000000
00100000
00010000
00100000
00001000
00000000
00010000
00000100
00001000
00000100
00001000
00000010
00000100
00000000
,
00000001
00000010
00000001
00000100
00000010
00000100
00000001
00001000
00000100
00010000
00000100
00010000
00001000
00010000
00001000
00100000
,
00010000
01000000
00100000
10000000
01000000
00100000
01000000
10000000
00010000
00100000
00001000
00010000
00000100
00001000
00000010
00000100
,
00000002
00000000
00000000
00000000
,
00000000
00000000
00000003
00000000
;

//---------------dance-double - ----------------
#NOTES:
     dance-double:
     :
     Medium:
     12:
     0.537594,0.732238,0.469433,0.146217,0.292434,489.000000,428.000000,61.000000,19.000000,0.000000,0.000000,0.537594,0.732238,0.469433,0.146217,0.292434,489.000000,428.000000,61.000000,19.000000,0.000000,0.000000:
00000000
00000000
00000000
00000000
,
00000000
00000000
00000000
00000000
,
00000000
00000000
00000000
00000000
,
00000000
00000000
00000000
00000000
,
00000000
00000000
00000000
00000000
,
00000000
00000000
00000000
00000000
,
00000000
00000000
00000000
00000000
,
00000000
00000000
00000000
00000000
,
00000000
00000000
00000000
00000000
,
00000020
00001000
00000230
00000001
,
00000310
00000000
00000010
00001000
00000100
00010000
00001000
00000000
,
00200000
00010000
02300000
00100000
,
03200000
00000000
00000000
00000000
10300000
00000000
00010000
00000000
10000000
00000000
00000000
00100000
00000000
00000000
01000000
00000000
,
00020000
00100000
02030000
00001000
,
03020000
00000000
00130000
00001000
00100000
00010000
00100000
00000000
,
00002000
00010000
00203000
00010000
,
00302000
00000000
00000000
00000000
00013000
00000000
00000000
00000000
00000100
00000000
00000000
00001000
00000000
00000000
00000010
00000000
,
00000000
00000000
00000110
00000000
00000000
00001001
00000000
00000000
00000110
00000000
00000000
00000110
00000000
00000000
00000110
00000000
,
00000000
00000000
00001100
00000000
00000000
00000011
00000000
00000000
00001100
00000000
00000000
00001100
00000000
00000000
00001100
00000000
,
00000000
00000000
00011000
00000000
00000000
00010100
00000000
00000000
00011000
00000000
00000000
00011000
00000000
00000000
00011000
00000000
,
00000000
00000000
00101000
00000000
00000000
00011000
00000000
00000000
00101000
00000000
00000000
00101000
00000000
00000000
00101000
00000000
,
00100000
00000000
00000000
00010000
00000000
00000000
01000000
00000000
00100000
00000000
00000000
10000000
00000000
00000000
01000000
00000000
,
00100000
00000000
00000000
00010000
00000000
00000000
00001000
00000000
00010000
00000000
00000000
00000100
00000000
00000000
00001000
00000000
,
00010000
00000100
00001000
00000100
00000010
00000001
00000001
00000010
,
00000100
00001000
00000100
00010000
00001000
00100000
00010000
10000000
,
20020000
00000000
00000000
00000000
,
00000000
00000000
00000000
30030000
,
10000000
01000000
10000000
00000000
00010000
00100000
00010000
00000000
,
00100000
00001000
00010000
00001000
00100000
00001000
00010000
00000000
,
00000100
00001000
00000010
00000000
00000100
00000001
00000010
00000000
,
00000001
00001000
00001100
00001000
00000001
00000000
00001000
00000000
,
00000100
00010000
00001000
00000000
00010000
00001000
00100000
00000000
,
00010000
01000000
00100000
01000000
00010000
10000000
00100000
00000000
,
01000000
00010000
00100000
00000000
00100000
00001000
00010000
00000000
,
00000100
00010000
00010100
00010000
00001000
00000000
00110000
00000000
,
10000000
00100000
10000000
01000000
10000000
00100000
01000000
00001000
,
00010000
00000100
00010000
00001000
00010000
00000100
00001000
00000001
,
00000100
00000010
00001000
00000010
00000100
00000001
00000010
00000100
,
00001000
00000100
00010000
00000100
00010000
00001000
00100000
00010000
,
10000000
00000000
00000000
01000000
00000000
00000000
00010000
00000000
00100000
00000000
00000000
00001000
00000000
00000000
00010000
00000000
,
00000010
00000000
00000000
00001000
00000000
00000000
00000100
00000000
00000001
00000000
00000000
00001000
00000000
00000000
00000100
00000000
,
00010000
00001000
00010000
00001000
00000100
00000010
00000001
00001000
,
00000100
00000000
00001000
00000000
00000100
00000000
00010000
00000000
00001000
00000000
00000000
00001010
00000000
00000000
00000101
00000000
,
00000000
00000000
00000110
00000000
00000000
00000100
00000000
00000000
00001001
00000000
00000000
00000100
00000000
00000000
00001010
00000000
,
00000000
00000000
00001100
00000000
00000000
00001000
00000000
00000000
00001010
00000000
00000000
00001000
00000000
00000000
00011000
00000000
,
00001000
00000000
00000000
00000100
00000000
00000000
00000010
00000000
00000001
00000000
00000000
00001000
00000000
00000000
00000100
00000000
,
00010000
00000000
00000000
00001000
00000000
00000000
00100000
00000000
00110000
00000000
00000000
00110000
00000000
00000000
00000000
00000000
,
00022000
00000000
00000000
00000000
,
00000000
00000000
00033000
00000000
,
00100000
00000000
00000000
00010000
00000000
00000000
01000000
00000000
,
00000000
10000000
00000000
00100000
00010000
00010000
00010000
00000000
,
10000000
00000000
00000000
01000000
00000000
00000000
00100000
00000000
00010000
00000000
00000000
00100000
00000000
00000000
00001000
00000000
,
00010000
00000000
00000000
00000010
00000000
00000000
00000100
00000000
00000001
00000000
00000000
00000100
00000000
00000000
00000010
00000000
,
00001000
00000000
00000000
00001000
00000000
00000000
00000100
00000000
00000010
00000000
00000000
00000010
00000000
00000000
00000001
00000000
,
00000100
00000000
00000000
00000100
00000000
00000000
00001000
00000000
00000100
00000000
00000000
00000100
00000000
00000000
00010000
00000000
,
00001000
00000000
00000000
00100000
00000000
00000000
10000000
00000000
00100000
00000000
00000000
10000000
00000000
00000000
01000000
00000000
,
10000000
00000000
00000000
01000000
00000000
00000000
00010000
00000000
01000000
00000000
00000000
00001000
00000000
00000000
00010000
00000000
,
00022000
00000000
00000000
00000000
,
00033000
00000000
00000000
00000000
,
00010000
00001000
00000010
00000100
,
00000001
00000010
00000100
00001000
00000000
00000000
00001001
00000000
,
00001010
00000000
00000000
00000000
00000101
00000000
00000000
00000100
00000000
00000000
00001000
00000000
00010000
00000000
00001000
00000000
,
00000100
00000000
00000000
00001000
00000000
00000100
00000000
00010000
00000000
00000000
00001000
00000000
00100000
00000000
00000000
00000000
,
00010000
01000000
00001000
00010000
00000100
00010000
00001000
01000000
,
00100000
00000000
10000000
00000000
01000000
00000000
00100000
00000000
00010000
00000000
00000000
00100000
00000000
00000000
01000000
00000000
,
10000000
00100000
01000000
00001000
00010000
01000000
01000000
00000000
,
00100000
00001000
00010000
00000010
00010000
00001000
00001000
00000000
,
00000100
00000010
00001000
00000001
00000100
00000010
00001000
00000000
,
00000100
00000000
00010000
00000000
00000100
00000000
00001000
00000000
00000010
00000000
00000000
00001001
00000000
00000000
00000100
00000000
,
00000100
00000000
00000000
00000100
00001000
00000000
00000000
00001000
00000010
00000000
00000000
00000010
00010000
00000000
00000000
00010000
,
00000100
00000000
00000000
00000100
00001000
00000000
00000000
00001000
00000001
00000000
00001000
00000000
00000100
00000000
00010000
00000000
,
00001000
00010000
00100000
01000000
00010000
00100000
01000000
10000000
,
00010000
00000000
00010000
00000000
00010000
00000000
00010000
00000000
10000000
00000000
00000000
00100000
00000000
00000000
00010000
00000000
,
10000000
00000000
00000000
01000000
00000000
00000000
00010000
00000000
00100000
00000000
00000000
00001000
00000000
00000000
00010000
00000000
,
00000100
00000000
00000000
00001000
00000000
00000000
00000010
00000000
00000001
00000000
00000000
00000100
00000000
00000000
00001000
00000000
,
00000100
00000000
00000000
00010000
00000000
00000000
00000100
00000000
00010000
00000000
00000000
00001000
00000000
00000000
01000000
00000000
,
00100000
00000000
00000000
10000000
00000000
00000000
01000000
00000000
00100000
00000000
00000000
00010000
00000000
00000000
01100000
00000000
,
00000000
00000000
10100000
00000000
00000000
10100000
00000000
00000000
00110000
00000000
00000000
00110000
00000000
00000000
00110000
00000000
,
00000000
00000000
00011000
00000000
00000000
00011000
00000000
00000000
00001010
00000000
00000000
00001010
00000000
00000000
00000101
00000000
,
00000000
00000000
00000011
00000000
00000000
00000011
00000000
00000000
00001100
00000000
00000000
00001100
00000000
00000000
00000110
00000000
,
00000000
00000000
00001100
00000000
00000000
00001100
00000000
00000000
00010100
00000000
00000000
00010100
00000000
00000000
00010000
00000000
,
00001000
00000000
00000000
00100000
00000000
00000000
00010000
00000000
10000000
00000000
00000000
01000000
00000000
00000000
00100000
00000000
,
00001000
00000000
00000000
00010000
00000000
00000000
00000010
00000000
00001000
00000000
00000000
00000001
00000000
00000000
00000100
00000000
,
00000010
00000000
00000000
00001000
00000000
00000000
00000100
00000000
00010000
00000000
00000000
00001000
00000000
00000000
00100000
00000000
,
00010000
00000000
00000000
01000000
00000000
00000000
10000000
00000000
01000000
00000000
00000000
00010000
00000000
00000000
00100000
00000000
,
00022000
00000000
00000000
00000000
,
00000000
00000000
00033000
00000000
;

//---------------dance-threepanel - ----------------
#NOTES:
     dance-threepanel:
     :
     Challenge:
     1:
     0.003298,0.103891,0.007696,0.000000,0.000000,3.000000,1.000000,1.000000,0.000000,0.000000,1.000000,0.003298,0.103891,0.007696,0.000000,0.000000,3.000000,1.000000,1.000000,0.000000,0.000000,1.000000:
000
000
000
000
,
000
000
000
000
,
000
000
000
000
,
000
000
000
000
,
000
000
000
000
,
000
000
000
000
,
000
000
000
000
,
000
000
000
000
,
000
000
000
000
,
000
000
000
000
,
000
000
000
000
,
000
000
000
000
,
000
000
000
000
,
000
000
000
000
,
000
000
000
000
,
000
000
000
000
,
000
000
000
000
,
000
000
000
000
,
000
000
000
000
,
000
000
000
000
,
000
000
000
000
,
000
000
000
000
,
000
000
000
000
,
000
000
000
000
,
000
000
000
000
,
000
000
000
000
,
000
000
000
000
,
000
000
000
000
,
000
000
000
000
,
000
000
000
000
,
000
000
000
000
,
000
000
000
000
,
000
000
000
000
,
000
000
000
000
,
000
000
000
000
,
000
000
000
000
,
000
000
000
000
,
000
000
000
000
,
000
000
000
000
,
000
000
000
000
,
000
000
000
000
,
000
000
000
000
,
000
000
000
000
,
000
000
000
000
,
000
000
000
000
,
000
000
000
000
,
000
000
000
000
,
000
000
000
000
,
000
000
000
000
,
000
000
000
000
,
000
000
000
000
,
000
000
000
000
,
000
000
000
000
,
000
000
000
000
,
000
000
000
000
,
000
000
000
000
,
000
000
000
000
,
000
000
000
000
,
000
000
000
000
,
000
000
000
000
,
000
000
000
000
,
000
000
000
000
,
000
000
000
000
,
000
000
000
000
,
000
000
000
000
,
000
000
000
000
,
000
000
000
000
,
000
000
000
000
,
000
000
000
000
,
000
000
000
000
,
000
000
000
000
,
000
000
000
000
,
000
000
000
000
,
000
000
000
000
,
000
000
000
000
,
000
000
000
000
,
000
000
000
000
,
000
000
000
000
,
000
000
000
000
,
000
000
000
000
,
000
000
000
000
,
000
000
000
000
,
000
000
000
000
,
000
000
000
000
,
000
000
000
000
,
000
000
000
000
,
000
000
000
000
,
000
000
000
000
,
000
000
000
000
,
000
000
000
000
,
111
000
000
000
;
