#TITLE:McGarfield=Relinquish;
#SUBTITLE:;
#ARTIST:TT Sound Team "ryk@2020MB";
#TITLETRANSLIT:;
#SUBTITLETRANSLIT:;
#ARTISTTRANSLIT:;
#GENRE:;
#CREDIT:;
#BANNER:McGarfield=Relinquish.png;
#BACKGROUND:McGarfield=Relinquish-bg.png;
#LYRICSPATH:;
#CDTITLE:;
#MUSIC:McGarfield=Relinquish.ogg;
#OFFSET:-2.180000;
#SAMPLESTART:77.620468;
#SAMPLELENGTH:12.842964;
#SELECTABLE:YES;
#DISPLAYBPM:75.000000:300.000000;
#BPMS:0.000000=75.000000
,31.500000=300.000000
,32.000000=149.000000
,59.500000=150.000000
,64.000000=148.600006
,68.000000=149.000000
,90.000000=139.000000
,91.500000=151.000000
,92.000000=150.000000
,110.000000=149.500000
,121.000000=149.899994
,125.000000=148.899994
,130.000000=149.399994
,134.000000=149.899994
,149.000000=299.000000
,157.000000=75.000000
,158.000000=300.000000
,160.000000=150.000000
,172.000000=149.000000
,188.000000=75.000000
,189.916672=300.000000
,190.333328=239.000000
,191.000000=297.000000
,194.000000=300.000000
,204.000000=298.000000
,238.000000=600.000000
,239.500000=573.000000
,240.000000=150.000000
;
#STOPS:31.500000=0.300000,
92.000000=1.200000,
158.000000=0.400002,
238.000000=0.349998,
238.500000=0.349000,
239.000000=0.350000,
239.500000=0.350000
;
#BGCHANGES:;
#KEYSOUNDS:;
#ATTACKS:;

//---------------dance-single - ----------------
#NOTES:
     dance-single:
     :
     Hard:
     16:
     0.820640,1.375249,0.577154,0.288577,0.762023,637.000000,573.000000,64.000000,32.000000,0.000000,0.000000,0.820640,1.375249,0.577154,0.288577,0.762023,637.000000,573.000000,64.000000,32.000000,0.000000,0.000000:
0000
0000
0000
0000
,
0000
0000
0000
0000
,
0001
0000
1000
0000
0000
0000
0001
0100
0001
0000
1000
0000
0100
0000
0001
0000
1000
0000
0010
1000
0000
0000
0001
0000
0100
0000
1000
0000
0001
0000
0010
0000
,
1000
0000
0001
0000
1000
0000
0001
0000
0100
0000
1000
0000
0001
0000
0010
0000
1000
0000
0001
0010
0000
0000
0100
0000
1000
0000
0010
0100
0000
0000
0001
0000
,
2000
0000
3100
0000
0200
0000
0310
0100
0020
0000
0130
0000
0200
0000
0301
0000
0002
0000
0013
0000
0020
0000
0130
0010
0200
0000
0310
0000
0020
0000
1030
0000
,
2000
0000
3001
0000
0002
0000
0103
0001
2000
0000
3010
0000
0020
0000
0130
0000
0200
0000
0301
0000
0002
0000
1003
0010
0200
0000
0310
0000
0020
0000
1030
0000
,
0001
0000
0100
0000
0001
0010
0100
0010
0001
0000
1000
0000
0010
0100
1000
0100
0010
0000
1000
0000
0100
0010
0001
0010
0100
0000
1000
0000
0001
0100
0010
0100
,
0001
1000
0001
1000
0010
0100
0010
0100
0001
0010
0100
1000
0100
0010
0001
1000
0200
0000
0000
0000
0300
0000
0000
0000
0001
0010
0001
0010
0200
0000
0000
0000
,
0301
0000
0000
1000
0000
0001
1000
0000
0001
0010
0100
0000
0010
0100
1000
0000
,
0001
0000
0000
1000
0000
1000
0001
0000
1000
0100
0010
0000
0100
0010
0001
0000
,
0100
0000
0000
0010
0000
0100
0010
0000
1000
0001
0100
0000
0010
0100
0001
0000
,
1000
0000
0000
0100
0000
0010
0001
0000
1000
0001
0100
0000
0001
0010
0100
0010
,
0001
1000
0000
1000
0000
0010
0100
0000
0001
0010
0100
0000
1000
0100
0010
0000
,
0001
0100
0000
1000
0000
0010
0100
0000
0001
1000
0010
0000
0100
0010
1000
0000
,
0001
1000
0000
0001
0000
1000
0100
0000
0010
0001
0010
0000
0100
1000
0100
0000
,
1000
1100
0000
0101
0001
0011
1000
1100
,
0011
0000
0000
1001
0000
0001
0010
0000
0100
1000
0100
0010
0001
0000
1000
0000
,
1001
0000
0000
1010
0000
0100
0010
0000
1000
0001
0100
0010
1000
0000
0001
0000
,
0011
0000
0000
0001
0000
1000
0100
0000
1000
0010
0001
0010
1000
0000
0100
0000
,
0001
0000
0000
1001
0000
0001
0010
0000
0001
1000
0010
1000
0010
0000
1000
0000
,
1002
0000
0000
0000
1000
0000
0000
0000
1003
0000
0001
0000
1000
0100
0010
0000
,
0001
0000
1000
0000
0001
0010
0100
0000
0010
0000
0001
0000
0100
0010
0100
0000
,
0001
0010
0001
0010
0100
1000
0100
1000
0200
0000
0000
0000
0000
0000
0000
0000
,
0310
0000
0000
0000
1001
0000
0000
1100
0000
0000
0101
0000
0001
0000
1000
0000
,
0010
0000
1000
0000
0010
0000
1000
0001
0000
1000
0100
0000
0010
0001
0100
0000
,
0010
1000
0100
0000
1100
0000
0000
0000
0101
0000
0101
0000
1001
0000
1001
0000
,
1010
0010
2000
0002
3003
0010
0100
0001
,
2000
0000
0000
0000
3020
0000
0000
0100
0000
0000
0130
0000
0001
0000
0010
0000
,
1000
0100
0010
0000
1000
0000
0010
0000
0001
0010
0100
0000
0001
0000
0100
0000
,
1000
0100
0010
0000
0001
0100
0001
0100
0010
1000
0010
1000
0001
0010
0100
0010
,
0100
1000
0100
0010
0001
0000
0000
1000
0001
0100
0010
0000
2002
0000
0000
0000
,
3003
0000
1100
0100
0101
0001
0011
0010
,
1010
0010
0011
0001
0101
0100
1100
1000
,
1010
0010
0110
0100
1100
1000
1010
0010
,
0011
0001
1001
1000
1100
0100
0101
0001
,
0011
0010
1010
0100
1010
0100
1010
0100
,
1000
0100
0010
0001
0101
0000
0010
0000
0101
0000
0010
0000
0101
0000
0010
0000
,
0001
0010
0100
1000
0001
0000
0100
0000
0010
0000
1000
0000
0001
0000
0010
0000
,
0100
0010
0001
1000
0100
0010
0100
1000
,
0001
0100
0010
0010
0010
0000
0000
0000
,
1001
0000
0010
0001
0100
0000
0002
0000
1003
0000
0010
1000
0100
0000
0020
0000
,
0031
0000
1000
0100
0010
0000
0001
0000
1100
0000
0110
0000
0001
0010
0100
1000
,
0010
0000
1000
0001
0010
0000
2000
0000
3100
0000
0001
1000
0100
0000
0002
0000
,
1003
0000
0010
0000
0001
0000
0100
0000
0010
0000
1000
0010
0100
0010
1000
0000
,
0001
0000
1000
0100
0010
0000
2000
0000
3001
0000
0010
0100
1000
0000
0020
0000
,
1030
0000
0001
0010
0100
0000
0001
0000
0101
0000
1100
0000
0010
0000
1000
0000
,
0001
0000
1000
0010
0010
0000
1000
0000
0001
0000
0100
0001
0001
0000
1000
0000
,
0001
0000
0010
0000
0100
0000
1000
0000
0010
0000
0100
0000
0001
0010
0100
1000
0001
0000
0000
0000
0000
0000
0000
0000
1000
0000
0000
0000
0100
0000
0000
0000
,
0010
0100
1000
0000
1001
0000
0010
0100
,
1000
0100
0010
0000
1001
0000
0001
0100
,
1000
0100
0001
0000
1001
0000
1000
0010
,
0001
0010
1000
0000
0101
0000
0010
1000
,
0100
0010
0001
0000
1001
0000
0100
0001
,
0010
0100
1000
0000
0011
0000
1000
0010
,
0100
0001
1000
0000
0011
0000
0110
0000
,
1100
0000
0101
0000
1000
0001
1000
0100
,
0010
0001
1000
0001
0010
0100
1000
0010
,
1000
0100
0010
0100
1000
0001
0010
0100
,
1000
0100
0010
0001
1000
0001
0010
0100
,
1000
0001
0010
0100
1001
1100
0011
0110
,
1001
0000
0001
0010
0100
1000
0000
0010
,
1001
0000
0000
0000
;

//---------------dance-single - ----------------
#NOTES:
     dance-single:
     :
     Medium:
     13:
     0.565559,1.017684,0.514028,0.450901,0.293086,439.000000,382.000000,57.000000,50.000000,0.000000,0.000000,0.565559,1.017684,0.514028,0.450901,0.293086,439.000000,382.000000,57.000000,50.000000,0.000000,0.000000:
0000
0000
0000
0000
,
0000
0000
0000
0000
,
0001
1000
0000
0001
0010
0100
1000
0000
1000
0001
0000
1000
0100
0010
0001
0100
,
0001
1000
0000
0001
0100
1000
0010
0000
1000
0100
0000
0010
0001
0100
1000
0000
,
0020
0032
0203
2300
3020
2030
3200
0310
,
0020
2030
3200
0302
0023
0032
0203
0310
,
0002
1003
0002
1003
0002
1003
0002
1003
0020
0130
0020
0130
0020
0130
0020
0130
,
0001
0010
0001
0010
0001
0010
0001
0010
0100
1000
0100
1000
0100
1000
0100
1000
0200
0000
0000
0000
0000
0000
0000
0000
0300
0000
0000
0000
0000
0000
0000
0000
,
0101
0000
0000
0001
0000
0000
0001
0000
1000
0000
0100
0000
0010
0000
0001
0000
,
1010
0000
0000
0010
0000
0000
0010
0000
0001
0000
0100
0000
0010
0000
1000
0000
,
0110
0000
0000
0010
0000
0000
0010
0000
1000
0000
0010
0000
0100
0000
0010
0000
,
1010
0000
0000
1000
0000
0000
1000
0000
0001
0000
0100
0000
0010
0000
0100
0000
,
0110
0000
0000
0010
0000
0000
0010
0000
1000
0000
0100
0000
0010
0000
0100
0000
,
1001
0000
0000
0001
0000
0000
0001
0000
0010
0000
0100
0000
0010
0000
1000
0000
,
1010
0000
0000
0010
0000
0000
0010
0000
1000
0000
0001
0000
1000
0000
0100
0000
,
0020
0030
0000
0001
1000
0001
1000
0010
,
0100
0101
1100
0101
,
0010
0000
1010
0000
0011
0000
1000
0010
,
1010
0101
1010
0011
,
1100
0000
0011
0000
1000
0100
0010
0001
,
0200
0000
0000
0000
0300
0000
0000
0000
0001
0000
0100
0000
0001
0100
0001
0000
,
1000
0000
0010
0000
1000
0010
1000
0000
0010
0000
0100
0000
0010
0100
0010
0000
,
1000
0001
1000
0001
1000
0001
1000
0001
2000
0000
0000
0000
0000
0000
0000
0000
,
3001
0000
0001
1001
0000
1000
0100
0010
,
0001
0000
0010
0000
0100
0000
0000
0010
0000
0000
0010
0000
1000
0000
0010
0000
,
0100
0010
1000
0000
1000
0001
0100
0010
,
0100
0000
0001
0000
1000
0000
0000
1000
0000
0000
0010
0000
0100
0000
0000
0100
,
0000
0001
2000
0000
0000
0000
3001
0100
,
0001
0000
0100
0000
0010
0000
0000
0010
0000
0000
0010
0000
1000
0000
0100
0000
,
0010
0001
1000
0000
1000
0100
1000
0010
,
0100
0000
0001
0000
1000
0000
0000
0001
0000
0000
0100
0000
0020
0000
0000
0000
,
0130
1100
0101
0011
,
1010
0011
0101
1100
,
1010
0110
1100
1010
,
0011
1001
1100
0101
,
0011
0000
1000
0010
1000
0010
1000
0100
,
0010
0001
0100
0001
0100
0001
0010
0100
,
1000
0010
0200
0000
0000
0000
0000
0000
,
0000
0020
0000
0000
,
0000
0300
0130
0100
0100
0000
0000
0000
,
1010
0000
0000
0010
1000
0000
0001
0000
0100
0000
0000
0001
0100
0000
0010
0000
,
1000
0000
0000
0010
0100
0000
0010
0000
1000
0000
0100
0000
1100
0000
0000
0000
,
0010
0000
0000
0001
0100
0000
0010
0000
0100
0000
0000
1000
0010
0000
0100
0000
,
0010
1000
1010
1000
0001
0010
0011
0010
,
0001
0000
0000
0100
0010
0000
1000
0000
0001
0000
0000
1000
0100
0000
0010
0000
,
1000
0000
0000
0001
0010
0000
0100
0000
0001
0000
0100
0000
0110
0000
0000
0000
,
0001
0000
0000
0100
0001
0000
1000
0000
0010
0000
0000
1000
0100
0000
0010
0000
,
0001
0010
0100
1000
0100
0010
0001
0000
2002
0000
0000
0000
3003
0000
0000
0000
,
2200
3300
0022
0033
,
0110
1010
0220
0330
,
2200
3300
0010
0001
,
0100
1000
0220
0330
,
2020
3030
0022
0033
,
0100
0010
2020
3030
,
0022
0000
0033
0000
1000
0010
1000
0010
,
0100
0001
0100
0001
1000
0000
0010
0100
,
0010
0000
1000
0000
0001
0000
0100
0010
,
0100
0000
0001
0000
1000
0000
0001
0010
,
0001
0000
1000
0000
0010
0100
0010
0100
,
0010
0100
0010
0000
1010
0101
1010
0101
,
1000
0000
0001
0001
1000
0100
0000
1000
,
1001
0000
0000
0000
;

//---------------dance-single - ----------------
#NOTES:
     dance-single:
     :
     Challenge:
     17:
     0.890208,1.347744,0.495991,0.171343,1.041582,691.000000,636.000000,55.000000,19.000000,0.000000,0.000000,0.890208,1.347744,0.495991,0.171343,1.041582,691.000000,636.000000,55.000000,19.000000,0.000000,0.000000:
0000
0000
0000
0000
,
0000
0000
0000
0000
,
0001
0000
0010
0000
0000
0000
1000
0100
0010
0000
1000
0000
0100
0000
0001
0000
1000
0000
0010
1000
0000
0001
0100
0000
0010
0000
1000
0000
0001
0010
0100
0000
,
1000
0000
0001
0000
1000
0000
0001
0000
0100
0000
1000
0000
0001
0000
0010
0000
1000
0000
0001
0010
0000
0000
0001
1000
0010
0000
0010
0100
0000
0000
0001
0000
,
2000
0000
3100
0000
0020
0000
0031
0000
0200
0000
0310
0000
0002
0000
0013
0000
2000
0000
3100
0000
0020
0000
0031
0000
2000
0000
3010
0000
0001
0010
0100
1000
,
0002
0000
0013
0000
2000
0000
3100
0000
0020
0000
0130
0000
0002
0000
0103
0000
2000
0000
3010
0000
0002
0000
1003
0000
0001
0010
0100
0010
0100
1000
0010
0100
,
0001
1000
0101
1000
0010
1000
0110
1000
0001
0100
0011
0100
0010
1000
0110
1000
,
0001
0010
0100
1000
0010
0100
0001
0100
1000
0100
0010
1000
0100
0010
0001
1000
0010
0000
0000
0000
0000
0000
0000
0000
0001
0010
0100
0010
0200
0000
0000
0000
,
0310
0001
0000
1000
0000
0010
0100
0000
0001
0010
0100
0000
0010
0001
0100
0000
,
0010
1000
0000
0001
0000
1000
0100
0000
0010
0001
0100
0000
0010
1000
0010
0100
,
0010
1000
0000
0001
0000
0010
0001
0000
1000
0100
0010
0000
0100
0001
1000
0000
,
0001
0010
0000
1000
0000
0001
0100
0000
0001
0100
0010
1000
0010
1000
0100
0010
,
0001
1000
0000
0010
0000
1000
0100
0000
0001
0010
0100
0000
0010
0100
1000
0000
,
0001
0010
0000
1000
0000
0010
0100
0000
0001
1000
0100
1000
0001
0010
0001
1000
,
0100
1000
0000
0001
0000
0100
0010
0000
1000
0100
0010
0000
0100
0010
0001
0000
,
1100
0101
0000
0011
1010
1100
1010
0011
,
1000
0001
0000
1000
0000
0010
0100
0000
0001
0010
0100
0010
0001
1000
0100
0010
,
0001
1000
0000
0001
0000
1000
0010
0000
1000
0010
0100
0010
0001
0010
1000
0010
,
0100
0001
0000
1000
0000
0001
1000
0000
0001
0010
0100
0010
0001
0010
1000
0010
,
0001
0100
0000
0010
0000
1000
0001
0000
1000
0100
0010
0001
1000
1000
0001
0001
,
1002
0000
0000
0000
1000
0000
0000
0000
1003
0000
0001
0000
1000
0100
0010
0000
,
0001
0000
1000
0000
0001
0010
0100
0000
0010
0000
0001
0000
0100
0010
1000
0001
,
1000
0000
0000
0100
0000
0000
1000
0000
0000
0100
0000
0000
0010
0000
0001
0000
0100
0000
0010
0000
1000
0000
0100
0000
0020
0000
0000
0000
0000
0000
0000
0000
0000
0000
0000
0000
0000
0000
0000
0000
0000
0000
0000
0000
0000
0000
0000
0000
,
0031
0000
0000
0000
0001
0000
0000
1001
0000
0000
1000
0000
0010
0000
0001
0000
,
0010
0000
1000
0000
0001
0000
1000
0010
0000
1000
0100
0000
0010
0000
0001
0000
,
1000
0100
0010
0001
1000
0000
0010
0000
0001
0000
1000
0000
0100
0000
0001
0000
,
1000
0000
0010
0000
0100
0000
0001
0100
0000
0010
1000
0000
0010
0000
0100
0010
,
0000
1000
0001
0000
1000
0000
0100
0000
1000
0000
0001
0000
1000
0000
1000
0000
,
0010
0100
0010
0000
1000
0000
1000
0000
0001
0010
0001
0000
1000
0000
1000
0000
,
0010
0100
0010
1000
0010
0000
1000
0100
0010
0000
0001
0000
1000
0010
1000
0000
,
0001
0010
0100
0010
0002
0000
0000
1003
0001
0100
0010
0000
2002
0000
0000
0000
,
3003
0000
0000
0000
1001
0000
0010
0000
1000
0100
0010
0000
1001
0000
0100
0000
,
0001
0010
0100
0000
1001
0000
1000
0000
0001
0100
0010
0000
1010
0000
0010
0000
,
0100
0001
1000
0000
1001
0000
1100
0000
0001
0100
0010
1000
1010
0000
0110
0000
,
1000
0100
0010
0001
0011
0000
0110
0000
0001
1000
0010
1000
1010
0000
0100
0000
,
0001
1000
0100
0010
0011
0000
1000
0100
1100
0000
0001
0100
0101
0000
0010
1000
,
0100
0010
0001
0100
0101
0000
0010
0001
0101
0000
1000
0001
1001
0000
0010
1000
,
0001
0010
0001
1000
0010
1000
0001
0000
0000
0100
0000
0000
0010
0000
0000
1000
0000
0000
0001
0000
0000
0010
0000
0000
,
0100
0010
0001
1000
0100
0010
0100
1000
,
0001
0100
0010
0010
0010
0000
0000
0000
,
1001
0000
0001
0010
0100
0000
0001
0000
1000
0000
0010
0100
1000
0000
0001
0000
,
1000
0000
0100
0010
0001
0000
1000
0000
0101
0000
0011
0000
1010
0000
0001
0000
,
0100
0000
0001
1000
0100
1000
0001
0000
0010
0000
0001
1000
0100
1000
0010
0000
,
1000
0100
0010
0001
0010
0100
0010
0001
1000
0000
0001
0100
0010
0000
1000
0000
,
0011
0000
0100
0010
1000
0000
0110
0000
1000
0000
0001
0100
0010
0000
1001
0000
,
0010
0000
1000
0100
0010
0000
1010
0000
0101
0000
0101
0000
1001
0000
0010
1000
,
0100
0000
0010
0001
0100
0000
0001
1000
0001
1000
0010
0100
0010
1000
0100
0010
,
0001
0100
1000
0001
0010
1000
0010
0001
1000
0000
0000
0000
0010
0000
1000
0000
,
0100
0010
0001
1000
1001
0000
0010
0001
,
1000
0100
0010
0001
0011
0000
0001
0100
,
1000
0100
0001
0100
0101
0000
1000
0010
,
1000
0010
0100
0010
0110
0000
0001
0010
,
0100
0010
0001
0100
0101
0000
0010
1000
,
0100
0010
0001
0010
0011
0000
0001
1000
,
0001
0100
0010
1000
1010
0000
0001
0010
,
0100
0000
0010
0000
0100
0000
0010
0000
0100
0000
0010
0000
1000
0000
0000
0000
0000
0000
0001
0000
0000
0010
0000
0000
,
0100
0000
0000
0010
0000
0000
0001
0000
0010
0000
0001
0000
0010
0000
0000
0000
0000
0000
0001
0000
0000
0100
0000
0000
,
0010
0000
0000
1000
0000
0000
0001
0000
0010
0000
0001
0000
0100
0000
0000
0000
0000
0000
0010
0000
0000
1000
0000
0000
,
0010
0000
0100
0000
0010
0000
1000
0000
0010
0000
1000
0000
0001
0000
0000
0000
0000
0000
1000
0000
0000
0100
0000
0000
,
1000
0000
0100
0000
1000
0000
0001
0000
0100
0000
0001
0000
1000
0000
0000
0011
0000
0000
1100
0000
0000
0110
0000
0000
,
1001
0000
0001
0010
0100
1000
0000
0110
,
1001
0000
0000
0000
;

//---------------dance-single - ----------------
#NOTES:
     dance-single:
     :
     Easy:
     8:
     0.416118,0.467585,0.568136,0.099198,0.000000,323.000000,260.000000,63.000000,11.000000,0.000000,0.000000,0.416118,0.467585,0.568136,0.099198,0.000000,323.000000,260.000000,63.000000,11.000000,0.000000,0.000000:
// measure 0
0000
0000
0000
0000
,  // measure 1
0000
0000
0000
0000
,  // measure 2
1000
0000
0001
1000
0010
0000
1000
0001
,  // measure 3
0100
0000
0001
0010
0100
0000
1000
0100
,  // measure 4
0010
0010
0010
0010
1000
0010
0001
0000
,  // measure 5
0100
0100
0100
0100
0001
0100
1000
0000
,  // measure 6
0001
0001
0001
0100
1000
1000
1000
0100
,  // measure 7
0001
0010
1000
0100
0002
0000
0003
0000
,  // measure 8
1000
0000
0010
0000
1000
0010
0100
0010
,  // measure 9
1000
0000
0001
0000
1000
0100
0010
0100
,  // measure 10
1000
0000
0001
0000
0010
0001
0100
0001
,  // measure 11
0010
0000
0001
0000
1000
0010
0100
0010
,  // measure 12
1000
0000
1001
0000
0001
0010
0100
0010
,  // measure 13
0001
0000
1001
0000
1000
0100
0010
0100
,  // measure 14
1000
0000
0110
0000
1000
0001
0100
0001
,  // measure 15
2000
3000
0001
1001
,  // measure 16
0010
0000
1010
0000
0010
0100
0010
0100
,  // measure 17
0010
0000
1001
0000
0100
0010
0100
0010
,  // measure 18
0100
0000
1001
0000
0010
0001
0010
0001
,  // measure 19
0010
0000
1001
0000
1000
0100
0010
0000
,  // measure 20
1100
0000
0101
0000
0001
0100
0010
0000
,  // measure 21
1001
0000
0110
0000
1000
0001
0100
0000
,  // measure 22
0200
0000
0020
0000
,  // measure 23
0330
0000
0001
0000
0000
0000
1000
0001
,  // measure 24
1000
0000
0010
0000
0010
0000
1000
0001
,  // measure 25
1000
0000
0100
0000
1001
0000
0010
1000
,  // measure 26
0010
0100
1001
0010
,  // measure 27
1001
0000
1000
0000
0001
0000
1000
0100
,  // measure 28
1000
0000
0001
0000
0100
0000
0001
0010
,  // measure 29
0001
0000
1000
0000
0010
0000
0100
0010
,  // measure 30
0100
0001
0100
2002
,  // measure 31
3003
0010
0010
0010
,  // measure 32
1000
0001
1000
0000
1000
0000
1000
0000
,  // measure 33
0001
0100
0001
0000
0001
0000
0001
0000
,  // measure 34
0100
0010
0100
0000
0100
0000
0100
0000
,  // measure 35
0001
0100
0001
0000
1001
0000
1000
0000
,  // measure 36
1001
0010
0110
0100
,  // measure 37
0110
2002
0000
0000
,  // measure 38
0000
0000
0000
0000
,  // measure 39
0000
0003
3001
0001
0001
0000
0000
0000
,  // measure 40
1010
0011
1010
0011
,  // measure 41
1100
0000
0101
0000
1000
0001
1000
0000
,  // measure 42
0011
1010
0011
1010
,  // measure 43
0001
0100
0001
0100
0001
0100
0001
0000
,  // measure 44
0110
1001
1100
0011
,  // measure 45
1010
0000
0101
0000
1000
0001
1000
0000
,  // measure 46
0011
1100
0101
1010
,  // measure 47
0020
0130
0101
0000
,  // measure 48
1100
0000
0101
0000
,  // measure 49
1100
0000
0101
0000
,  // measure 50
1100
0000
0001
0100
,  // measure 51
0001
0000
1010
0000
,  // measure 52
0011
0000
1010
0000
,  // measure 53
0011
0000
1010
0000
,  // measure 54
0011
0000
1000
0100
,  // measure 55
0010
0000
1001
0000
,  // measure 56
1001
0000
0010
0100
,  // measure 57
0010
0000
0110
0000
,  // measure 58
0110
0000
0001
1000
,  // measure 59
0001
0000
0000
0000
1001
1001
1001
1001
,  // measure 60
1001
0000
0010
0010
0010
0010
0000
2002
,  // measure 61
3003
0000
0000
0000
;

//---------------dance-single - ----------------
#NOTES:
     dance-single:
     :
     Beginner:
     5:
     0.213856,0.302555,0.000000,0.036072,0.000000,166.000000,166.000000,0.000000,4.000000,0.000000,0.000000,0.213856,0.302555,0.000000,0.036072,0.000000,166.000000,166.000000,0.000000,4.000000,0.000000,0.000000:
// measure 0
0000
0000
0000
0000
,  // measure 1
0000
0000
0000
0000
,  // measure 2
0001
1000
0001
1000
,  // measure 3
0010
0100
0010
0100
,  // measure 4
0001
0010
0100
1000
,  // measure 5
1000
0100
0010
0001
,  // measure 6
1000
0001
1000
0001
,  // measure 7
1000
1000
1000
1000
2000
0000
3000
0000
,  // measure 8
0001
0000
0001
0000
,  // measure 9
1000
0000
1000
0000
,  // measure 10
0001
0000
0001
0000
,  // measure 11
1000
0001
1000
0001
,  // measure 12
0100
0000
0100
0000
,  // measure 13
0010
0000
0010
0000
,  // measure 14
0100
0000
0100
0000
,  // measure 15
0001
1000
0001
1000
,  // measure 16
0001
0001
0001
0000
,  // measure 17
1000
1000
1000
0000
,  // measure 18
0010
0010
0010
0000
,  // measure 19
0100
0100
0100
0000
,  // measure 20
0001
1000
0001
1000
,  // measure 21
0010
0100
0010
0100
,  // measure 22
0020
0000
0000
0000
,  // measure 23
0030
1000
0000
0001
,  // measure 24
1000
0001
0000
1000
,  // measure 25
0001
1000
0000
0010
,  // measure 26
0100
0010
0000
0100
,  // measure 27
0100
0100
0000
0001
,  // measure 28
0000
0010
0000
1000
,  // measure 29
0000
0100
0000
1000
,  // measure 30
0000
0010
0000
0001
,  // measure 31
0000
1000
0001
1000
,  // measure 32
0001
0100
0010
0100
,  // measure 33
0010
1000
0100
0010
,  // measure 34
0001
1000
0100
0010
,  // measure 35
0001
0100
0100
0100
,  // measure 36
0100
0010
0010
0010
,  // measure 37
0010
2000
0000
0000
,  // measure 38
0000
0000
0000
0000
,  // measure 39
0000
3000
0000
0000
,  // measure 40
0001
1000
0001
1000
,  // measure 41
0010
0010
0100
0100
,  // measure 42
1000
0001
1000
0001
,  // measure 43
0100
0100
0010
0010
,  // measure 44
1000
0100
0010
0001
,  // measure 45
1000
1000
0001
1000
,  // measure 46
0001
0010
0100
1000
,  // measure 47
0001
0000
0010
0000
,  // measure 48
0010
0000
0010
0000
,  // measure 49
0010
0000
0010
0000
,  // measure 50
0010
0000
0010
0000
,  // measure 51
0000
0000
0100
0000
,  // measure 52
0100
0000
0100
0000
,  // measure 53
0100
0000
0100
0000
,  // measure 54
0100
0000
0100
0000
,  // measure 55
0000
0000
0001
0000
,  // measure 56
0001
0000
0001
0000
,  // measure 57
0000
0000
1000
0000
,  // measure 58
1000
0000
1000
0000
,  // measure 59
0000
0000
0000
0000
0001
0001
0001
0001
,  // measure 60
0001
0000
0000
0000
0000
0000
0000
2000
,  // measure 61
3000
0000
0000
0000
;
