#TITLE:Mare Nectaris;
#SUBTITLE:;
#ARTIST:神楽;
#TITLETRANSLIT:;
#SUBTITLETRANSLIT:;
#ARTISTTRANSLIT:KAGURA;
#GENRE:;
#CREDIT:;
#BANNER:Mare Nectaris.png;
#BACKGROUND:Mare Nectaris-bg.png;
#LYRICSPATH:;
#CDTITLE:;
#MUSIC:Mare Nectaris.ogg;
#OFFSET:0.136000;
#SAMPLESTART:107.676247;
#SAMPLELENGTH:15.000000;
#SELECTABLE:YES;
#BPMS:0.000000=128.000000
,56.000000=256.000000
,136.000000=128.000000
,234.000000=256.000000
;
#STOPS:234.000000=1.406000
;
#BGCHANGES:;
#KEYSOUNDS:;
#ATTACKS:;

//---------------dance-single - ----------------
#NOTES:
     dance-single:
     :
     Hard:
     17:
     0.725735,0.800658,0.535557,0.359588,0.321334,664.000000,594.000000,70.000000,47.000000,0.000000,0.000000,0.725735,0.800658,0.535557,0.359588,0.321334,664.000000,594.000000,70.000000,47.000000,0.000000,0.000000:
// measure 0
0000
0000
0000
0000
,  // measure 1
0000
0000
0000
0000
,  // measure 2
0000
0000
0000
0000
,  // measure 3
0000
0000
0000
0000
,  // measure 4
0000
0000
0000
0000
,  // measure 5
2001
0100
0020
3030
0102
0010
2000
3003
,  // measure 6
1020
0100
2000
3030
0201
0010
0002
0303
,  // measure 7
0120
1000
0200
0330
2010
0001
0200
3300
,  // measure 8
0012
0100
2000
3003
2200
0300
0001
3010
,  // measure 9
1000
0100
0010
0001
0010
0100
0010
0001
,  // measure 10
1000
0100
0001
0100
1000
0010
0001
1000
,  // measure 11
0100
0010
0001
1000
0001
0010
1000
0001
,  // measure 12
0100
0010
1000
0001
0010
0100
1000
0001
,  // measure 13
2000
0000
0000
0000
0000
0000
0000
0000
0002
0000
3003
0000
0010
0100
0010
0000
,  // measure 14
1001
0000
0000
0000
0000
0000
0010
0000
0000
0110
0000
0000
0000
0000
0000
0000
0000
0000
1000
0000
0100
0000
0010
0000
,  // measure 15
0001
0000
0000
0000
1000
0000
1100
0000
0000
0000
0000
0000
0010
0001
0010
0001
,  // measure 16
0010
0000
0000
0001
0010
0100
0010
0001
,  // measure 17
1000
0010
1000
0010
0000
0000
2000
0000
,  // measure 18
3010
0000
0100
0101
0000
0000
1000
0010
,  // measure 19
1000
0000
0100
0010
1000
0001
0100
0010
,  // measure 20
1000
0000
0010
0000
0100
0001
0100
0001
0100
0000
0001
0000
1000
0010
1000
0010
,  // measure 21
2000
0000
0020
3030
,  // measure 22
0110
0000
1010
0000
0101
0000
0001
0010
,  // measure 23
0100
0000
0110
0000
1000
0010
0001
0010
,  // measure 24
1000
0000
0101
0000
1000
0010
1000
0010
,  // measure 25
0110
0000
1010
0000
0101
0001
1000
0010
,  // measure 26
1000
0101
0011
1010
,  // measure 27
1001
0000
0101
0001
0000
0001
1000
0010
,  // measure 28
1000
0000
0100
0000
0010
0001
0010
0001
0010
0000
0001
0000
0100
0010
0100
0010
,  // measure 29
0200
0000
0301
0010
0100
0010
0001
1000
,  // measure 30
0010
0000
0000
0000
1000
0001
1000
0001
,  // measure 31
0100
0000
0100
0000
0001
1000
0001
1000
,  // measure 32
0010
0000
0010
0000
1000
0100
0010
0001
,  // measure 33
0000
0100
0010
0000
2002
0000
3003
0000
,  // measure 34
0001
0100
1000
0010
0002
0000
0013
1000
,  // measure 35
0200
0000
0301
0010
0020
0000
0230
0000
,  // measure 36
0310
0001
1000
0100
0020
0000
0031
0100
,  // measure 37
0020
0000
0030
0000
1000
0100
1000
0010
0000
0100
0001
0010
0001
1000
0100
0010
,  // measure 38
0001
0100
1000
0100
0002
0000
0013
1000
,  // measure 39
0200
0000
0301
1000
0020
0000
2030
0000
,  // measure 40
3001
0010
1000
0001
0100
1000
0010
0001
,  // measure 41
0200
0000
0000
0010
0000
0000
0310
0000
0000
0000
2002
0000
0000
0000
3003
0000
,  // measure 42
0010
0000
1000
0100
0010
0000
0001
0000
1000
0000
0001
0100
0010
0000
0100
0000
,  // measure 43
0001
1000
0010
0000
1000
0000
0001
0010
0100
0000
0010
0000
0001
1000
0100
0000
,  // measure 44
1000
0000
0001
0000
1000
0010
1000
0000
0001
0000
0100
0010
1000
0000
0010
0000
,  // measure 45
0100
0010
0100
0000
0001
0000
1000
0100
0010
0000
0001
0000
0100
1000
0100
0001
,  // measure 46
0100
0000
0010
0000
1000
0000
0001
0000
1000
0000
0100
0010
0001
0000
1000
0000
,  // measure 47
0010
0100
0001
0000
1000
0000
0010
0100
0010
0000
1000
0000
0001
0100
1000
0000
,  // measure 48
0100
0000
0001
0000
1000
0100
0010
0000
0001
0000
1000
0000
0010
0100
0001
0100
,  // measure 49
0010
0000
1000
0000
0010
1000
0001
0000
1000
0000
0000
0001
0000
0000
0100
0000
,  // measure 50
0020
0000
1000
0000
0000
0000
0000
0000
1030
0000
0001
0000
1000
0100
0010
0001
,  // measure 51
1000
0000
0001
0000
0001
0010
0100
1000
0010
0000
0000
0110
0000
0000
1001
0000
,  // measure 52
0000
0000
0110
0000
0000
0000
1000
0000
1001
0000
1000
0000
0010
0100
0001
1000
,  // measure 53
0001
0000
0100
0000
0010
0001
0100
0010
1000
0000
0000
0110
0000
0000
0001
0000
,  // measure 54
2000
0000
0000
0000
3020
0000
0000
0000
0130
0000
0001
0000
0010
1000
0010
0100
,  // measure 55
0001
0000
1000
0000
0001
0010
0001
0100
0010
0000
0000
1010
0000
0000
0101
0000
,  // measure 56
0000
0000
0110
0000
0000
0000
0010
0000
1010
0000
0001
0000
1000
0010
0001
0010
,  // measure 57
1000
0000
0001
0000
0100
1000
0100
0001
0100
0000
0000
0010
0000
0000
1010
0000
,  // measure 58
0000
0000
0000
0000
0000
0000
0000
0000
0101
0000
0000
0000
0000
0000
0000
0000
0000
0000
0000
0000
0000
0000
0000
0000
0100
0000
0000
0000
0000
0000
0000
0000
0220
0330
0000
0000
0000
0000
0000
0000
0000
0000
0000
0000
0000
0000
0000
0000
0000
0000
0000
0000
0000
0000
0000
0000
0000
0000
0000
0000
0000
0000
0000
0000
,  // measure 59
1010
0110
0102
1000
,  // measure 60
1000
0000
0000
0013
0000
0000
0101
0000
,  // measure 61
2001
0000
0000
0010
0000
0000
3100
0000
,  // measure 62
0010
0000
0011
0000
0001
0100
0010
0000
,  // measure 63
1010
0101
0210
0310
,  // measure 64
2010
0000
0000
0100
0000
0000
3010
0000
,  // measure 65
0102
0000
0000
0010
0000
0000
1003
0000
,  // measure 66
0010
0000
0110
0000
0001
0100
0010
0000
,  // measure 67
1100
0000
1000
1100
0000
0010
0001
0000
,  // measure 68
0101
0000
0000
0000
0001
0000
0101
0000
0000
0000
0010
0000
0100
0010
0100
0010
,  // measure 69
0100
0000
0010
1010
0000
0100
0010
0000
,  // measure 70
1000
0100
0010
0001
0000
1000
0001
1000
,  // measure 71
0010
0000
1000
1010
0000
0001
0100
0001
,  // measure 72
0101
0000
1000
1010
0000
0001
0010
0001
,  // measure 73
1000
0100
1000
0001
0010
0001
1000
0100
,  // measure 74
0010
0000
0000
0000
0001
0000
0000
0000
0010
0000
0000
0000
0001
0000
0000
0000
1000
0000
0000
0000
0010
0000
0000
0000
1000
0000
0000
0000
0001
0000
0000
0000
0010
0000
0000
0000
0001
0000
0000
1000
0000
0000
0001
0000
0000
1000
0000
0000
,  // measure 75
0001
1001
1100
0011
,  // measure 76
0110
0000
0000
0000
1010
0000
0000
0000
0100
0000
0001
0000
0100
0010
0100
0000
,  // measure 77
0010
1000
0010
1000
0001
0010
0001
1000
,  // measure 78
0010
0001
0010
1000
0001
1000
0010
1000
,  // measure 79
0100
0010
0001
0001
0000
0010
0010
0010
,  // measure 80
1000
0000
0000
0000
0001
0000
0000
0000
1000
0000
0000
0000
0010
0100
0010
0100
,  // measure 81
0010
0000
1000
0000
0001
0010
0100
1000
,  // measure 82
0000
0000
1000
0000
0100
0000
0010
0000
0001
0000
1000
0000
0001
1000
0001
1000
,  // measure 83
0001
0000
0000
0000
1010
0000
0000
0000
0101
0000
0000
0000
0010
0000
0100
0010
,  // measure 84
0100
0000
0000
0000
0101
0000
0000
0000
1010
0000
0010
0000
0100
0000
0010
0100
,  // measure 85
0010
0000
0000
0000
1010
0000
0000
0000
0011
0000
0000
0000
1000
0000
0100
1000
,  // measure 86
0100
0000
1000
0000
0010
0010
0100
0100
,  // measure 87
0001
0000
1000
1000
0000
0001
0001
0001
,  // measure 88
0100
0000
0010
0000
0100
0010
0100
0010
1000
0000
0001
0000
0010
0001
0010
0001
,  // measure 89
1000
0000
0010
0000
1000
0100
0010
0001
,  // measure 90
0000
0000
0010
0000
0100
0000
0001
0000
1000
0000
0010
0000
0100
0010
1000
0010
,  // measure 91
0100
0000
0000
0000
;

//---------------dance-single - ----------------
#NOTES:
     dance-single:
     :
     Beginner:
     5:
     0.159574,0.313301,0.030603,0.153016,0.000000,146.000000,142.000000,4.000000,20.000000,0.000000,0.000000,0.159574,0.313301,0.030603,0.153016,0.000000,146.000000,142.000000,4.000000,20.000000,0.000000,0.000000:
0000
0000
0000
0000
,
0000
0000
0000
0000
,
0000
0000
0000
0000
,
0000
0000
0000
0000
,
0000
0000
0000
0000
,
2000
0000
3000
0000
,
0002
0000
0003
0000
,
2000
0000
3000
0000
,
0002
0000
0003
0000
,
0100
0000
0100
0000
,
0010
0000
0010
0000
,
0100
0010
0100
0010
,
0100
0100
0100
0000
,
2002
0000
3003
0000
,
0001
0000
0000
0000
,
1000
0000
0000
0000
,
0010
0000
0010
0000
,
0010
0000
0000
0000
,
1000
0000
0000
0000
,
0001
0000
0000
0000
,
0100
0000
0100
0000
,
0100
0000
0000
0000
,
0010
0000
0000
0000
,
0100
0000
0000
0000
,
0001
0000
0001
0000
,
0001
0000
0000
0000
,
0100
0000
0000
0000
,
0010
0000
0000
0000
,
1000
0000
1000
0000
,
1000
0000
0000
0000
,
0001
0000
0001
0000
,
1000
0000
1000
0000
,
0010
0000
0010
0000
,
0000
0000
1001
0000
,
1000
0000
0001
0000
,
2000
0000
3000
0000
,
0001
0000
1000
0000
,
0002
0000
0003
0000
,
0100
0000
0010
0000
,
0200
0000
0300
0000
,
0010
0000
0100
0000
,
0020
0000
0030
0000
,
0000
0000
2000
3000
,
0000
0002
0003
0000
,
1000
0000
0002
0003
,
0000
2000
3000
0000
,
0001
0001
0200
0300
,
0000
0020
0030
0000
,
0100
0100
0020
0030
,
0000
0200
0300
0000
,
0010
0010
0010
0000
,
1000
0000
0001
0000
,
0000
0000
0100
0000
,
1000
0000
0001
0000
,
0000
0000
1000
0000
,
0010
0000
0001
0000
,
0000
0000
0001
0000
,
0100
0000
1000
0000
,
0000
0000
1001
0000
,
0010
0000
0010
0000
,
1000
0000
1000
0000
,
0100
0000
0100
0000
,
0001
0000
0001
0000
,
0010
0000
1000
0000
,
0100
0000
0001
0000
,
0010
0000
0001
0000
,
0100
0000
1000
0000
,
0010
0000
0010
0000
,
0001
0000
0001
0000
,
0100
0000
0100
0000
,
1000
0000
1000
0000
,
0010
0000
1000
0000
,
0100
0000
0001
0000
,
0010
0000
0001
0000
,
0100
0000
0000
0000
,
0010
0000
1000
0000
,
0001
0000
0100
0000
,
0010
0000
0010
0000
,
0100
0000
0100
0000
,
0010
0000
1000
0000
,
0100
0000
0010
0000
,
0001
0000
0010
0000
,
0100
0000
1000
0000
,
0100
0000
1000
0000
,
0001
0000
0100
0000
,
0010
0000
0010
0000
,
0100
0000
0100
0000
,
0000
0000
0001
0000
,
1000
0000
0001
0000
,
2002
0000
0000
0000
,
0000
0000
0000
0000
,
3003
0000
0000
0000
;

//---------------dance-single - ----------------
#NOTES:
     dance-single:
     :
     Easy:
     8:
     0.265593,0.348112,0.099461,0.367239,0.015302,243.000000,230.000000,13.000000,48.000000,0.000000,0.000000,0.265593,0.348112,0.099461,0.367239,0.015302,243.000000,230.000000,13.000000,48.000000,0.000000,0.000000:
// measure 0
0000
0000
0000
0000
,  // measure 1
0000
0000
0000
0000
,  // measure 2
0000
0000
0000
0000
,  // measure 3
0000
0000
0000
0000
,  // measure 4
0000
0000
0000
0000
,  // measure 5
0200
0020
0000
0330
,  // measure 6
0002
2000
0000
3003
,  // measure 7
2000
0200
0000
3300
,  // measure 8
0020
0002
0000
0033
,  // measure 9
1000
0100
0010
0001
,  // measure 10
0001
0010
0100
1000
,  // measure 11
0010
0100
0001
1000
,  // measure 12
0001
0010
0100
1000
,  // measure 13
0020
0000
0200
0330
,  // measure 14
1001
0000
0000
0020
,  // measure 15
0130
0000
0000
0000
,  // measure 16
1000
0000
0001
0010
,  // measure 17
0100
1000
0000
0000
,  // measure 18
1001
0000
0000
0000
,  // measure 19
0010
0100
0000
0010
,  // measure 20
0100
0010
0100
0010
,  // measure 21
0200
0000
0300
0000
,  // measure 22
0001
1000
0001
1000
,  // measure 23
0001
1000
0001
0000
,  // measure 24
1000
0001
1000
0001
,  // measure 25
1000
0000
1001
0000
,  // measure 26
0010
0100
0010
0000
,  // measure 27
0100
0010
0100
0000
,  // measure 28
0001
1000
0001
0000
,  // measure 29
1001
0000
0110
0000
,  // measure 30
0020
0000
0030
0000
,  // measure 31
0100
0000
0100
0000
,  // measure 32
0010
0100
0010
0100
,  // measure 33
0000
0000
0000
0000
,  // measure 34
0001
0100
1000
0010
,  // measure 35
0002
0003
2000
3000
,  // measure 36
0001
1000
0100
0001
,  // measure 37
0020
0030
0200
0300
,  // measure 38
0010
0001
0100
0001
,  // measure 39
2000
3000
0020
0030
,  // measure 40
0000
1000
0100
0010
,  // measure 41
0002
0003
2000
3000
,  // measure 42
0000
0000
0010
0001
,  // measure 43
0100
0010
1000
0100
,  // measure 44
0010
0001
0010
1000
,  // measure 45
0100
0010
0001
0100
,  // measure 46
0010
1000
0001
0100
,  // measure 47
1000
0001
0010
1000
,  // measure 48
0100
0010
1000
0100
,  // measure 49
0001
1000
0010
0001
,  // measure 50
0200
0000
0310
0000
,  // measure 51
1000
0000
0000
0000
0000
0000
0000
0000
0001
0000
0000
0001
0000
0000
0001
0000
,  // measure 52
0000
1001
0000
0000
0010
0000
0000
0000
,  // measure 53
0100
0000
0000
0000
0000
0000
0000
0000
1000
0000
0000
1000
0000
0000
1000
0000
,  // measure 54
0000
1001
0000
0000
0010
0000
0000
0000
,  // measure 55
0100
0000
0000
0000
0000
0000
0000
0000
0010
0000
0000
0001
0000
0000
0100
0000
,  // measure 56
0000
1001
0000
0000
0010
0000
0000
0000
,  // measure 57
1001
0000
0000
0000
0000
0000
0000
0000
0100
0000
0000
1000
0000
0000
0010
0000
,  // measure 58
0000
1001
0000
0000
0110
0000
0000
0000
,  // measure 59
0001
0100
0020
0000
,  // measure 60
2030
0000
3002
0000
,  // measure 61
1003
0100
0020
0000
,  // measure 62
2030
0000
3002
0000
,  // measure 63
0013
0001
0200
0000
,  // measure 64
0320
0000
0230
0000
,  // measure 65
0301
0010
0002
0000
,  // measure 66
2003
0000
3002
0000
,  // measure 67
1003
0001
1000
0000
,  // measure 68
0001
0000
1000
0000
,  // measure 69
0010
0100
0010
0000
,  // measure 70
0100
0000
0010
0000
,  // measure 71
1000
0100
1000
0000
,  // measure 72
0001
0100
0001
0000
,  // measure 73
0100
0000
0010
0000
,  // measure 74
2002
0000
3003
0000
,  // measure 75
0001
0000
0100
0000
,  // measure 76
1000
0000
0100
0001
,  // measure 77
0200
0000
0000
0010
,  // measure 78
0320
0000
2030
0000
,  // measure 79
3001
0000
0010
0100
,  // measure 80
0010
0000
0100
0010
,  // measure 81
0200
0000
0302
0000
,  // measure 82
2003
0000
3002
0000
,  // measure 83
1003
0000
0001
1000
,  // measure 84
0001
0000
1000
0010
,  // measure 85
2000
0000
3001
0010
,  // measure 86
0002
0000
0203
0000
,  // measure 87
0300
0001
0010
0100
,  // measure 88
1000
0100
0010
0001
,  // measure 89
2002
0000
0000
0000
,  // measure 90
0000
0000
0000
0000
,  // measure 91
3003
0000
0000
0000
;

//---------------dance-single - ----------------
#NOTES:
     dance-single:
     :
     Medium:
     11:
     0.457956,0.626602,0.420795,0.466700,0.022952,419.000000,364.000000,55.000000,61.000000,0.000000,0.000000,0.457956,0.626602,0.420795,0.466700,0.022952,419.000000,364.000000,55.000000,61.000000,0.000000,0.000000:
// measure 0
0000
0000
0000
0000
,  // measure 1
0000
0000
0000
0000
,  // measure 2
0000
0000
0000
0000
,  // measure 3
0000
0000
0000
0000
,  // measure 4
0000
0000
0000
0000
,  // measure 5
1000
0100
0020
0000
0001
0000
0031
0000
,  // measure 6
0001
0100
0020
0000
1000
0000
1030
0000
,  // measure 7
0010
0100
0002
0000
1000
0000
1003
0000
,  // measure 8
0100
0010
2000
0000
0010
0000
3010
0000
,  // measure 9
0001
0010
0001
0010
0100
1000
0100
1000
,  // measure 10
0001
0010
0100
0010
0001
0010
0100
0010
,  // measure 11
0001
1000
0001
1000
0010
0100
0010
0100
,  // measure 12
0010
1000
0100
1000
0010
0100
0001
0100
,  // measure 13
0020
0000
0200
0330
,  // measure 14
1001
0000
0000
1001
0000
0000
0000
0000
,  // measure 15
0110
0000
0000
0110
0000
0000
0002
0000
,  // measure 16
1003
0000
0000
1001
0000
0000
1000
0000
,  // measure 17
0001
1000
0001
1000
0000
0000
0000
0000
,  // measure 18
1010
0000
0000
0101
0000
0000
1000
0000
,  // measure 19
0001
0000
1000
0001
0000
1000
0010
1000
,  // measure 20
0010
2000
3001
0200
,  // measure 21
0020
0000
0000
0330
,  // measure 22
0001
0100
1000
0100
,  // measure 23
0001
0000
0010
0000
1000
0000
0001
1000
,  // measure 24
0001
1000
0100
0001
,  // measure 25
1000
0010
0200
0300
,  // measure 26
0001
0100
0010
0100
,  // measure 27
0001
0000
1000
0001
0000
1000
0010
1000
,  // measure 28
0010
0200
0301
2000
,  // measure 29
0020
0000
0000
3030
,  // measure 30
0100
0000
1001
0000
,  // measure 31
0110
0000
1001
0000
,  // measure 32
0010
0000
0100
0000
0010
0100
0010
0100
,  // measure 33
0000
0000
0000
0000
,  // measure 34
0001
0000
0010
0100
2000
0000
3100
0010
,  // measure 35
0002
0000
0000
0100
0203
0000
0320
0000
,  // measure 36
1030
0010
0100
0001
2000
0000
3001
0010
,  // measure 37
0200
0000
0000
0310
0002
0000
2003
0000
,  // measure 38
3001
0100
0010
0100
0002
0000
1003
0100
,  // measure 39
0020
0000
0000
0031
0200
0000
0310
0000
,  // measure 40
0001
0010
0100
0010
0001
1000
0100
0010
,  // measure 41
0002
0000
0000
0010
0000
0000
0013
0000
0000
0000
1001
0000
0000
0000
0100
0000
,  // measure 42
0010
0000
0000
0010
0000
0000
1000
0000
0001
0000
0000
0000
1000
0000
0001
0000
,  // measure 43
0000
1000
0100
0000
1000
0010
0000
0100
,  // measure 44
0001
0000
1000
0000
0001
0000
1000
0010
,  // measure 45
0000
1000
0100
0000
0010
0001
0000
0100
,  // measure 46
0010
0100
0010
1000
0001
0000
0010
0001
,  // measure 47
0000
1000
0100
0000
0010
0100
0000
1000
,  // measure 48
0001
0000
1000
0000
0010
0000
0100
0001
,  // measure 49
0000
1000
0010
0000
1000
0100
0000
0010
,  // measure 50
0002
0000
0203
0000
0310
0000
0000
0100
,  // measure 51
0100
0000
0000
0000
0001
0000
0000
0000
1000
0000
0000
0001
0000
0000
0110
0000
,  // measure 52
0000
1001
0000
0000
0010
0000
0001
0100
,  // measure 53
1000
0000
0000
0000
0001
0000
0010
0000
1000
0000
0000
0001
0000
0000
0110
0000
,  // measure 54
0000
1001
0000
0000
0110
0000
0001
0100
,  // measure 55
1000
0000
0000
0000
0001
0000
0010
0000
1000
0000
0000
0010
0000
0000
0001
0000
,  // measure 56
0000
0110
0000
0000
0001
0100
1000
0100
,  // measure 57
0001
0000
0010
0000
1000
0000
0100
0000
0001
0000
0000
1010
0000
0000
0101
0000
,  // measure 58
0000
0000
0000
0000
0000
0000
0110
0000
0000
0000
0000
0000
0000
0000
0000
0000
0000
0000
0000
0000
0000
0000
0000
0000
2002
3003
0000
0000
0000
0000
0000
0000
0000
0000
0000
0000
0000
0000
0000
0000
0000
0000
0000
0000
0000
0000
0000
0000
,  // measure 59
0010
0100
0002
0000
,  // measure 60
0010
0010
0200
0303
,  // measure 61
1000
0100
0020
0000
,  // measure 62
0001
0001
0002
0033
,  // measure 63
0100
0010
2000
0000
,  // measure 64
0001
0001
0020
3030
,  // measure 65
0001
0100
0020
0000
,  // measure 66
1000
1000
0100
0130
,  // measure 67
1000
0100
0010
0001
,  // measure 68
0100
0010
0100
0010
,  // measure 69
0001
0010
0100
1000
,  // measure 70
0001
0010
0001
0010
0000
0000
0100
1000
,  // measure 71
0100
1000
0010
0001
,  // measure 72
0100
0001
1000
0100
,  // measure 73
0010
0001
1000
0010
,  // measure 74
0220
0000
0330
0000
,  // measure 75
0101
0101
1100
1100
,  // measure 76
0011
0011
1010
1010
,  // measure 77
0220
0330
1000
1001
,  // measure 78
2002
3003
0022
0033
,  // measure 79
1100
1100
0011
0011
,  // measure 80
0220
0330
0011
0011
,  // measure 81
2020
0000
3030
0000
0001
0100
0001
0100
,  // measure 82
0000
0010
1000
0000
2002
0000
3003
0000
,  // measure 83
1100
1100
0101
0101
,  // measure 84
0202
0303
0011
0011
,  // measure 85
2020
3030
0110
0110
,  // measure 86
2002
3003
0220
0330
,  // measure 87
1000
0100
0010
0001
,  // measure 88
1000
0001
1000
0000
0001
1000
0001
1000
,  // measure 89
0002
0000
0000
0000
0100
0000
0000
0100
,  // measure 90
0000
1000
2000
0000
,  // measure 91
3003
0000
0000
0000
;
