#VERSION:0.83;
#TITLE:Macho Monky;
#SUBTITLE:;
#ARTIST:kors k;
#TITLETRANSLIT:;
#SUBTITLETRANSLIT:;
#ARTISTTRANSLIT:;
#GENRE:;
#ORIGIN:;
#CREDIT:;
#BANNER:Macho Monky.png;
#BACKGROUND:Macho Monky-bg.png;
#PREVIEWVID:;
#JACKET:Macho Monky-jacket.png;
#CDIMAGE:;
#DISCIMAGE:;
#LYRICSPATH:;
#CDTITLE:;
#MUSIC:Macho Monky.ogg;
#OFFSET:0.157000;
#SAMPLESTART:14.243001;
#SAMPLELENGTH:12.800000;
#SELECTABLE:YES;
#DISPLAYBPM:150.000000;
#BPMS:0.000=150.000,
32.000=300.000,
40.000=150.000,
296.000=300.000;
#STOPS:;
#DELAYS:;
#WARPS:;
#TIMESIGNATURES:0.000=4=4;
#TICKCOUNTS:0.000=4;
#COMBOS:0.000=1;
#SPEEDS:0.000=1.000=0.000=0;
#SCROLLS:0.000=1.000;
#FAKES:;
#LABELS:0.000=Song Start;
#BGCHANGES:0.000=Macho Monky.avi=1.000=0=0=0=StretchNoLoop====,
99999=-nosongbg-=1.000=0=0=0 // don't automatically add -songbackground-
;
#KEYSOUNDS:;
#ATTACKS:
;

//---------------dance-single - ----------------
#NOTEDATA:;
#CHARTNAME:;
#STEPSTYPE:dance-single;
#DESCRIPTION:;
#CHARTSTYLE:;
#DIFFICULTY:Hard;
#METER:13;
#RADARVALUES:0.558895,0.707263,0.380910,0.087292,0.198391,493.000000,445.000000,48.000000,11.000000,0.000000,0.000000,0.000000,0.000000,0.000000,0.558895,0.707263,0.380910,0.087292,0.198391,493.000000,445.000000,48.000000,11.000000,0.000000,0.000000,0.000000,0.000000,0.000000;
#CREDIT:;
#NOTES:
// measure 0
0000
0000
0000
0000
,  // measure 1
0000
0000
0000
0000
,  // measure 2
0000
0000
0000
0000
,  // measure 3
0000
0000
0000
0000
,  // measure 4
0000
0000
0000
0000
,  // measure 5
0001
1000
0001
1000
0110
0000
0110
0000
,  // measure 6
1000
0001
1000
0001
0220
0000
0330
0000
,  // measure 7
0010
1000
0010
1000
0110
0000
0110
0000
,  // measure 8
2002
0000
0000
0000
,  // measure 9
0000
0000
3003
0000
,  // measure 10
1000
0100
1000
0100
1100
0000
0011
0000
,  // measure 11
0100
0010
0100
0010
0110
0000
1001
0000
,  // measure 12
0001
0010
0001
0010
0011
0000
1100
0000
,  // measure 13
0010
0100
0010
0100
0110
0000
1001
0000
,  // measure 14
1000
0100
0010
0100
1000
0000
0101
0000
,  // measure 15
0001
0010
0100
0010
0001
0000
0110
0000
,  // measure 16
0001
1000
0100
1000
0001
0000
0110
0000
,  // measure 17
2002
0000
0000
3003
,  // measure 18
0010
0001
0100
1000
0010
0000
1001
0000
,  // measure 19
0010
1000
0100
0001
0010
0000
0110
0000
,  // measure 20
0100
1000
0010
0001
0100
0000
1001
0000
,  // measure 21
0100
0001
0010
1000
0100
0010
0110
0000
,  // measure 22
0001
0100
1000
0100
0001
0000
1010
0000
,  // measure 23
1000
0100
0001
0100
1000
0010
0010
0000
,  // measure 24
0001
0010
1000
0010
0001
0100
1000
0100
,  // measure 25
0001
0000
1000
0000
0010
0010
0110
0000
,  // measure 26
0001
1000
1000
1000
,  // measure 27
1000
1000
2000
3000
,  // measure 28
0010
0100
0100
0100
,  // measure 29
0100
0100
0200
0300
,  // measure 30
0001
0000
1000
0010
1000
0010
1000
0001
,  // measure 31
1000
0001
1000
0001
2000
0000
3000
0000
,  // measure 32
0010
0000
0100
0001
0100
0001
1000
0010
,  // measure 33
1000
1000
1000
1000
1000
0000
1001
0000
,  // measure 34
0110
0000
0001
0100
0110
0000
1000
0000
,  // measure 35
0110
0000
1000
0100
0110
0000
0001
0000
,  // measure 36
1001
0000
1000
0100
1001
0000
0010
0000
,  // measure 37
1001
0000
0001
0100
1001
0000
0010
0000
,  // measure 38
0110
0100
0001
1000
1000
0001
0010
0010
,  // measure 39
0001
1000
1000
0100
0010
0001
0100
0010
,  // measure 40
1000
1000
0001
0001
0100
0100
0100
0100
,  // measure 41
0010
0100
1001
0110
,  // measure 42
1000
0000
0000
1000
0010
0000
0010
0000
0010
0000
0010
0000
0010
0000
0010
0000
,  // measure 43
1000
0000
0000
0001
1000
0000
1000
0000
0010
0000
0100
0000
0100
0000
0000
0000
,  // measure 44
0001
0000
0001
0000
0001
0000
1000
0001
0000
0001
0000
0001
1000
0000
0100
0000
,  // measure 45
0010
0000
0001
0000
0100
0010
0000
0010
0000
0000
0000
0000
1001
0000
0000
0000
,  // measure 46
0010
0000
0000
0000
1000
0000
0100
0000
1000
0000
0100
1000
0000
0000
0001
0000
,  // measure 47
0100
0000
0001
0000
1000
0000
1000
0000
0001
0000
1000
0001
0000
0000
0010
0000
,  // measure 48
0100
0000
0001
0000
1000
0000
0010
0100
0000
0100
0000
0100
0010
0000
1000
0000
,  // measure 49
0001
0001
0001
0001
0001
0000
1001
0000
,  // measure 50
0100
0000
0000
0100
0010
0000
1000
0000
0001
1000
0001
0000
0100
0000
0100
0000
,  // measure 51
0001
1000
0001
0000
0010
0000
0010
0000
0001
1000
0001
0000
0100
0000
0100
0000
,  // measure 52
0010
0000
0000
1000
0010
0000
0010
1000
0000
0001
0000
0001
1000
0000
0010
0000
,  // measure 53
0100
0000
0000
0010
0100
0000
0010
0000
0000
0000
1000
0000
1001
0000
0000
0000
,  // measure 54
0010
0000
0001
0010
0000
0000
0001
0000
1000
0000
0100
1000
0000
0000
0100
0000
,  // measure 55
0010
0000
0001
0010
0000
0000
0001
0000
0100
0000
0010
0100
0000
0000
0010
0000
,  // measure 56
1000
0100
0010
0100
1000
0100
0010
0001
,  // measure 57
1001
0000
0110
1001
,  // measure 58
0100
0010
0000
1000
1000
1000
1001
0000
,  // measure 59
0010
0100
0000
0001
0001
0001
1001
0000
,  // measure 60
0100
0010
0000
1000
1000
1000
1001
0000
,  // measure 61
0010
0100
0000
0010
0010
0010
0110
0000
,  // measure 62
0001
0000
1000
0001
0000
0000
0100
0000
0100
0000
0100
0000
0100
0000
0000
0000
,  // measure 63
1000
0000
0001
1000
0000
0000
0010
0000
0010
0000
0010
0000
0010
0000
0000
0000
,  // measure 64
1000
0000
0010
0100
0000
0000
0001
0000
0001
0000
0001
0000
1001
0000
0000
0000
,  // measure 65
0010
0000
0000
0001
0000
0000
0100
0000
0000
1000
0000
0000
0010
0000
0000
0000
,  // measure 66
0001
0000
0000
0001
0100
0000
0001
0000
1000
0000
0001
0000
0010
0000
0001
0000
,  // measure 67
1000
0000
0000
1000
0010
0000
1000
0000
0001
0000
1000
0000
0100
0000
1000
0000
,  // measure 68
0010
0000
0000
0100
0010
0000
1000
0000
0100
0000
0010
0000
0001
0000
1000
0000
,  // measure 69
0001
0000
0100
0000
0001
0100
0000
0001
0100
0000
0001
0100
0001
0000
0000
0000
,  // measure 70
1000
0000
0001
1000
0000
1000
0001
0000
0100
0000
0001
0010
0000
0010
0001
0000
,  // measure 71
1000
0000
0010
0100
0000
0100
0010
0000
1000
0000
0001
0100
0000
0100
0001
0000
,  // measure 72
1000
1000
0100
0100
0010
0010
0001
0001
,  // measure 73
0100
0010
0100
0010
0100
0010
0100
0010
0100
0010
0100
0010
0100
0000
0000
0000
,  // measure 74
2002
0000
0000
0000
,  // measure 75
0000
0000
0000
0000
,  // measure 76
0000
0000
0000
0000
,  // measure 77
0000
0000
3003
0000
;

//---------------dance-single - ----------------
#NOTEDATA:;
#CHARTNAME:;
#STEPSTYPE:dance-single;
#DESCRIPTION:;
#CHARTSTYLE:;
#DIFFICULTY:Medium;
#METER:9;
#RADARVALUES:0.413786,0.522759,0.166648,0.126970,0.047614,365.000000,344.000000,21.000000,16.000000,0.000000,0.000000,0.000000,0.000000,0.000000,0.413786,0.522759,0.166648,0.126970,0.047614,365.000000,344.000000,21.000000,16.000000,0.000000,0.000000,0.000000,0.000000,0.000000;
#CREDIT:;
#DISPLAYBPM:150.000000;
#NOTES:
0000
0000
0000
0000
,
0000
0000
0000
0000
,
0000
0000
0000
0000
,
0000
0000
0000
0000
,
0000
0000
0000
0000
,
0010
0100
0010
0100
0010
0000
0010
0000
,
1000
0001
1000
0001
1000
0000
1000
0000
,
0100
0010
0100
0010
0100
0000
0100
0000
,
2002
0000
0000
0000
,
0000
0000
3003
0000
,
1000
0010
1000
0010
1000
0000
1000
0000
,
0001
0100
0001
0100
0001
0000
0000
0000
,
0010
0100
0010
0100
0010
0000
0010
0000
,
1000
0001
1000
0001
1000
0000
0000
0000
,
0010
0001
0010
0001
0100
0000
0100
0000
,
0010
1000
0010
1000
0100
0000
0000
0000
,
1000
0001
1000
0001
0100
0000
0100
0000
,
0220
0000
0000
0330
,
0010
0001
0010
0001
0100
0000
0100
0000
,
0010
1000
0010
1000
0100
0000
0000
0000
,
0100
0001
0100
0001
0010
0000
0010
0000
,
0100
1000
0100
1000
0010
0000
0000
0000
,
0001
0100
0001
0100
1000
0000
0010
0000
,
1000
0100
1000
0100
0001
0000
0000
0000
,
0001
0100
0001
0100
0010
0000
0010
0000
,
1000
0000
0001
0000
0100
0100
0100
0000
,
0020
0100
0100
0100
,
0100
0100
0200
0330
,
2000
0001
0001
0001
,
0001
0001
0002
3003
,
0020
1000
1000
1000
,
0100
0100
0200
0330
,
0200
0001
0001
0001
,
0010
0010
0020
0330
,
1000
0000
0000
0001
1000
0000
0001
0000
,
0100
0000
0000
0001
0100
0000
0001
0000
,
1000
0000
0000
0010
1000
0000
0010
0000
,
0100
0000
0000
0010
0100
0000
0010
0000
,
1000
0000
1000
0100
0000
0100
0001
0000
,
0001
0010
0000
0010
1000
0000
1001
0000
,
0001
0000
1000
0000
0010
0010
0010
0000
,
0100
0010
1001
0110
,
1000
0000
0010
0010
0000
0010
0010
0000
,
1000
0000
0001
0001
0000
0100
0100
0000
,
0001
0000
0001
0001
0000
0001
0100
0000
,
0010
0000
0100
0010
0100
0000
1001
0000
,
0010
0000
0000
0000
1000
0000
0100
0000
1000
0000
0000
1000
0000
0000
0000
0000
,
0001
0000
0000
0000
0001
0000
0100
0000
0001
0000
0000
0001
0000
0000
0000
0000
,
0100
0001
1000
0000
0100
1000
0001
0000
,
0001
0001
0001
1001
,
0100
0000
0010
1000
0000
0001
0100
0000
,
0001
0000
0010
0001
0000
1000
0100
0000
,
0010
0000
0010
1000
0000
0001
0010
0000
,
0200
0000
0310
2000
0000
3001
1000
0000
,
0010
0000
0000
0010
0000
0000
0010
0000
0100
0000
0000
0100
0000
0000
0100
0000
,
0001
0000
0000
0001
0000
0000
0001
0000
1000
0000
0000
1000
0000
0000
1000
0000
,
0001
0010
0100
1000
,
0001
1000
0001
1000
0010
0000
1001
0000
,
0110
0000
0000
0100
0100
0100
0100
0000
,
1001
0000
0000
0010
0010
0010
0010
0000
,
1001
0000
0000
1000
1000
1000
1000
0000
,
1001
0000
0000
0001
0001
0001
0001
0000
,
0010
0000
0000
0010
0000
0000
1000
0000
0001
0000
1000
0000
0001
0000
0000
0000
,
0100
0000
0000
0100
0000
0000
0001
0000
1000
0000
0001
0000
1000
0000
0000
0000
,
0010
0000
0000
0010
0000
0000
1000
0000
0100
0000
0010
0000
0001
0000
0000
0000
,
0010
0000
0000
0010
0000
0000
0100
0000
0000
0100
0000
0000
1001
0000
0000
0000
,
0110
0000
1001
0000
0001
0100
1000
0000
,
0110
0000
1001
0000
1000
0100
0001
0000
,
0011
0000
1100
0000
0001
0010
0100
0000
,
1000
0000
0001
0000
0000
0001
0000
0000
0001
0000
1000
0000
0110
0000
0000
0000
,
0100
0010
0100
0010
1000
0001
1000
0001
,
0100
0010
0100
0010
1000
0001
1000
0001
,
0100
0010
1000
0001
0100
0010
1000
0001
,
0100
0100
0100
0100
0100
0100
0100
0000
,
2002
0000
0000
0000
,
0000
0000
0000
0000
,
0000
0000
0000
0000
,
0000
0000
3003
0000
;

//---------------dance-single - ----------------
#NOTEDATA:;
#CHARTNAME:;
#STEPSTYPE:dance-single;
#DESCRIPTION:;
#CHARTSTYLE:;
#DIFFICULTY:Easy;
#METER:6;
#RADARVALUES:0.331029,0.430508,0.396781,0.119034,0.000000,292.000000,242.000000,50.000000,15.000000,0.000000,0.000000,0.000000,0.000000,0.000000,0.331029,0.430508,0.396781,0.119034,0.000000,292.000000,242.000000,50.000000,15.000000,0.000000,0.000000,0.000000,0.000000,0.000000;
#CREDIT:;
#DISPLAYBPM:150.000000;
#NOTES:
0000
0000
0000
0000
,
0000
0000
0000
0000
,
0000
0000
0000
0000
,
0000
0000
0000
0000
,
0000
0000
0000
0000
,
0010
0010
0001
1000
,
0100
0100
0100
0000
,
0010
0010
0010
0010
,
2002
0000
0000
0000
,
0000
0000
3003
0000
,
1000
1000
1001
1001
,
0001
0001
1001
0000
,
0010
0010
0110
0110
,
0100
0100
0110
0000
,
1000
1000
0110
0110
,
0001
0001
0110
0000
,
1001
1001
0110
0110
,
2002
0000
0000
3003
,
0010
0010
0100
0100
,
0110
0110
1001
0000
,
0100
0100
0010
0010
,
1001
1001
0110
0000
,
0001
0001
1001
0110
,
1000
1000
1001
0000
,
0001
0001
0110
1001
,
1000
0001
0220
0330
,
0100
0100
0100
0100
,
0100
0100
0200
0300
,
0001
0001
0001
0001
,
0001
0001
0002
0003
,
1000
1000
1000
1000
,
0001
0001
0002
0003
,
1000
1000
0001
0001
,
0010
0010
0020
0030
,
1001
0000
1000
0000
,
1001
0000
0001
0000
,
0110
0000
1000
0000
,
0110
0000
0001
0000
,
1000
1000
0001
0001
,
1000
0001
1000
0001
,
0010
0000
0010
0000
0010
0010
0010
0000
,
0100
0010
1001
0000
,
1000
0010
0010
0010
,
1000
0001
0001
1001
,
0001
1000
1000
1000
,
0010
0100
0100
1001
,
0010
1000
1000
0100
,
0001
0100
1000
1000
,
0100
1000
0100
0001
,
0001
0001
0001
0000
,
0100
0010
0010
0010
,
1000
0010
1000
0010
,
0100
0010
0010
0010
,
0110
0000
0000
1001
0000
0000
1000
0000
,
0001
0001
0100
1000
,
0001
0001
0010
1000
,
0001
0010
0100
1000
,
0001
0001
0010
1001
,
0110
0000
0100
0100
,
1001
0000
0010
0010
,
1001
0000
1000
1000
,
1001
0000
0001
0001
,
0010
0001
0100
1000
,
0100
1000
0010
0001
,
0100
0001
0010
1000
,
0020
0000
0030
0110
,
1000
0001
1001
1001
,
0010
0100
0110
0110
,
0010
0100
1001
0110
,
1000
0001
2002
3003
,
1000
0100
0010
0001
,
1000
0100
0010
0001
,
1000
1000
1000
0000
0001
0001
0001
0000
,
0100
0100
0100
0000
0100
0100
0100
0000
,
2002
0000
0000
0000
,
0000
0000
0000
0000
,
0000
0000
0000
0000
,
0000
0000
3003
0000
;

//---------------dance-single - ----------------
#NOTEDATA:;
#CHARTNAME:;
#STEPSTYPE:dance-single;
#DESCRIPTION:;
#CHARTSTYLE:;
#DIFFICULTY:Beginner;
#METER:5;
#RADARVALUES:0.162114,0.246004,0.039678,0.055549,0.000000,143.000000,138.000000,5.000000,7.000000,0.000000,0.000000,0.000000,0.000000,0.000000,0.162114,0.246004,0.039678,0.055549,0.000000,143.000000,138.000000,5.000000,7.000000,0.000000,0.000000,0.000000,0.000000,0.000000;
#CREDIT:;
#DISPLAYBPM:150.000000;
#NOTES:
0000
0000
0000
0000
,
0000
0000
0000
0000
,
0000
0000
0000
0000
,
0000
0000
0000
0000
,
0000
0000
0000
0000
,
0010
0000
0010
0010
,
0000
0000
0100
0000
,
0000
0000
0010
0010
,
0000
0000
0000
0000
,
0000
0000
0000
0000
,
1000
0000
1000
1000
,
0000
0000
1000
0000
,
0000
0000
0100
0100
,
0000
0000
0100
0000
,
0000
0000
0010
0010
,
0000
0000
0010
0000
,
0001
0001
0001
0001
,
0000
0000
0000
0000
,
0010
0000
0010
0010
,
0000
0000
1001
0000
,
0100
0000
0100
0100
,
0000
0000
1001
0000
,
0001
0000
0001
0001
,
0001
0000
1001
0000
,
1000
0000
1000
1000
,
1000
0000
1001
0000
,
0200
0000
0000
0000
,
0000
0000
0300
0000
,
0002
0000
0000
0000
,
0000
0000
0003
0000
,
2000
0000
0000
0000
,
0000
0000
3000
0000
,
0002
0000
0000
0000
,
0000
0000
0003
0000
,
1000
0000
1000
0000
,
0001
0000
0001
0000
,
1000
0000
1000
0000
,
0001
0000
0001
0000
,
0010
0000
0010
0000
,
0100
0000
0100
0000
,
0010
0010
0010
0000
,
0100
0100
0100
0000
,
1000
0000
1000
0000
,
0001
0000
0001
0000
,
1000
0000
1000
0000
,
0010
0010
0010
0000
,
0001
0000
0001
0000
,
1000
0000
1000
0000
,
0100
0000
0100
0000
,
0100
0100
0100
0000
,
0000
0010
0010
0010
,
0010
0000
0010
0000
,
0100
0100
0100
0100
,
0100
0000
0100
0000
,
0001
0000
1000
0000
,
0001
0001
0001
0001
,
0001
0000
0000
0000
,
0010
0010
0010
0000
,
0100
0000
0100
0100
,
0000
0000
0010
0010
,
0000
0000
1000
1000
,
0000
0000
0001
0001
,
0001
0000
1000
1000
,
1000
0000
0010
0010
,
0010
0000
0100
0100
,
0100
0000
0000
0000
,
1000
0000
1000
1000
,
1000
0000
0001
0001
,
0001
0000
0010
0010
,
0010
0000
0000
0000
,
1000
0000
0001
0000
,
1000
0000
0001
0000
,
0010
0010
0010
0010
,
0020
0000
0030
0000
,
2002
0000
0000
0000
,
0000
0000
0000
0000
,
0000
0000
0000
0000
,
0000
0000
3003
0000
;

//---------------dance-single - ----------------
#NOTEDATA:;
#CHARTNAME:;
#STEPSTYPE:dance-single;
#DESCRIPTION:;
#CHARTSTYLE:;
#DIFFICULTY:Challenge;
#METER:15;
#RADARVALUES:0.691533,0.922517,0.309489,0.047614,0.646754,610.000000,571.000000,39.000000,6.000000,72.000000,0.000000,0.000000,0.000000,0.000000,0.691533,0.922517,0.309489,0.047614,0.646754,610.000000,571.000000,39.000000,6.000000,72.000000,0.000000,0.000000,0.000000,0.000000;
#CREDIT:;
#DISPLAYBPM:150.000000;
#NOTES:
// measure 0
0000
0000
0000
0000
,  // measure 1
0000
0000
0000
0000
,  // measure 2
0000
0000
0000
0000
,  // measure 3
0000
0000
0000
0000
,  // measure 4
0000
0000
0000
0000
,  // measure 5
0001
1000
0001
1000
0110
0000
0110
0000
,  // measure 6
1000
0001
1000
0001
0110
0000
MMMM
0000
,  // measure 7
0010
1000
0010
1000
0110
0000
0110
0000
,  // measure 8
2002
0000
0000
0000
,  // measure 9
0000
0000
3003
0000
,  // measure 10
1000
0000
0100
1000
0100
0000
1000
0100
1000
0000
0000
0000
0011
0000
0000
0000
,  // measure 11
0100
0000
0010
0100
0010
0000
0100
0010
0100
0000
0000
0000
MMMM
0000
0000
0000
,  // measure 12
0001
0000
0010
0001
0010
0000
0001
0010
0001
0000
0000
0000
1100
0000
0000
0000
,  // measure 13
0010
0000
0100
0010
0100
0000
0010
0100
0010
0000
0000
0000
MMMM
0000
0000
0000
,  // measure 14
1000
0000
0100
1000
0100
0000
0010
0001
0010
0000
0000
0000
1001
0000
0000
0000
,  // measure 15
0001
0000
0010
0100
0010
0000
0100
0010
0100
0000
0000
0000
MMMM
0000
0000
0000
,  // measure 16
0001
1000
0100
1000
0001
0000
0110
0000
,  // measure 17
2002
0000
0000
0000
0000
3003
MMMM
0000
,  // measure 18
0010
0000
0001
0100
0001
0000
1000
0010
1000
0000
0000
0000
1001
0000
0000
0000
,  // measure 19
0010
0000
1000
0100
1000
0000
0001
0010
0001
0000
0000
0000
MMMM
0000
0000
0000
,  // measure 20
0100
0000
1000
0010
1000
0000
0001
0100
0001
0000
0000
0000
1001
0000
0000
0000
,  // measure 21
0100
0000
0001
0010
0001
0000
1000
0100
1000
0000
0000
0000
MMMM
0000
0000
0000
,  // measure 22
0001
0000
1000
0100
0010
0000
0100
0010
0001
0000
0000
0000
1001
0000
0000
0000
,  // measure 23
1000
0000
0001
0010
0100
0000
0010
0100
1000
0000
0000
0000
MMMM
0000
0000
0000
,  // measure 24
0001
0010
1000
0010
0001
0100
1000
0100
,  // measure 25
0001
0000
1000
0000
0010
0010
0110
0000
,  // measure 26
0001
0000
1000
1000
1000
1000
1000
1000
,  // measure 27
1000
1000
1000
1000
1000
0000
MMMM
0000
,  // measure 28
0010
0000
0100
0100
0100
0100
0100
0100
,  // measure 29
0100
0100
0100
0100
0100
0000
MMMM
0000
,  // measure 30
0001
0000
1000
1000
1000
1000
1000
1000
,  // measure 31
0001
0001
0001
0001
0001
0000
MMMM
0000
,  // measure 32
0010
0000
0100
0100
0100
0010
0010
0010
,  // measure 33
1000
1000
1000
1000
1000
0000
MMMM
0000
,  // measure 34
0110
0000
0001
0100
0110
0000
MMMM
0000
,  // measure 35
0110
0000
1000
0100
0110
0000
MMMM
0000
,  // measure 36
1001
0000
1000
0100
1001
0000
MMMM
0000
,  // measure 37
1001
0000
0001
0100
1001
0000
MMMM
0000
,  // measure 38
0010
0000
1000
0001
1000
0000
0100
0000
1000
0001
1000
0000
0010
0000
1000
0100
,  // measure 39
1000
0000
0001
0000
0010
0001
0010
0000
0100
0010
0100
0000
0001
1000
0001
0000
,  // measure 40
1000
0100
0010
0001
1000
0100
0010
0001
0100
0010
0100
0010
0100
0010
0100
0010
,  // measure 41
0100
0100
0100
0100
1001
0000
MMMM
0000
,  // measure 42
1000
0000
0000
1000
0010
0000
0010
0000
0010
0100
0010
0100
0010
0100
0010
0000
,  // measure 43
1000
0001
1000
0001
0100
0010
0100
0010
1000
0100
0010
0001
0100
0000
0000
0000
,  // measure 44
0001
0100
0001
0010
0001
0000
1000
0001
0000
0001
0000
0001
1000
0000
0100
0000
,  // measure 45
0010
0000
0001
0000
0100
0010
0000
0010
0000
0000
0000
0000
1001
0000
0000
0000
,  // measure 46
0010
1000
0000
0000
1000
0100
1000
0100
0010
0001
0010
0001
1000
0000
0001
0100
,  // measure 47
0001
0100
0001
0000
1000
0100
1000
0100
1000
0000
0001
0100
0000
0000
0010
0000
,  // measure 48
0100
0000
0001
0000
1000
0000
0010
0100
0000
0100
0000
0100
0010
0000
1000
0000
,  // measure 49
0001
0001
0001
0001
0001
0000
MMMM
0000
,  // measure 50
0100
0000
0000
0100
0010
0000
1000
0000
0001
1000
0001
0000
0100
0000
0100
0000
,  // measure 51
0001
1000
0001
1000
0010
0000
0010
0000
0001
1000
0001
0000
0100
0010
0100
0000
,  // measure 52
0010
0000
0000
1000
0010
0000
0010
1000
0000
0001
0000
0001
1000
0000
0010
0000
,  // measure 53
0001
0010
0100
0010
0001
0000
1000
0100
0010
0100
1000
0000
1001
0000
0000
0000
,  // measure 54
0010
0000
0001
0010
0100
0010
0001
1000
0100
0010
0100
1000
0001
0000
0100
0000
,  // measure 55
0010
0001
0010
0001
1000
0100
0010
0001
1000
0100
1000
0100
0010
0001
0010
0001
,  // measure 56
1000
0100
0010
0100
1000
0100
0010
0001
,  // measure 57
1001
0000
0110
1001
,  // measure 58
0100
0000
0010
0000
0000
0000
1000
0001
1000
0001
1000
0001
1000
0001
0000
0000
,  // measure 59
0010
0000
0100
0000
0000
0000
0001
1000
0001
1000
0001
1000
0001
1000
0000
0000
,  // measure 60
0100
0000
0010
0000
0000
0000
1000
0100
1000
0010
1000
0001
1000
0100
0000
0000
,  // measure 61
0010
0000
0100
0000
0000
0000
0010
1000
0010
0001
0010
1000
0010
1000
0000
0000
,  // measure 62
0001
0000
1000
0001
0000
0000
0100
0010
0100
0010
0100
0010
0100
0010
0000
0000
,  // measure 63
1000
0000
0001
1000
0000
0000
0010
0100
0010
0100
0010
0100
0010
0100
0000
0000
,  // measure 64
1000
0000
0010
0100
0000
0000
0001
0010
0100
0010
0001
0010
0100
1000
0000
0000
,  // measure 65
0010
0000
0001
0100
0000
0010
1000
0000
0010
0100
0000
0100
0010
0000
0000
0000
,  // measure 66
0001
0000
0000
0001
0100
0000
0101
0000
1000
0000
1001
0000
0010
0000
0011
0000
,  // measure 67
1000
0000
0000
1000
0010
0000
1010
0000
0001
0000
1001
0000
0100
0000
1100
0000
,  // measure 68
0010
0000
0100
0010
0000
0000
1001
0000
0100
0000
0110
0000
0001
0000
1001
0000
,  // measure 69
0001
1000
0001
1000
0100
1000
0001
0010
0001
0100
0010
0100
0010
0000
0000
0000
,  // measure 70
1000
0100
1000
0001
0100
0001
1000
0000
0001
0010
0001
1000
0010
1000
0001
0000
,  // measure 71
1000
0100
0010
0100
0010
0100
1000
0000
0001
0010
0100
0010
0100
0010
0001
0000
,  // measure 72
1000
0000
0001
0010
0001
0000
1000
0100
1000
0000
0100
0010
0001
0000
1000
0100
,  // measure 73
0010
0001
1000
0100
0010
0001
0100
0010
1000
0100
0010
0001
1000
0001
1000
0001
,  // measure 74
2002
0000
0000
0000
,  // measure 75
0000
0000
0000
0000
,  // measure 76
0000
0000
0000
0000
,  // measure 77
0000
0000
3003
0000
;
