#TITLE:MIA;
#SUBTITLE:(featuring Drake);
#ARTIST:Bad Bunny;
#TITLETRANSLIT:;
#SUBTITLETRANSLIT:;
#ARTISTTRANSLIT:;
#GENRE:;
#CREDIT:;
#MENUCOLOR:;
#METERTYPE:DDR;
#BANNER:MIA (featuring Drake).png;
#BACKGROUND:MIA (featuring Drake)-bg.png;
#LYRICSPATH:;
#CDTITLE:;
#MUSIC:MIA (featuring Drake).ogg;
#OFFSET:-0.040;
#SAMPLESTART:48.500;
#SAMPLELENGTH:12.000;
#SELECTABLE:YES;
#LISTSORT:;
#BPMS:0.000=97.000;
#STOPS:;
#BGCHANGES:;
#ATTACKS:;

//---------------dance-single - ----------------
#NOTES:
     dance-single:
     :
     Hard:
     12:
     0.486,0.472,0.058,0.074,0.456:
0000
0000
0000
0000
,
0000
0000
0000
0000
,
0000
0000
0000
0000
,
0000
0000
0000
0000
,
0010
0000
0000
0010
0000
1000
0100
0010
0001
0000
0001
0000
0001
0000
0001
0100
,
0010
0000
0000
0010
0000
0000
1000
0100
1000
0000
0001
0000
0100
0000
0010
0100
,
0001
0000
0000
0001
0000
0000
1000
0000
0200
0000
0000
0000
0310
0000
0001
0000
,
0100
0100
0010
2000
3001
0000
1000
0100
,
0011
0000
0100
0010
0100
0010
1000
0101
,
1000
0000
0000
1000
0000
1000
0010
1000
0001
0000
0010
0000
0100
0000
1000
0000
,
0010
0000
0000
0010
0100
0000
0001
0000
1000
0000
0100
0000
0010
0000
0011
0000
,
0000
0100
0010
2000
0000
3002
0000
1003
,
1001
0000
0010
1000
0100
0010
0001
0100
,
0010
0000
0000
0010
0000
0001
1000
0001
1000
0000
0100
0000
0010
0000
0001
0000
,
0100
0000
0000
0100
0010
0000
0000
0000
1000
0000
0100
0000
0010
0000
0001
0000
,
0000
0000
2002
0000
0000
0000
3003
0000
0000
0000
1000
0001
1000
0001
1000
0000
,
0010
0000
1000
0100
1000
0000
0010
0000
0100
0000
0001
0010
0001
0010
0001
0000
,
1000
0000
0010
0100
0010
0000
1000
0000
0001
0000
1000
0100
1000
0100
1000
0100
,
1000
0000
0010
0100
0010
0000
1000
0000
0001
0000
0100
0010
0100
0010
0100
0010
,
0100
0000
0001
0010
0001
0000
0200
0000
0000
0000
0301
0010
0001
0010
0001
0000
,
1000
0000
0100
1000
0100
0000
0010
0000
0001
0000
0100
0010
0100
0010
0100
0000
,
0001
0000
1000
0010
1000
0000
0001
0000
0100
0000
0010
1000
0010
1000
0010
1000
,
0010
0000
0010
0100
0010
0000
1000
0000
0100
0000
0010
0001
0010
0001
0010
0001
,
0010
0000
0001
0100
0001
0000
0100
0000
0100
0000
0200
0000
0000
0000
0310
0000
,
1000
0000
0000
1000
0100
0000
0001
0100
0001
0000
1000
0010
1000
0010
1000
0000
,
0001
0000
0000
0000
0010
0000
0001
0000
0100
0000
1000
0100
1000
0100
1000
0000
,
0001
0000
0000
0001
0010
0000
0100
0000
1000
0000
0010
0100
0010
0100
0010
0000
,
1000
0000
0000
1000
0100
0000
0010
0000
0001
0000
1000
0010
1000
0010
1000
0000
,
0001
0000
0000
1000
0010
0000
0010
0000
0100
0000
0100
0010
0100
0010
0100
0000
,
0001
0000
0000
0001
0010
0000
0100
0000
1000
0000
0001
0100
0001
0100
0001
0000
,
1000
0000
0000
1000
0100
0000
0010
0000
0001
0000
1000
0010
1000
0010
1000
0000
,
0001
0000
0010
0001
0010
0000
0001
0000
1000
0010
1000
0010
1000
0010
1000
0000
,
0001
0000
0000
1000
0100
0000
0010
0000
0001
0000
0100
0000
0010
0000
0000
0000
,
0001
0000
0000
0001
1000
0000
0010
0000
0100
0000
0001
0000
1000
0000
0000
0000
,
0110
0000
0000
0000
1000
0000
0000
0000
0001
0010
0001
0010
0001
0000
0000
0000
,
0110
0000
0000
0000
0000
0000
0000
1000
0100
1000
0100
1000
0100
0000
0010
0000
,
0001
0000
0100
0000
0000
0000
1000
0000
0100
0000
0010
0001
0010
0001
0010
0000
,
0001
0000
1000
0000
0000
0000
0010
0000
0100
0000
0001
0010
0001
0010
0001
0010
,
0001
0000
1000
0100
0000
0000
0010
0000
0001
0000
1000
0010
1000
0010
1000
0010
,
1000
0000
0001
0010
0000
0000
0200
0000
0000
0000
0310
0100
0010
0100
0010
0000
,
1000
0000
0001
0100
0001
0000
1000
0000
0010
0000
1000
0100
0010
0100
1000
0000
,
0001
0000
0100
0010
0100
0000
0001
0000
0010
0000
0001
1000
0001
1000
0001
1000
,
0001
0000
1000
0100
1000
0000
0010
0000
0010
0000
1000
0100
1000
0100
1000
0000
,
0001
0000
0100
0010
0100
0000
0001
0000
1000
0000
0000
1000
0100
0000
1000
0000
,
0001
0000
0000
0001
0000
0000
0001
0000
0100
0000
0000
0100
0000
0000
0100
0000
,
1000
0000
0000
1000
0000
0000
1000
0000
0010
0000
0000
0010
0000
0010
0100
0010
,
0100
0000
0000
0100
0000
0000
1000
0000
0001
0000
0000
0001
0000
0000
1000
0000
,
0010
0000
0000
0010
0000
0000
1000
0000
0100
0000
0000
0100
0000
0010
0100
0000
;

//---------------dance-single - ----------------
#NOTES:
     dance-single:
     :
     Medium:
     7:
     0.319,0.315,0.099,0.066,0.029:
0000
0000
0000
0000
,
0000
0000
0000
0000
,
0000
0000
0000
0000
,
0000
0000
0000
0000
,
0010
0000
0000
0010
0000
0000
1000
0000
0100
0000
0010
0000
0001
0000
0000
0000
,
0100
0000
0000
0100
0000
0000
0001
0000
0010
0000
0100
0000
1000
0000
0000
0000
,
0010
0000
0000
0010
0000
0000
0010
0000
2000
0000
0000
0000
3002
0000
0000
0000
,
0103
0010
0100
0020
0000
0030
1000
0100
,
0010
0000
1000
0001
1000
0001
0100
0100
,
0010
0000
0000
0001
0010
0100
1000
0000
,
0010
0000
1000
0100
1000
0100
0010
0001
,
0000
0100
0010
2000
0000
3002
0000
0003
,
1001
0000
0001
0010
0001
1000
0100
1000
,
0001
0000
0000
0010
0010
1000
0001
0000
,
0110
0000
1001
0000
0010
1000
0010
1000
,
0000
0110
0000
1001
0000
0001
0100
0001
,
0100
0100
0000
0010
0010
1000
0010
0000
,
0100
0100
0000
0001
0001
1000
0100
0010
,
0001
0000
0000
0001
0000
0000
1000
0000
0001
0000
0010
0000
0100
0000
1000
0000
,
0010
0000
0000
0010
0000
0000
1000
0000
0100
0000
1000
0000
0010
0000
0100
0000
,
0001
0001
0000
1000
1000
0010
0100
0000
,
0001
0001
0000
1000
1000
0001
0010
0100
,
1000
0000
0000
1000
0000
0000
0001
0000
0010
0000
0001
0000
0100
0000
0010
0000
,
1000
0000
0000
1000
0000
0000
0100
0000
0010
0000
0002
0000
0000
0000
0003
0000
,
0000
1001
0110
1001
,
0010
0000
0100
0000
0001
1000
0001
1000
,
0010
0000
1000
0000
0001
0010
0001
0010
,
0001
0000
1000
0000
0010
0100
0010
0100
,
0010
0000
1000
0000
0001
0010
0100
0010
,
0001
0000
0100
0000
1000
0100
0010
0100
,
1000
0000
0010
0000
1000
0001
1000
0001
,
0100
0100
0010
0010
1000
0100
0010
0001
,
1000
0100
0010
0002
,
0003
0010
0100
2000
,
3001
0000
0000
0000
0100
0010
0100
0000
,
1001
0000
0000
0000
0010
0100
0010
1000
,
0001
0001
0000
1000
1000
0001
0100
0000
,
1000
1000
0000
0001
0001
1000
0100
0010
,
0001
0000
0110
0000
0001
0010
0100
1000
,
0001
0000
0110
0000
1000
0100
1000
0100
,
0010
0010
0000
1000
1000
0001
0100
0000
,
0010
0010
0000
0001
0001
1000
0010
1000
,
0100
0100
0010
0000
1000
0100
0010
0001
,
0100
0100
0010
0000
0001
0000
1010
0000
,
0010
0010
0001
0001
,
0100
0100
1000
1000
,
0010
1000
0100
0001
,
0010
0000
0100
0000
1000
0001
1000
0001
;

//---------------dance-single - ----------------
#NOTES:
     dance-single:
     :
     Beginner:
     1:
     0.086,0.098,0.000,0.016,0.000: // measure 1
0000
0000
0000
0000
,  // measure 2
0000
0000
0000
0000
,  // measure 3
0000
0000
0000
0000
,  // measure 4
0000
0000
0000
0000
,  // measure 5
0001
0000
0000
0000
,  // measure 6
1000
0000
0000
0000
,  // measure 7
0010
0000
0010
0000
,  // measure 8
0100
0000
0100
0000
,  // measure 9
0010
0000
1000
0000
,  // measure 10
0100
0000
0000
0000
,  // measure 11
0010
0000
0001
0000
,  // measure 12
0100
0000
0000
0000
,  // measure 13
0001
0000
1000
0000
,  // measure 14
0010
0000
0000
0000
,  // measure 15
1000
0000
0001
0000
,  // measure 16
0100
0000
0000
0000
,  // measure 17
0010
0000
0010
0000
,  // measure 18
0100
0000
0100
0000
,  // measure 19
0001
0000
0000
0000
,  // measure 20
1000
0000
0000
0000
,  // measure 21
0100
0000
0100
0000
,  // measure 22
0010
0000
0010
0000
,  // measure 23
1000
0000
0000
0000
,  // measure 24
0001
0000
0000
0000
,  // measure 25
0000
0000
0100
0100
,  // measure 26
0000
0000
0010
0010
,  // measure 27
0000
0000
1000
1000
,  // measure 28
0000
0000
0001
0001
,  // measure 29
0000
0000
0100
0100
,  // measure 30
0000
0000
0010
0010
,  // measure 31
0000
0000
1000
1000
,  // measure 32
0000
0000
0001
0001
,  // measure 33
0000
0000
0200
0300
,  // measure 34
0000
0000
0020
0030
,  // measure 35
0000
0000
1000
1000
,  // measure 36
1000
0000
0000
0000
,  // measure 37
0001
0000
0001
0000
,  // measure 38
1000
0000
1000
0000
,  // measure 39
0001
0000
0000
0000
,  // measure 40
1000
0000
0000
0000
,  // measure 41
0010
0000
0010
0000
,  // measure 42
0100
0000
0100
0000
,  // measure 43
0010
0000
0000
0000
,  // measure 44
0100
0000
0000
0000
,  // measure 45
0010
0000
0001
0000
,  // measure 46
0100
0000
1000
0000
,  // measure 47
0010
0000
1000
0000
,  // measure 48
0100
0000
0001
0000
;

//---------------dance-single - ----------------
#NOTES:
     dance-single:
     :
     Easy:
     4:
     0.171,0.177,0.016,0.156,0.000: // measure 1
0000
0000
0000
0000
,  // measure 2
0000
0000
0000
0000
,  // measure 3
0000
0000
0000
0000
,  // measure 4
0000
0000
0000
0000
,  // measure 5
0020
0030
1000
0100
,  // measure 6
0010
0000
0001
0010
,  // measure 7
0100
0000
0001
1000
,  // measure 8
0001
0001
1000
0000
,  // measure 9
0010
1000
0100
0010
,  // measure 10
0001
0000
0100
1000
,  // measure 11
0010
1000
0100
0010
,  // measure 12
0001
0000
1000
0000
,  // measure 13
0001
0010
0100
1000
,  // measure 14
0010
0000
0100
0000
,  // measure 15
1000
0100
0010
0001
,  // measure 16
0100
0000
1001
0000
,  // measure 17
0010
0010
0010
0000
,  // measure 18
0100
0100
0100
0000
,  // measure 19
0001
0000
1000
0000
,  // measure 20
0001
0000
1000
0000
,  // measure 21
0100
0100
0100
0000
,  // measure 22
0010
0010
0010
0000
,  // measure 23
1000
0000
0001
0000
,  // measure 24
1000
0000
0001
0000
,  // measure 25
1000
0100
1000
1000
,  // measure 26
1000
0000
0001
0000
,  // measure 27
0001
0010
0001
0001
,  // measure 28
1000
0100
1000
1000
,  // measure 29
0010
1000
0001
0001
,  // measure 30
0100
0001
1000
1000
,  // measure 31
0010
1000
0100
0100
,  // measure 32
0010
0001
0100
0100
,  // measure 33
0010
1000
2000
3000
,  // measure 34
0010
0001
0002
0003
,  // measure 35
0100
0000
0010
0010
,  // measure 36
1001
0000
0000
0000
,  // measure 37
0001
0001
0001
0000
,  // measure 38
1000
1000
1000
0000
,  // measure 39
0020
0030
0200
0300
,  // measure 40
0020
0030
0200
0300
,  // measure 41
1000
1000
1000
0000
,  // measure 42
0001
0001
0001
0000
,  // measure 43
0200
0300
0020
0030
,  // measure 44
0200
0300
0020
0030
,  // measure 45
2000
3000
0002
0003
,  // measure 46
2000
3000
0002
0003
,  // measure 47
0200
0300
0020
0030
,  // measure 48
0200
0300
0020
0030
;
