#TITLE:Love Me;
#SUBTITLE:;
#ARTIST:Kenichi Chiba;
#TITLETRANSLIT:;
#SUBTITLETRANSLIT:;
#ARTISTTRANSLIT:;
#GENRE:;
#CREDIT:;
#BANNER:Love Me.png;
#BACKGROUND:Love Me-bg.png;
#LYRICSPATH:;
#CDTITLE:;
#MUSIC:Love Me.ogg;
#OFFSET:-0.026000;
#SAMPLESTART:18.331083;
#SAMPLELENGTH:14.237291;
#SELECTABLE:YES;
#BPMS:0.000000=118.000000
;
#STOPS:
;
#BGCHANGES:;
#KEYSOUNDS:;
#ATTACKS:;

//---------------dance-single - ----------------
#NOTES:
     dance-single:
     :
     Hard:
     12:
     0.565539,0.667535,0.450885,0.189372,0.595168,439.000000,389.000000,50.000000,21.000000,0.000000,0.000000,0.565539,0.667535,0.450885,0.189372,0.595168,439.000000,389.000000,50.000000,21.000000,0.000000,0.000000:
// measure 0
0000
0000
0000
0000
,  // measure 1
0000
0000
0000
0000
,  // measure 2
0000
0000
0000
0000
,  // measure 3
0000
0000
0000
0000
,  // measure 4
0000
0000
0000
0000
0000
0000
0001
1000
,  // measure 5
0100
0000
0000
0000
1000
0000
0001
0000
0100
0000
0000
0110
0000
0000
0000
0000
,  // measure 6
1000
0000
0101
0000
0010
0000
1000
0001
,  // measure 7
0100
0000
0000
0000
0001
0000
1000
0000
0010
0000
0000
0010
0000
0000
0000
0000
,  // measure 8
2002
0000
0000
0000
3003
0000
0100
0000
0010
0000
0000
0010
0000
0000
1000
0000
,  // measure 9
1000
0000
0001
0000
0000
0000
1001
0000
0000
0000
0000
0010
0000
0000
0000
0010
0000
0000
0000
0000
1000
0100
0000
1000
,  // measure 10
0000
0000
0001
0000
0000
0000
1001
0000
0000
0000
0000
1000
0000
0000
0000
0010
0000
0000
1000
0000
0100
1000
0000
0100
,  // measure 11
0000
0000
1000
0000
0000
0000
0001
0000
0000
0000
0000
0100
0000
0000
0000
0100
0000
0000
0000
0000
0010
0000
0000
0000
,  // measure 12
1000
0000
0001
0000
0000
0000
1001
0000
0000
0000
0000
0010
0000
0000
0000
0010
0000
0000
1000
0000
0100
1000
0000
0100
,  // measure 13
0000
0000
1000
0000
0000
0000
0101
0000
0000
0000
0000
1000
0000
0000
0000
1000
0000
0000
0010
0000
0100
0010
0000
0100
,  // measure 14
0000
0000
0010
0000
0000
0000
1001
0000
0000
0000
0000
0100
0000
0000
0000
0100
0000
0000
0001
0000
0010
0001
0000
0100
,  // measure 15
0000
0000
0010
0000
0000
0000
1001
0000
0000
0000
0000
0100
0000
0000
0000
0100
0000
0000
0000
0000
0010
1000
0000
0010
,  // measure 16
1000
1000
0001
0001
0100
0100
0110
1001
,  // measure 17
0100
0000
0010
0000
0000
0000
1001
0000
0000
0000
0000
1000
0001
0000
0000
1000
0000
0000
0001
0000
0010
0001
0000
0010
,  // measure 18
0000
0000
0001
0000
0000
0000
0110
0000
0000
0000
0000
1000
0000
0000
0000
0010
0000
0000
0100
0000
0010
0100
0000
0010
,  // measure 19
0000
0000
1000
0000
0000
0000
0110
0000
0000
0000
0000
0001
0000
0000
0000
0010
0000
0000
1000
0000
0100
1000
0000
0100
,  // measure 20
0000
0000
1000
0000
0000
0000
0110
0000
0000
0000
0000
0001
0000
0000
0000
0100
0000
0000
0001
0000
1000
0001
0000
1000
,  // measure 21
0000
0000
0010
0000
0000
0000
1001
0000
0000
0000
0000
0100
0000
0000
0000
0100
0000
0000
1000
0000
0001
1000
0000
0001
,  // measure 22
0000
0000
0100
0000
0000
0000
1001
0000
0000
0000
0000
0010
0000
0000
0000
1000
0000
0000
0001
0000
0100
0001
0000
0100
,  // measure 23
0000
0000
0010
0000
0000
0000
1001
0000
0000
0000
0000
1000
0000
0000
0000
0001
0000
0000
0100
0000
0010
0100
0000
0010
,  // measure 24
0100
0100
0001
0001
1000
1000
1001
0000
,  // measure 25
0001
0000
0010
0000
0100
0000
1000
0000
0001
0000
0000
1001
0000
0000
2000
0000
,  // measure 26
0000
0000
0000
0000
0000
0000
3010
0000
0100
0010
0000
0100
0000
0000
0001
0000
0000
1000
0001
0000
0000
0010
0000
0000
,  // measure 27
0100
0000
0010
0000
0001
0000
1000
0000
0100
0000
0000
0110
0000
0000
2000
0000
,  // measure 28
0001
0000
0000
0000
0000
0000
3010
0000
0000
0010
0000
0000
0100
0000
0000
0000
0000
0100
0001
0000
0000
1000
0000
0000
,  // measure 29
0010
0000
0010
0000
0100
0000
0100
0000
0001
0000
0000
1001
0000
0000
2000
0000
,  // measure 30
0000
0000
0000
0000
0000
0000
3001
0000
0100
0001
0000
0200
0000
0000
0000
0310
0000
0000
1000
0000
0000
0001
0000
0000
,  // measure 31
1001
0000
0000
1001
0000
0000
0110
0000
0000
0110
0000
0000
1000
0000
0001
1000
0000
0001
1000
0000
0001
1000
0000
0001
,  // measure 32
0000
0000
0000
0000
0000
0000
0000
0000
0000
0100
0000
0000
0110
0000
0000
0010
0000
1000
0001
0000
0000
1000
0000
0000
,  // measure 33
0001
0000
1000
0001
0000
0000
2000
0000
0000
3100
0000
1000
0000
0000
0000
0002
0000
0000
0103
0000
0001
0000
0000
0000
,  // measure 34
1000
0000
0010
1000
0000
0000
0002
0000
0000
0013
0000
0001
0000
0000
0000
0200
0000
0000
0310
0000
0100
0000
0000
0000
,  // measure 35
0010
0000
1000
0010
0000
0000
0200
0000
0000
0310
0000
0100
0000
0000
0000
0002
0000
0000
1003
0000
0001
0000
0000
0000
,  // measure 36
1000
0000
0100
1000
0000
0000
0020
0000
0000
0130
0000
0000
0020
0000
0000
0130
0000
0000
0001
0000
0000
1001
0000
0000
,  // measure 37
1000
0000
0010
1000
0000
0000
0020
0000
0000
0130
0000
0010
0000
0000
0000
2000
0000
0000
3001
0000
1000
0000
0000
0000
,  // measure 38
0001
0000
0010
0001
0000
0000
0200
0000
0000
0310
0000
0100
0000
0000
0000
0020
0000
0000
1030
0000
0010
0000
0000
0000
,  // measure 39
1000
0000
0100
0010
0000
0000
0200
0000
0000
0310
0000
0100
0000
0000
0000
0002
0000
0000
0103
0000
0001
0000
0000
0000
,  // measure 40
1001
0000
0000
1000
0000
0000
0001
0000
0000
0100
0000
0010
0100
0000
0010
0100
0000
0010
0100
0000
0010
0100
0000
0001
,  // measure 41
1000
0000
0000
0100
0000
0000
0010
0000
0001
0010
0000
0001
0000
0000
1001
0000
0000
1000
0000
0000
0000
0110
0000
0000
,  // measure 42
0001
0000
0000
1000
0000
0000
0010
0000
0100
0010
0000
0100
0000
0000
0110
0000
0000
1000
0000
0000
0000
1001
0000
0000
,  // measure 43
0010
0000
0000
0001
0000
0000
0100
0000
0010
0100
0000
0010
0000
0000
1010
0000
0000
0100
0000
0000
0000
0101
0000
0000
,  // measure 44
0001
0000
0000
1000
0000
0000
0010
0000
0100
0010
0000
0100
0000
0000
0110
0000
0000
1000
0000
0000
0000
1001
0000
0000
,  // measure 45
0010
0000
0000
0011
0000
0000
0100
0000
0010
1000
0000
0001
0000
0000
1001
0000
0000
0101
0000
0000
0000
0011
0000
0000
,  // measure 46
0010
0000
0000
1010
0000
0000
0001
0000
0100
0010
0000
0100
0000
0000
0110
0000
0000
0101
0000
0000
0000
1001
0000
0000
,  // measure 47
1000
0000
0000
0001
0000
0000
1000
0000
0100
1000
0000
0001
0000
0000
1001
0000
0000
1010
0000
0000
0000
1100
0000
0000
,  // measure 48
0002
0100
0100
0103
0000
1000
0100
0010
,  // measure 49
0001
0001
1000
1000
0010
0010
0100
0100
,  // measure 50
0010
0010
1000
1000
0001
0001
0010
0010
,  // measure 51
0001
0000
0100
0001
0000
0100
0001
0000
0100
0001
0000
0000
1000
0000
0100
1000
0000
0100
1000
0000
0100
1000
0000
0000
,  // measure 52
0000
0000
0000
0000
0000
0000
0001
0000
1000
0000
0000
0110
0000
0000
1001
0000
;

//---------------dance-single - ----------------
#NOTES:
     dance-single:
     :
     Medium:
     8:
     0.351690,0.381449,0.396779,0.162319,0.004509,273.000000,229.000000,44.000000,18.000000,0.000000,0.000000,0.351690,0.381449,0.396779,0.162319,0.004509,273.000000,229.000000,44.000000,18.000000,0.000000,0.000000:
// measure 0
0000
0000
0000
0000
,  // measure 1
0000
0000
0000
0000
,  // measure 2
0000
0000
0000
0000
,  // measure 3
0000
0000
0000
0000
,  // measure 4
0000
0000
0000
0000
,  // measure 5
2000
0010
0001
3100
,  // measure 6
0002
0010
1000
0103
,  // measure 7
2000
0100
0010
3001
,  // measure 8
0010
0000
0110
1001
,  // measure 9
0010
1000
0001
0000
0100
0000
1001
0000
,  // measure 10
0010
0001
1000
0000
0100
0000
1001
0000
,  // measure 11
1000
0100
0001
0000
1000
0000
1001
0000
,  // measure 12
0001
0100
1000
0000
0001
0000
1001
0000
,  // measure 13
0010
1000
0001
0000
0100
0000
0110
0000
,  // measure 14
0010
1000
0001
0000
0100
0000
0110
0000
,  // measure 15
1000
0100
0010
0000
0011
0000
1100
0000
,  // measure 16
0010
0010
0100
0100
0001
0001
1000
0000
,  // measure 17
0001
0000
1100
0000
0001
0100
0010
0000
,  // measure 18
1000
0000
0101
0000
1000
0100
0010
0000
,  // measure 19
0100
0000
1001
0000
0010
0001
0100
0000
,  // measure 20
0010
0000
1001
0000
1000
0100
0010
0000
,  // measure 21
0001
1000
0001
0000
1000
0000
0101
0000
,  // measure 22
1000
0001
1000
0000
0001
0000
1100
0000
,  // measure 23
0010
0010
0010
0000
0100
0100
0100
0000
,  // measure 24
0002
0000
2003
0000
3020
0000
0130
0100
,  // measure 25
0001
1001
0000
1001
,  // measure 26
0000
0000
0110
0000
0000
0000
0010
1000
,  // measure 27
0100
1001
0000
0101
,  // measure 28
0000
1010
0000
1001
,  // measure 29
1000
0010
1000
0000
0001
0000
0001
0000
,  // measure 30
1000
0100
1000
0000
0001
0000
0001
0000
,  // measure 31
0100
0010
0100
0010
1000
0001
1000
0001
,  // measure 32
0000
0000
0000
0100
0200
0000
0320
0000
,  // measure 33
1030
0001
1000
0001
0000
0110
0000
0000
,  // measure 34
0000
0001
1000
0001
0000
0110
0000
1001
,  // measure 35
0000
1000
0100
1000
0000
0011
0000
0000
,  // measure 36
0000
0010
0100
0010
0100
0010
0000
1000
,  // measure 37
0000
0001
0100
0001
0000
1010
0000
0000
,  // measure 38
0000
0100
0010
0100
0000
1001
0000
0110
,  // measure 39
0000
0010
1000
0100
0000
1001
0000
0000
,  // measure 40
0000
0010
0100
0010
0200
0000
0320
0000
,  // measure 41
0030
1000
0100
1000
0000
0101
0000
1000
,  // measure 42
0000
0010
0100
0010
0000
1001
0000
0110
,  // measure 43
0000
0100
0001
1000
0000
0011
0000
1100
,  // measure 44
0000
0001
0100
0001
0100
0001
0000
1010
,  // measure 45
0000
0010
0010
0010
0000
1010
0000
0101
,  // measure 46
0000
0100
0100
0100
0000
0011
0000
1100
,  // measure 47
0000
0010
0010
0010
0000
1001
0000
0110
,  // measure 48
0000
0100
0010
0100
0000
0000
0001
1000
,  // measure 49
0200
2300
3020
0032
,  // measure 50
0203
0302
0023
2030
,  // measure 51
3100
1000
0100
1000
0001
0010
0100
1000
,  // measure 52
0000
0000
0000
0000
0000
0000
0010
0000
0010
0000
0000
0010
0000
0000
1001
0000
;

//---------------dance-single - ----------------
#NOTES:
     dance-single:
     :
     Easy:
     5:
     0.220290,0.309194,0.180354,0.126248,0.000000,171.000000,151.000000,20.000000,14.000000,0.000000,0.000000,0.220290,0.309194,0.180354,0.126248,0.000000,171.000000,151.000000,20.000000,14.000000,0.000000,0.000000:
// measure 0
0000
0000
0000
0000
,  // measure 1
0000
0000
0000
0000
,  // measure 2
0000
0000
0000
0000
,  // measure 3
0000
0000
0000
0000
,  // measure 4
0000
0000
0000
0000
,  // measure 5
0010
0010
0020
0030
,  // measure 6
0200
0300
0002
0003
,  // measure 7
0100
0100
0200
0300
,  // measure 8
0000
0000
2002
3003
,  // measure 9
0010
0100
0010
0010
,  // measure 10
0100
0010
0100
0100
,  // measure 11
0001
0010
0100
1000
,  // measure 12
1000
0100
0010
0001
,  // measure 13
0100
0010
1000
1000
,  // measure 14
0010
0100
0001
0001
,  // measure 15
1000
0001
0100
0010
,  // measure 16
0001
1000
0010
0100
,  // measure 17
0001
0010
0100
0100
,  // measure 18
1000
0100
0010
0010
,  // measure 19
1000
0001
0100
0100
,  // measure 20
0001
1000
0100
0100
,  // measure 21
1000
0010
0001
0010
,  // measure 22
1000
0100
0001
0100
,  // measure 23
1000
0010
0001
0100
,  // measure 24
0010
0010
0100
0100
,  // measure 25
0002
0000
0000
0000
,  // measure 26
2003
0000
0000
0000
,  // measure 27
3020
0000
0000
0000
,  // measure 28
0230
0000
0000
0000
,  // measure 29
0301
0010
0100
1000
,  // measure 30
1000
0100
0010
0001
,  // measure 31
0100
1000
0010
0001
,  // measure 32
0000
0000
0110
1001
,  // measure 33
0000
0110
0000
1001
,  // measure 34
0000
1100
0000
0011
,  // measure 35
0000
0101
0000
1010
,  // measure 36
0000
0010
0010
0010
,  // measure 37
0000
1001
0000
0110
,  // measure 38
0000
1100
0000
0101
,  // measure 39
0000
0011
0000
1010
,  // measure 40
0000
0010
0010
0010
,  // measure 41
1000
0001
1000
0100
,  // measure 42
0001
1000
0001
0100
,  // measure 43
0001
0010
0100
1000
,  // measure 44
1000
0100
0010
0001
,  // measure 45
0010
0001
0100
1001
,  // measure 46
0010
1000
0100
1001
,  // measure 47
0010
1001
0100
1001
,  // measure 48
0010
0010
0010
1000
,  // measure 49
0002
0000
2003
0000
,  // measure 50
3020
0000
0230
0000
,  // measure 51
0301
0001
1000
1000
,  // measure 52
0000
0000
0010
1001
;

//---------------dance-single - ----------------
#NOTES:
     dance-single:
     :
     Beginner:
     2:
     0.128824,0.166489,0.000000,0.036071,0.000000,100.000000,100.000000,0.000000,4.000000,0.000000,0.000000,0.128824,0.166489,0.000000,0.036071,0.000000,100.000000,100.000000,0.000000,4.000000,0.000000,0.000000:
// measure 0
0000
0000
0000
0000
,  // measure 1
0000
0000
0000
0000
,  // measure 2
0000
0000
0000
0000
,  // measure 3
0000
0000
0000
0000
,  // measure 4
0000
0000
0000
0000
,  // measure 5
0010
0000
0000
0000
,  // measure 6
0001
0000
0000
0000
,  // measure 7
0100
0000
0000
0000
,  // measure 8
0000
0000
0100
0100
,  // measure 9
0000
0001
0000
1000
,  // measure 10
0000
0001
0000
0001
,  // measure 11
0000
1000
0000
0001
,  // measure 12
0000
1000
0000
1000
,  // measure 13
0000
0010
0000
0010
,  // measure 14
0000
0100
0000
0100
,  // measure 15
0000
0001
0000
1000
,  // measure 16
1000
1000
1000
0000
,  // measure 17
0000
0001
0000
1000
,  // measure 18
0000
0010
0000
0100
,  // measure 19
0000
0010
0000
0010
,  // measure 20
0000
0100
0000
0100
,  // measure 21
0000
1000
0000
0001
,  // measure 22
0000
1000
0000
0001
,  // measure 23
0000
0010
0000
0010
,  // measure 24
0010
0000
0100
0000
,  // measure 25
0002
0000
0003
0000
,  // measure 26
2000
0000
3000
0000
,  // measure 27
0020
0000
0030
0000
,  // measure 28
0200
0000
0300
0000
,  // measure 29
0001
0001
0001
0000
,  // measure 30
1000
1000
1000
0000
,  // measure 31
0010
0010
0010
0010
,  // measure 32
0000
0000
0100
0100
,  // measure 33
0000
0001
0000
1000
,  // measure 34
0000
0001
0000
1000
,  // measure 35
0000
0010
0000
0100
,  // measure 36
0000
0010
0010
0010
,  // measure 37
0000
1000
0000
0001
,  // measure 38
0000
1000
0000
0001
,  // measure 39
0000
0100
0000
0010
,  // measure 40
0000
0100
0100
0100
,  // measure 41
0100
0000
0001
0000
,  // measure 42
1000
0000
0010
0000
,  // measure 43
0100
0000
0001
0000
,  // measure 44
1000
1000
1000
1000
,  // measure 45
1000
0000
0001
0000
,  // measure 46
1000
0000
0100
0000
,  // measure 47
0010
0000
0001
0000
,  // measure 48
0000
0100
0000
0100
,  // measure 49
0100
0000
0010
0000
,  // measure 50
1000
0000
0001
0000
,  // measure 51
0100
0100
0100
0100
,  // measure 52
0000
0000
0010
0010
;
