#TITLE:Lift Us High;
#SUBTITLE:;
#ARTIST:BEMANI Sound Team "Sota Fujimori";
#TITLETRANSLIT:;
#SUBTITLETRANSLIT:;
#ARTISTTRANSLIT:;
#GENRE:;
#CREDIT:;
#BANNER:Lift Us High.png;
#BACKGROUND:Lift Us High-bg.png;
#LYRICSPATH:;
#CDTITLE:;
#MUSIC:Lift Us High.ogg;
#OFFSET:-0.100000;
#SAMPLESTART:56.099998;
#SAMPLELENGTH:12.800003;
#SELECTABLE:YES;
#BPMS:0.000000=150.000000
;
#STOPS:
;
#BGCHANGES:0.000=Lift Us High.avi=1.000=0=0=0=StretchNoLoop====,
99999=-nosongbg-=1.000=0=0=0 // don't automatically add -songbackground-
;
#KEYSOUNDS:;
#ATTACKS:;

//---------------dance-single - ----------------
#NOTES:
     dance-single:
     :
     Beginner:
     4:
     0.152073,0.208901,0.000000,0.038569,0.000000,138.000000,138.000000,0.000000,5.000000,0.000000,0.000000,0.152073,0.208901,0.000000,0.038569,0.000000,138.000000,138.000000,0.000000,5.000000,0.000000,0.000000:
0000
0000
0000
0000
,
0000
0000
0000
0000
,
0000
0000
0000
0000
,
0000
0000
0000
0000
,
0000
0000
0000
0000
,
0010
0010
0000
0000
,
0100
0100
0000
0000
,
0001
0001
0000
0000
,
1000
1000
0000
0000
,
0000
0001
0000
0001
,
0000
1000
0000
1000
,
0000
0100
0000
0100
,
0000
0010
0000
0010
,
0000
1000
0000
1000
,
0000
0001
0000
0001
,
0000
0010
0000
0010
,
0000
0100
0000
0100
,
0100
0000
0000
0010
,
0010
0000
0000
1000
,
1000
0000
0000
0001
,
0001
0000
1000
0000
,
0001
0000
0000
0100
,
0100
0000
0000
0010
,
0010
0000
0000
1000
,
1000
0000
1000
0000
,
0000
0000
0001
0000
,
0000
0000
1000
0000
,
1000
0000
0000
0001
,
0000
0001
0000
0001
,
0000
0000
0100
0000
,
0000
0000
0010
0000
,
0010
0000
0000
1000
,
0000
1000
1000
0000
,
0002
0000
0003
0000
,
2000
0000
3000
0000
,
0000
0001
0000
0001
,
0000
1000
0000
1000
,
0000
0010
0000
0100
,
0000
0010
0000
0100
,
0000
1000
0000
1000
,
0000
0001
0000
0001
,
0000
0100
0000
0010
,
0000
0100
0000
0100
,
0000
0010
0000
0001
,
0000
1000
0000
1000
,
0000
0010
0000
1000
,
0000
0001
0000
0001
,
0000
0100
0000
1000
,
1000
0000
0000
0000
,
0100
0000
0001
0000
,
1000
0000
0000
0000
,
0001
0000
0001
0000
,
0010
0000
0010
0000
,
0100
0000
0100
0000
,
1000
0000
1000
0000
,
0001
0000
0001
0000
,
1000
0000
1000
0000
,
0010
0000
0010
0000
,
0100
0000
0100
0000
,
0200
0000
0300
0000
,
0000
0001
0000
1000
,
0000
0010
0000
0010
,
0000
1000
0000
0001
,
0000
0100
0000
0100
,
0000
0001
0000
0010
,
0000
0100
0000
1000
,
0000
0001
0000
1000
,
0000
0010
0000
0010
,
0000
0100
0100
0100
,
0000
0100
0000
0100
,
0000
0001
0000
1000
,
1000
0000
0000
1000
0000
0000
0001
0000
,
0000
1000
1000
1000
,
0000
0001
0000
0010
,
0000
0100
0000
1000
,
2000
0000
3000
0000
,
0002
0000
0003
0000
,
1000
0000
0000
1000
0000
0000
0000
0000
;

//---------------dance-single - ----------------
#NOTES:
     dance-single:
     :
     Easy:
     6:
     0.300840,0.328272,0.154277,0.208274,0.003857,273.000000,253.000000,20.000000,27.000000,0.000000,0.000000,0.300840,0.328272,0.154277,0.208274,0.003857,273.000000,253.000000,20.000000,27.000000,0.000000,0.000000:
0000
0000
0000
0000
,
0000
0000
0000
0000
,
0000
0000
0000
0000
,
0000
0000
0000
0000
,
0000
0000
0000
0000
,
0010
0001
0100
0000
,
0010
1000
0100
0000
,
1000
0100
0010
0000
,
0001
0010
0100
0000
,
0001
1000
0100
0100
,
1000
0001
0010
0010
,
0001
0001
0100
0100
,
1000
1000
0001
1001
,
1000
0001
0100
0100
,
0001
1000
0010
0010
,
1000
1000
0100
0100
,
0001
0001
1000
1001
,
0020
0000
0000
0130
,
0002
0000
1003
1000
,
0010
0010
0010
1000
,
1000
1000
1001
0000
,
0200
0000
0000
0310
,
2000
0000
3001
0001
,
0100
0100
0100
0001
,
0001
0001
1001
0000
,
0010
0010
0001
0100
,
1000
0000
0001
1000
,
0010
0010
0010
0100
,
0100
0100
1001
0000
,
0010
0010
1000
0100
,
0001
0000
1000
0001
,
0100
0100
0100
0010
,
0010
0010
1000
0002
,
2000
0000
0000
3003
,
0020
0000
0200
0330
,
0001
1000
0100
1001
,
0010
0010
0100
0100
,
1000
0001
0010
1001
,
1000
1000
0001
0001
,
0100
0001
0010
1001
,
0100
0100
0010
0010
,
1000
0100
0010
0001
,
0200
0010
0310
0110
,
0002
1003
0100
0010
,
0001
0001
1000
1000
,
0001
0010
0100
1000
,
0001
0001
1000
1000
,
0010
0001
1000
0100
,
0010
0000
0000
1001
0000
1001
0000
0000
,
0010
1000
0100
0001
,
0020
0100
0130
0110
,
0002
0003
0020
0030
,
0200
0300
2000
3000
,
2000
3000
0200
0300
,
0020
0030
0002
0003
,
1000
0100
0010
0100
,
0001
0010
0100
0010
,
1000
0001
0100
0010
,
0001
0010
0100
1000
,
0020
0000
0000
0130
,
0001
2000
0000
3001
,
1000
0100
0010
0002
,
0000
1003
0010
1000
,
0001
0100
0001
1001
,
0000
0020
0100
0130
,
1000
0100
0010
0001
,
0100
0000
0100
0000
1000
0000
0000
1001
,
0000
1001
0000
2002
0000
0000
3003
0000
,
0020
0130
0001
1000
,
0100
0100
0010
0010
,
0100
0010
1000
0001
,
0010
0000
0000
0110
0000
0000
0100
0000
,
0002
1003
0100
0010
,
1000
1000
0001
0001
,
0100
0010
1000
0001
,
1001
0000
0000
0110
0000
0000
1001
0000
,
0010
0001
0100
1000
,
0010
0000
0000
0010
0000
0000
0010
0000
0000
0000
0000
0000
0000
0000
0000
0000
;

//---------------dance-threepanel - ----------------
#NOTES:
     dance-threepanel:
     :
     Challenge:
     1:
     0.001102,0.030421,0.000000,0.000000,0.000000,1.000000,1.000000,0.000000,0.000000,0.000000,0.000000,0.001102,0.030421,0.000000,0.000000,0.000000,1.000000,1.000000,0.000000,0.000000,0.000000,0.000000:
000
000
000
000
,
000
000
000
000
,
000
000
000
000
,
000
000
000
000
,
000
000
000
000
,
000
000
000
000
,
000
000
000
000
,
000
000
000
000
,
000
000
000
000
,
000
000
000
000
,
000
000
000
000
,
000
000
000
000
,
000
000
000
000
,
000
000
000
000
,
000
000
000
000
,
000
000
000
000
,
000
000
000
000
,
000
000
000
000
,
000
000
000
000
,
000
000
000
000
,
000
000
000
000
,
000
000
000
000
,
000
000
000
000
,
000
000
000
000
,
000
000
000
000
,
000
000
000
000
,
000
000
000
000
,
000
000
000
000
,
000
000
000
000
,
000
000
000
000
,
000
000
000
000
,
000
000
000
000
,
000
000
000
000
,
000
000
000
000
,
000
000
000
000
,
000
000
000
000
,
000
000
000
000
,
000
000
000
000
,
000
000
000
000
,
000
000
000
000
,
000
000
000
000
,
000
000
000
000
,
000
000
000
000
,
000
000
000
000
,
000
000
000
000
,
000
000
000
000
,
000
000
000
000
,
000
000
000
000
,
000
000
000
000
,
000
000
000
000
,
000
000
000
000
,
000
000
000
000
,
000
000
000
000
,
000
000
000
000
,
000
000
000
000
,
000
000
000
000
,
000
000
000
000
,
000
000
000
000
,
000
000
000
000
,
000
000
000
000
,
000
000
000
000
,
000
000
000
000
,
000
000
000
000
,
000
000
000
000
,
000
000
000
000
,
000
000
000
000
,
000
000
000
000
,
000
000
000
000
,
000
000
000
000
,
000
000
000
000
,
000
000
000
000
,
000
000
000
000
,
000
000
000
000
,
000
000
000
000
,
000
000
000
000
,
000
000
000
000
,
000
000
000
000
,
000
000
000
000
,
000
000
000
000
000
000
000
001
;

//---------------dance-double - ----------------
#NOTES:
     dance-double:
     :
     Easy:
     5:
     0.289820,0.328272,0.107994,0.215988,0.003857,263.000000,249.000000,14.000000,28.000000,0.000000,0.000000,0.289820,0.328272,0.107994,0.215988,0.003857,263.000000,249.000000,14.000000,28.000000,0.000000,0.000000:
00000000
00000000
00000000
00000000
,
00000000
00000000
00000000
00000000
,
00000000
00000000
00000000
00000000
,
00000000
00000000
00000000
00000000
,
00000000
00000000
00000000
00000000
,
10000000
00000000
00010000
00000000
,
01000000
00000000
00100000
00000000
,
10000000
00000000
01000000
00000000
,
00010000
00000000
00001000
00000000
,
00000010
00000000
00000001
00000001
,
00000200
00000300
00001000
00001000
,
00000200
00000300
00000001
00000100
,
00002000
00003000
00010000
01000000
,
20000000
30000000
00100000
00100000
,
00020000
00030000
00100000
00100000
,
20000000
30000000
01000000
00100000
,
00020000
00030000
00001000
00011000
,
00010000
00001000
00010000
00001000
,
00010000
00100000
01000000
10000000
,
00100000
00100000
00100000
01000000
,
01000000
01000000
00001000
00000000
,
00001000
00010000
00001000
00010000
,
00001000
00000100
00000010
00000001
,
00000100
00000100
00000100
00000010
,
00000010
00000010
00001001
00000000
,
00000010
00000001
00000100
00000200
,
00000000
00000310
00000010
00001000
,
00000100
00000100
00010000
00001000
,
00001000
01000000
20020000
30030000
,
00100000
10000000
01000000
02000000
,
00000000
03100000
00100000
10010000
,
00100000
00001000
00001000
00010000
,
00000010
00000010
00000100
00002000
,
00000002
00000000
00000000
00003003
,
00000020
00000000
00000200
00000330
,
00000001
00000100
00000001
00000100
,
00001000
00000100
00001000
00000100
,
00000001
00000100
00000100
00001000
,
00010000
01000000
01000000
10000000
,
00100000
10000000
00100000
10000000
,
00100000
00010000
00100000
10000000
,
10000000
00100000
00010000
00001000
,
00010000
00001000
00000010
00001001
,
00000010
00001000
00000010
00001000
,
00000010
00000001
00000100
00001000
,
00010000
00001000
00010000
00001000
,
00100000
00010000
01000000
10000000
,
00100000
00010000
00100000
00010000
,
00001000
00000000
00000000
00011000
00000000
00011000
00000000
00000000
,
00001000
00010000
00001000
00010000
,
00000100
00001000
00000010
00000001
,
00000200
00000300
00000002
00000003
,
00000020
00000030
00002000
00003000
,
00020000
00030000
02000000
03000000
,
20000000
30000000
00200000
00300000
,
10000000
10000000
01000000
01000000
,
00100000
00100000
00010000
00010000
,
00001000
00001000
00010000
00010000
,
00100000
00100000
00001000
00010000
,
00022000
00000000
00033000
00011000
,
00010000
00000100
00000100
00001000
,
00000010
00000001
00000100
00001000
,
00010000
00001000
00001000
00100000
,
10000000
01000000
00010000
00100000
,
00001000
00001000
00010000
00010000
,
00000100
00001000
00000010
00000001
,
00000100
00000000
00000100
00000000
00000010
00000000
00000000
00001001
,
00000000
00001001
00000000
00002002
00000000
00000000
00003003
00000000
,
00000000
00000110
00001000
00000100
,
00000010
00000001
00001000
00001000
,
00000100
00000100
00010000
00010000
,
00001000
00000000
00000000
00100000
00000000
00000000
00010000
00000000
,
02000000
03100000
00100000
10000000
,
01000000
00010000
01000000
10000000
,
00100000
00100000
00001000
00001000
,
00010000
00000000
00000000
00011000
00000000
00000000
00010000
00000000
,
00000100
00001000
00000010
00000001
,
00000100
00000000
00000000
00000100
00000000
00000000
00000100
00000000
00000000
00000000
00000000
00000000
00000000
00000000
00000000
00000000
;

//---------------dance-double - ----------------
#NOTES:
     dance-double:
     :
     Medium:
     9:
     0.426466,0.417801,0.177419,0.200560,0.115708,387.000000,364.000000,23.000000,26.000000,0.000000,0.000000,0.426466,0.417801,0.177419,0.200560,0.115708,387.000000,364.000000,23.000000,26.000000,0.000000,0.000000:
00000000
00000000
00000000
00000000
,
00000000
00000000
00000000
00000000
,
00000000
00000000
00000000
00000000
,
00000000
00000000
00000000
00000000
,
00000000
00000000
00000000
00000000
,
10000000
01000000
00100000
00000000
00010000
00000000
00010000
00000000
,
00100000
00001000
00010000
00000000
00001000
00000000
00011000
00000000
,
00010000
00001000
00000100
00000000
00001000
00000000
00001001
00000000
,
00000010
00000001
00000100
00000000
00000010
00000000
00001001
00000000
,
00000020
00000000
00001030
00000000
00000001
00000100
00000001
00000200
,
00000000
00000000
00000000
00000000
00000310
00000000
00000000
00000000
00001000
00000000
00000000
00001000
00000000
00000000
00001000
00000000
,
00000002
00000000
00001003
00000000
00000100
00010000
00000100
00020000
,
00000000
00032000
00000000
01000000
01003000
00000000
00010000
00000000
,
10000000
00000000
00000000
00000000
01000000
00000000
00000000
00000000
00100000
00000000
00000000
00100000
00000000
00000000
00100000
00000000
,
00000000
00000000
00000000
00000000
00000000
00000000
01000000
00000000
00010000
00000000
00000000
00010000
00000000
00000000
00010000
00000000
,
20000000
00000000
30100000
00000000
01000000
00010000
01000000
00010000
,
00000000
00110000
00000000
00001000
00010000
00000000
00011000
00000000
,
00001000
00000000
00000000
00000100
00000000
00000000
00000010
00000000
00000000
00000001
00000000
00000000
00001000
00000000
00000100
00000000
,
00001000
00000000
00000000
00000010
00000000
00000000
00000001
00000000
00000000
00000000
00000100
00000000
00000010
00000000
00000000
00000000
,
00000001
00000010
00000100
00000100
00000100
00000000
00001000
00000100
,
00010000
00010000
00010000
00000000
00001000
00100000
00010000
00000000
,
00010000
00000000
00000000
00100000
00000000
00000000
01000000
00000000
00000000
10000000
00000000
00000000
00010000
00000000
00100000
00000000
,
00010000
00000000
00000000
01000000
00000000
00000000
10000000
00000000
00000000
00000000
01000000
00000000
00100000
00000000
00000000
00000000
,
10000000
01000000
00100000
00100000
00100000
00000000
00100000
00001000
,
00010000
00010000
00010000
00000000
00000100
00001000
00000001
00000000
,
00000100
00000000
00001001
00000000
00001000
00000001
00001000
00000200
,
00000000
00010300
00001000
01000000
,
00010000
00100000
00010000
00100000
00010000
00000000
10000000
01000000
,
00100000
00000000
00001000
00000000
00010000
00010000
00010000
00000000
,
00000100
00000000
00001001
00000000
00000010
00000001
00000010
00000002
,
00000000
00000000
00001003
00000000
00000100
00001000
00000100
00000000
,
00010000
00010000
00010000
00000000
00001000
00000000
00100000
00100000
,
00100000
00010000
01000000
10000000
,
20020000
00000000
00000000
30030000
,
00200000
01000000
01300000
01100000
,
10000000
01000000
00100000
00010000
00000000
00000000
01000000
00000000
,
00001000
00010000
00001000
00010000
00000000
00000000
00000100
00000000
,
00001000
00000000
00000100
00000010
00000000
00000001
00000010
00000001
,
00000000
00001000
00000000
00000110
00000000
00000000
00000001
00001000
,
00000000
00000100
00001000
00000100
00000000
00000000
00010000
00001000
,
00010000
00000000
00001000
00100000
00000000
00100000
00000000
00000000
,
00010000
00100000
00010000
00100000
00000000
00010000
01000000
00200000
,
00000000
10000000
01300000
10010000
,
10000000
01000000
00100000
00010000
00000000
00000000
01000000
00000000
,
00001000
00010000
00001000
00010000
00000000
00000000
00000010
00000000
,
00001000
00000000
00000001
00000010
00000000
00000100
00001000
00000100
,
00000000
00010000
00000000
00011000
00000000
00000000
00010000
00001000
,
00000000
00000100
00001000
00000100
00000000
00000000
00010000
00001000
,
00010000
00001000
00000000
00011000
00000000
00011000
00000000
00000000
,
00010000
00000100
00010000
00000100
00000000
00001000
00000100
00000020
,
00000000
00000001
00000130
00001001
,
00000010
00000000
00000000
00000010
00000000
00000000
00000010
00000000
00000100
00000000
00000000
00000100
00000000
00000000
00000100
00000000
,
00000001
00000000
00000000
00000001
00000000
00000000
00000001
00000000
00001000
00000000
00000000
00001000
00000000
00000000
00001000
00000000
,
00000100
00000000
00000000
00000100
00000000
00000000
00000100
00000000
00001000
00000000
00000000
00001000
00000000
00000000
00001000
00000000
,
00010000
00000000
00000000
00010000
00000000
00000000
00001000
00000000
00100000
00000000
00000000
00100000
00000000
00000000
00010000
00000000
,
01000000
00000000
00000000
01000000
00000000
00000000
01000000
00000000
00100000
00000000
00000000
00100000
00000000
00000000
00100000
00000000
,
10000000
00000000
00000000
10000000
00000000
00000000
10000000
00000000
01000000
00000000
00000000
01000000
00000000
00000000
01000000
00000000
,
00100000
00000000
00000000
00100000
00000000
00000000
00100000
00000000
00001000
00000000
00000000
00001000
00000000
00000000
00010000
00000000
,
00000100
00000000
00000000
00000100
00000000
00000000
00000100
00000000
00001000
00000000
00000000
00001000
00000000
00000000
00000002
00000000
,
00002000
00000000
00003003
00001001
,
00000010
00000001
00000010
00000002
00000000
00000000
00001003
00000000
,
00000100
00010000
00001000
00010000
00000000
00001000
00010000
00002000
,
00000000
00000000
00103000
00200000
00000000
00000000
00310000
00010000
,
00000000
10010000
00000000
02200000
00000000
00000000
03300000
00000000
,
10000000
00010000
10000000
00020000
00000000
00000000
00130000
00000000
,
00100000
00001000
00100000
00002000
00000000
00000000
00013000
00020000
,
00000000
00000000
00030100
00000200
00000000
00001300
00000100
00000010
,
00000000
00001001
00000000
00002002
00000000
00003003
00001001
00000000
,
00000000
00000000
00000101
00000000
00001000
00000100
00001000
00000000
,
00000100
00000000
00010000
00000000
00001000
00010000
00001000
00000000
,
00100000
00000000
00010000
00000000
01000000
00100000
01000000
00000000
,
00100000
00000000
00000000
00100000
00000000
00000000
00100000
00000000
00000000
00100000
00000000
00000000
00100000
00000000
00000000
00000000
,
10000000
00000000
01000000
00000000
00100000
00001000
00100000
00000000
,
00001000
00000000
00010000
00000000
00000100
00001000
00000100
00000000
,
00001000
00000000
00000010
00000000
00000001
00000100
00000010
00000000
,
00001000
00000000
00000000
00001000
00000000
00000000
00001000
00000000
00000000
00001000
00000000
00000000
00001000
00000000
00000000
00000000
,
00000100
00010000
00001000
00011000
,
00100000
00000000
00000000
00100000
00000000
00000000
00100000
00000000
00000000
00000000
00000000
00000000
00000000
00000000
00000000
00000000
;

//---------------dance-single - ----------------
#NOTES:
     dance-single:
     :
     Medium:
     9:
     0.431975,0.417801,0.177419,0.208274,0.115708,392.000000,369.000000,23.000000,27.000000,0.000000,0.000000,0.431975,0.417801,0.177419,0.208274,0.115708,392.000000,369.000000,23.000000,27.000000,0.000000,0.000000:
0000
0000
0000
0000
,
0000
0000
0000
0000
,
0000
0000
0000
0000
,
0000
0000
0000
0000
,
0000
0000
0000
0000
,
1000
0100
1000
0000
0001
0000
0001
0000
,
0100
0001
0100
0000
0010
0000
0010
0000
,
0001
0100
0001
0000
1000
0000
1000
0000
,
0010
0100
0010
0000
0100
0000
1001
0000
,
0020
0000
0031
0000
1000
0001
1000
0002
,
0000
0000
0000
0000
0103
0000
0000
0000
0010
0000
0000
0010
0000
0000
0010
0000
,
2000
0000
3001
0000
0100
0010
0100
0020
,
0000
0230
0000
0010
0310
0000
1001
0000
,
1000
0000
0000
0000
0100
0000
0000
0000
0010
0000
0000
0010
0000
0000
0010
0000
,
0000
0000
0000
0000
0000
0000
0100
0000
0001
0000
0000
0001
0000
0000
0001
0000
,
2000
0000
3010
0000
0100
0001
0100
0001
,
0000
1001
0000
1000
0001
0000
1001
0000
,
0001
0000
0000
0010
0000
0000
0100
0000
0000
1000
0000
0000
0010
0000
0100
0000
,
0010
0000
0000
0010
0000
0000
0010
0000
0000
0000
1000
0000
0001
0000
0000
0000
,
1000
0001
1000
0001
1000
0000
0010
0100
,
0001
0001
0001
0000
1000
0001
1000
0000
,
1000
0000
0000
0100
0000
0000
0010
0000
0000
0001
0000
0000
1000
0000
0010
0000
,
1000
0000
0000
1000
0000
0000
1000
0000
0000
0000
0100
0000
0010
0000
0000
0000
,
0001
1000
0001
1000
0001
0000
0100
0001
,
1000
1000
1000
0000
0010
1000
0001
0000
,
0100
0000
1001
0000
0010
0001
0010
0002
,
0000
0103
0001
1001
,
0100
0010
0100
0010
0100
0000
0001
0010
,
0100
0000
1000
0000
0001
0001
0001
0000
,
0100
0000
1001
0000
0010
1000
0010
2000
,
0000
0000
3001
0000
0010
0001
0010
0000
,
0100
0100
0100
0000
0001
0000
0010
0010
,
0010
1000
0100
0001
,
2002
0000
0000
3003
,
0020
0100
0130
0110
,
1000
0100
0010
0001
0000
0000
0100
0000
,
0001
1000
0001
1000
0000
0010
0100
0000
,
0001
0000
0010
0100
0000
1000
0100
1000
,
0000
0001
0000
1001
0000
0000
0010
0100
,
0000
0001
1000
0001
0000
0000
1000
0100
,
1000
0100
0000
0010
0000
0001
0000
0000
,
1000
0010
1000
0010
0000
0100
0001
2000
,
0000
3001
0100
1001
,
1000
0100
0010
0002
0000
0000
0103
0000
,
0001
1000
0001
1000
0000
0001
0100
0001
,
0100
0000
0010
0100
0000
0001
0001
0001
,
0000
1001
0000
1001
0000
0000
0100
0010
,
0000
1000
0100
1000
0000
0000
0001
0100
,
0001
0100
0000
1001
0000
1001
0000
0000
,
0001
1000
0001
1000
0000
0010
0010
0020
,
0000
0100
0130
1001
,
0001
0000
0000
0001
0000
0000
0001
0000
0100
0000
0000
0100
0000
0000
0100
0000
,
1000
0000
0000
1000
0000
0000
1000
0000
0010
0000
0000
0010
0000
0000
0010
0000
,
1000
0000
0000
1000
0000
0000
1000
0000
0100
0000
0000
0100
0000
0000
0100
0000
,
0010
0000
0000
0010
0000
0000
0010
0000
0001
0000
0000
0001
0000
0000
0001
0000
,
0100
0000
0000
0100
0000
0000
0100
0000
0010
0000
0000
0010
0000
0000
0010
0000
,
1000
0000
0000
1000
0000
0000
1000
0000
0100
0000
0000
0100
0000
0000
0100
0000
,
0010
0000
0000
0010
0000
0000
0010
0000
0001
0000
0000
0001
0000
0000
0001
0000
,
0100
0000
0000
0100
0000
0000
0100
0000
1000
0000
0000
1000
0000
0000
2000
0000
,
0002
0000
3003
1001
,
0010
1000
0010
2000
0000
0000
3001
0000
,
0100
0001
0100
0001
0000
0000
0001
0002
,
0000
0000
0013
0020
0000
0000
0130
0100
,
0000
1001
0000
0220
0000
0000
0330
0000
,
1000
0001
1000
0002
0000
0000
1003
0000
,
0010
0100
0010
0200
0000
0000
0301
0002
,
0000
0000
1003
2000
0000
3010
0100
0010
,
0000
1001
0000
2002
0000
3003
1001
0000
,
0000
0000
1100
0000
1000
0100
1000
0000
,
0010
0000
0100
0000
0001
1000
0001
0000
,
1000
0000
0100
0000
0010
0001
0010
0001
,
0100
0000
0000
0100
0000
0000
0100
0000
0000
0100
0000
0000
0100
0000
0000
0000
,
1000
0000
0100
0000
0010
0001
0010
0000
,
0001
0000
0010
0000
0100
1000
0100
0000
,
1000
0000
0010
0000
0001
0100
0010
0000
,
1000
0000
0000
1000
0000
0000
1000
0000
0000
1000
0000
0000
1000
0000
0001
0000
,
0100
0000
0100
0000
0100
0100
0100
0000
,
0010
0000
0000
0010
0000
0000
0010
0000
0000
0000
0000
0000
0000
0000
0000
0000
;

//---------------dance-double - ----------------
#NOTES:
     dance-double:
     :
     Hard:
     12:
     0.566417,0.626702,0.269985,0.169705,0.273842,514.000000,479.000000,35.000000,22.000000,0.000000,0.000000,0.566417,0.626702,0.269985,0.169705,0.273842,514.000000,479.000000,35.000000,22.000000,0.000000,0.000000:
// measure 0
00000000
00000000
00000000
00000000
,  // measure 1
00000000
00000000
00000000
00000000
,  // measure 2
00000000
00000000
00000000
00000000
,  // measure 3
00000000
00000000
00000000
00000000
,  // measure 4
00000000
00000000
00000000
00000000
,  // measure 5
00100000
00000000
10010000
01000000
00100000
10000000
01000000
00100000
,  // measure 6
00010000
00000000
00000000
00010000
00000000
00000000
00100000
00000000
00001000
00000000
00000000
00010000
00000000
00010000
00000000
00000000
,  // measure 7
00000100
00000000
00000000
00001000
00000100
00000000
00000010
00000000
00000001
00000000
00000100
00000000
00000010
00001000
00000000
00000000
,  // measure 8
00010000
00000000
00000000
00001000
00000000
00000000
00100000
00000000
00010000
00000000
01000000
00000000
01100000
00000000
00000000
00000000
,  // measure 9
10000000
01000000
10010000
00000000
10000000
00100000
01000000
00020000
,  // measure 10
00000000
00000000
00100000
00000000
00130000
00000000
00001000
00000000
00010000
00000000
00000000
00010000
00000000
00000000
00000100
00000000
,  // measure 11
00002000
00000000
00003010
00000100
00000001
00001000
00000100
00010000
,  // measure 12
00000000
00011000
00000000
00001000
01000000
00100000
01100000
00000000
,  // measure 13
10000000
00000000
00010000
00000000
10010000
00000000
00000000
00000000
00100000
00000000
00000000
00100000
00000000
00000000
00200000
00000000
,  // measure 14
00000000
00000000
10300000
00000000
01000000
00000000
00100000
00000000
00001000
00000000
00000000
00001000
00000000
00000000
00010000
00000000
,  // measure 15
00000100
00001000
00000100
00000010
00000001
00000100
00000001
00001000
,  // measure 16
00000000
00000100
00010000
00001000
00001000
00000000
00101000
00000000
,  // measure 17
00100000
00000000
00000000
00100000
00000000
00000000
10000000
00000000
00000000
01000000
00000000
00000000
00100000
00000000
00001000
00000000
,  // measure 18
00010000
00000000
00000000
00010000
00000000
00000000
00001000
00000000
00000000
00000000
00010000
00000000
00001000
00000000
00000100
00000000
,  // measure 19
00001000
00000100
00000010
00000001
00001001
00000000
00000001
00000010
,  // measure 20
00000100
00000010
00000001
00001000
00001100
00001100
00001100
00000000
,  // measure 21
00000001
00000000
00000000
00000001
00000000
00000000
00000100
00000000
00000000
00001000
00000000
00000000
00000100
00000000
00010000
00000000
,  // measure 22
00001000
00000000
00000000
00100000
00000000
00000000
01000000
00000000
00000000
00100000
00000000
00000000
00010000
00000000
10000000
00000000
,  // measure 23
01000000
00100000
00010000
10000000
10010000
00000000
00100000
00001000
,  // measure 24
00010000
00010000
00001000
00010000
00000100
00001000
00001010
00000000
,  // measure 25
00000001
00000000
00001000
00000000
00000001
00000000
00001000
00000001
00000000
00000000
00001000
00000000
00000100
00000000
00010000
00000000
,  // measure 26
00001000
00000000
01000000
00000000
00100000
00000000
10000000
00100000
00000000
00000000
10000000
00000000
01000000
00000000
00100000
00000000
,  // measure 27
00001000
00000000
00010000
00000000
00000100
00000000
00000100
00001000
00000000
00000000
00000010
00000000
00000100
00000000
00000001
00000000
,  // measure 28
00001000
00000100
00010000
00001000
01000000
00010000
10010000
00000000
,  // measure 29
00100000
01000000
00100000
00000000
01000000
00000000
00000000
00010000
00000000
00000000
10000000
00000000
01000000
00000000
00100000
00000000
,  // measure 30
00001000
00000000
00010000
00000000
00001000
00000000
00010000
00000100
00000000
00000000
00001000
00000000
00000100
00000000
00000010
00000000
,  // measure 31
00000001
00000100
00001000
00000010
00010000
00000000
00001000
00100000
,  // measure 32
00010000
01000000
00100000
10000000
01000000
00100000
00110000
00000000
,  // measure 33
02000000
00000000
00000000
00000000
03100000
01000000
00100000
00000000
20000000
00000000
00000000
00000000
30010000
10000000
00010000
00000000
,  // measure 34
10000000
01000000
10000000
00000000
00100000
00000000
00010000
00000000
01000000
00000000
00001000
00000000
00011000
00000000
00000000
00000000
,  // measure 35
00010000
00000100
00001000
00000020
00000100
00000130
00000010
00001000
,  // measure 36
00000001
00001000
00000100
00020000
00000000
00031000
00100000
00010000
,  // measure 37
10000000
01000000
00100000
00010000
00000000
00100000
00001000
00010000
,  // measure 38
00000000
00000100
00001000
00000001
00000010
00000100
00001000
00000001
,  // measure 39
00000000
00001000
00000100
00010000
00000000
00001000
00000100
00000010
,  // measure 40
00000001
00000000
00001000
00000100
00000000
00010000
00001000
01000000
,  // measure 41
00010000
10000000
00010000
10000000
01000000
00100000
00001000
00010000
,  // measure 42
00000000
00010000
00000100
00001000
00001000
00000010
00000110
00000000
,  // measure 43
00000200
00000000
00000000
00000000
00000301
00000000
00000000
00000001
00000000
00000100
00000000
00000000
00000010
00000000
00001000
00000000
,  // measure 44
00000100
00000000
00001000
00000000
00000100
00000000
00000000
00010000
00000000
00001000
00000000
00000000
00100000
00000000
00010000
00000000
,  // measure 45
10000000
00000000
01000000
00000000
00100000
00010000
00000000
00010000
00000000
00000000
01000000
00000000
00001000
00000000
00010000
00000000
,  // measure 46
00000100
00000000
00001000
00000000
00000010
00000100
00000000
00000100
00000000
00000000
00000010
00000000
00001000
00000000
00000001
00000000
,  // measure 47
00001000
00000000
00000100
00000000
00010000
00000100
00000000
00000100
00000000
00000000
00010000
00000000
00001000
00000000
01000000
00000000
,  // measure 48
00100000
10000000
00000000
01100000
00000000
00001000
00010000
00000100
,  // measure 49
00001000
00000100
00000010
00000001
00000000
00001000
00000100
00010000
,  // measure 50
00000000
00001000
00100000
00110000
,  // measure 51
00010000
00000000
00000000
00010000
00000000
00000000
01000000
00000000
10000000
00000000
00000000
10000000
00000000
00000000
00100000
00000000
,  // measure 52
01000000
00000000
00000000
01000000
00000000
00000000
00001000
00000000
00010000
00000000
00000000
00010000
00000000
00000000
00000100
00000000
,  // measure 53
00001000
00000000
00000000
00001000
00000000
00000000
00000010
00000000
00000100
00000000
00000000
00000100
00000000
00000000
00000001
00000000
,  // measure 54
00001000
00000000
00000000
00001000
00000000
00000000
00000100
00000000
00010000
00000000
00000000
00010000
00000000
00000000
00001000
00000000
,  // measure 55
01000000
00000000
00000000
01000000
00000000
00000000
00010000
00000000
10000000
00000000
00000000
10000000
00000000
00000000
00100000
00000000
,  // measure 56
01000000
00000000
00000000
01000000
00000000
00000000
00001000
00000000
00010000
00000000
00000000
00010000
00000000
00000000
00000100
00000000
,  // measure 57
00001000
00000000
00000000
00000010
00000000
00000000
00000001
00000000
00001000
00000000
00000000
00000100
00000000
00000000
00000001
00000000
,  // measure 58
00001000
00000000
00000000
00000100
00000000
00000000
00000010
00000000
00000001
00000000
00000000
00001000
00000000
00000000
00000100
00000010
,  // measure 59
00000200
00000000
00000320
00000000
00010030
00001000
00011000
00000000
,  // measure 60
00001000
00100000
00010000
02000000
00000000
03100000
10000000
01000000
,  // measure 61
00100000
00001000
00010000
00000020
00000000
00001030
00000100
00000020
,  // measure 62
00000000
00000031
00000100
00000020
00000000
00001030
00000100
00020000
,  // measure 63
00000000
00031000
00100000
00020000
00000000
10030000
10010000
00000000
,  // measure 64
10000000
00010000
00100000
00002000
00000000
00013000
00000010
00000100
,  // measure 65
00000001
00000100
00001000
00000200
00000000
00010300
00001000
01000000
,  // measure 66
00010000
00100000
01000000
20000000
00000000
30100000
01000000
00010000
,  // measure 67
00000000
00110000
00000000
00022000
00000000
00033000
00011000
00000000
,  // measure 68
00000000
00000000
00000000
00000000
00001100
00000000
00000000
00000100
00000000
00000000
00001000
00000000
00000100
00000000
00000010
00000000
,  // measure 69
00000001
00000000
00001000
00000001
00000000
00001000
00000001
00000000
00000000
00001000
00000000
00000000
00000100
00000000
00010000
00000000
,  // measure 70
00001000
00010000
00000000
00000000
00001000
00000000
00000000
00100000
00000000
00000000
00010000
00000000
01000000
00000000
10000000
00000000
,  // measure 71
00100000
00000000
00000000
10100000
00000000
00000000
10100000
00000000
00000000
01010000
00000000
00000000
01000000
00000000
00001000
00000000
,  // measure 72
00020000
00000000
00000000
00000000
00031000
00000000
00000000
00010000
00000000
00000000
00000100
00000000
00001000
00000000
00000001
00000000
,  // measure 73
00000010
00000000
00000000
00000001
00000000
00000000
00000100
00000000
00000000
00001000
00000000
00000000
00000100
00000000
00010000
00000000
,  // measure 74
00001000
00000000
00000000
00000000
00000000
00000000
00100000
00010000
00100000
00000000
00000000
00010000
00000000
00000000
01000000
00000000
,  // measure 75
01100000
00000000
00000000
01100000
00000000
00000000
10010000
00000000
00000000
10010000
00000000
00000000
00100000
00000000
00001000
00000000
,  // measure 76
00010000
00001000
00000000
00010000
00001000
00000000
00010000
00001000
00000000
00000000
00000100
00000000
00000010
00000000
00000001
00000000
,  // measure 77
00001001
00000000
00000000
00001001
00000000
00000000
00001001
00000000
00000000
00000000
00000000
00000000
00000000
00000000
00000000
00000000
;

//---------------dance-single - ----------------
#NOTES:
     dance-single:
     :
     Hard:
     12:
     0.604986,0.656545,0.431975,0.146563,0.331695,549.000000,493.000000,56.000000,19.000000,0.000000,0.000000,0.604986,0.656545,0.431975,0.146563,0.331695,549.000000,493.000000,56.000000,19.000000,0.000000,0.000000:
0000
0000
0000
0000
,
0000
0000
0000
0000
,
0000
0000
0000
0000
,
0000
0000
0000
0000
,
0000
0000
0000
0000
,
0100
0000
1001
0100
0010
0100
0001
0000
,
1000
0000
1000
0010
0000
0000
0100
0000
0001
0000
0010
0000
0100
0000
1000
0000
,
0010
0000
0100
0010
0000
0000
1000
0000
0100
0000
0000
0010
0000
0000
1000
0000
,
0001
0000
0000
0011
0000
0000
1000
0000
0100
0000
0010
0000
0110
0000
0000
0000
,
0001
0100
0000
0000
0010
0000
1000
0000
0100
0000
0010
0000
0001
0000
0200
0000
,
0000
0000
0010
0000
0310
0000
1000
0000
0001
0000
0000
0101
0000
0000
1000
0000
,
0200
0010
0310
0001
0010
0100
1000
0020
,
0000
2030
0000
3001
0010
0100
1001
0000
,
0010
0000
0100
0000
0110
0000
0000
0000
1000
0000
0000
1001
0000
0000
0002
0000
,
0000
0000
0100
0000
0103
0000
0010
0000
1000
0000
0000
0100
0000
0000
0010
0000
,
0002
0100
0103
0010
1000
0001
0100
0110
,
0000
1100
0000
0010
0011
0000
1001
0000
,
0010
0000
0000
0001
0000
0000
0100
0000
0000
0010
0000
0000
1000
0000
0100
0000
,
0010
0000
0000
0001
0000
0000
1001
0000
0000
0000
0010
0000
0100
0000
0001
0000
,
0010
0010
0001
0100
0101
0000
0010
0010
,
1000
0100
0010
0001
0100
0110
0110
0000
,
0001
0000
0000
0101
0000
0000
0001
0000
0000
1000
0000
0000
0100
0000
0010
0000
,
0001
0000
0000
1000
0000
0000
1001
0000
0000
0000
1000
0000
0010
0000
0100
0000
,
0001
0001
1000
0100
1100
0000
0010
0010
,
1000
0100
0010
0001
1001
1001
1001
0000
,
0001
0000
0100
0000
0001
0000
0001
1000
0000
0000
0010
0000
1000
0000
1000
0100
,
0000
0000
0010
0000
0001
0000
0001
1000
0000
0000
0010
0000
0100
0000
0010
0000
,
1000
0100
0010
0001
1001
0000
0001
0010
,
0001
0100
0010
1000
0100
0100
1100
0000
,
0010
0100
0010
0000
1000
0000
0000
1000
0000
0000
0001
0000
0010
0000
0010
0000
,
0001
0000
1000
0000
0100
0000
0010
0001
0000
0000
0010
0000
0001
0000
0100
0000
,
0010
0010
1000
0100
1100
0000
0010
0001
,
0100
0010
0010
1000
0001
1000
0110
0000
,
2000
0000
0000
0000
3001
1000
0001
0000
0020
0000
0000
0000
0031
0010
0001
0000
,
1000
0100
0010
0001
0100
0100
0110
0000
,
0001
0000
0010
0000
0001
0010
0000
0010
0000
0000
0001
0000
0100
0010
0000
0010
,
0000
0000
1000
0000
0010
0100
0000
0100
0000
0000
0001
0000
0010
0000
0100
0000
,
0010
0001
0100
0010
0000
1000
0100
1100
,
0000
0000
0001
0000
0000
0000
0110
0000
0000
0000
0010
0000
1000
0010
1000
0000
,
0010
0000
0100
0000
0001
1000
0000
1000
0000
0000
0010
0000
1000
0100
0000
0100
,
0000
0000
0010
0000
0001
0100
0000
0100
0000
0000
0010
0000
1000
0000
0001
0000
,
1000
0100
0010
0001
0001
0100
0010
2000
,
0000
0001
3001
1000
0010
0100
0010
0100
,
0002
0000
0000
0000
1003
0000
0000
0010
0000
0010
0000
0000
1000
0000
0100
0000
,
0010
0000
0001
0000
0100
0000
0000
0001
0000
0001
0000
0000
0100
0000
0010
0000
,
1000
0000
0001
0000
0100
0000
0000
0010
0000
0010
0000
0000
1000
0000
0100
0000
,
0010
0000
0001
0000
1000
0000
0000
0010
0000
0010
0000
0000
0100
0000
0010
0000
,
1000
0000
0001
0000
0010
0000
0000
0001
0000
0001
0000
0000
0100
0000
0010
0000
,
1000
1001
0000
0101
0000
0010
0001
0100
,
0010
1000
0100
0010
0010
0001
0100
0020
,
0000
0100
0000
0130
0010
0100
0110
0000
,
0010
0000
0000
0010
0000
0000
1000
0000
0001
0000
0000
0001
0000
0000
1000
0000
,
0100
0000
0000
0100
0000
0000
0010
0000
0001
0000
0000
0001
0000
0000
0100
0000
,
0010
0000
0000
0010
0000
0000
0010
0000
0100
0000
0000
0100
0000
0000
0100
0000
,
0001
0000
0000
0001
0000
0000
0001
0000
1000
0000
0000
1000
0000
0000
1000
0000
,
0010
0000
0100
0010
0000
0100
0010
0000
1000
0000
0000
1000
0000
0000
1000
0000
,
0001
0000
1000
0001
0000
1000
0001
0000
0100
0000
0000
0100
0000
0000
0100
0000
,
0001
0000
0000
0001
0000
0000
0001
0000
0010
0000
0000
0010
0000
0000
0010
0000
,
0001
0000
1000
0001
0000
1000
0001
0000
0100
0000
0000
0100
0000
0000
0010
0100
,
0020
0000
1030
1000
0001
0001
1001
0000
,
0010
1000
0001
2000
0000
3010
0100
0001
,
1000
0100
0010
0002
0000
0103
0010
2000
,
0000
3001
0001
1001
0000
0010
0100
0101
,
0000
0000
1010
0000
0000
0000
0110
0000
0000
0000
0010
0000
1000
0010
1000
0000
,
0001
1000
0100
0020
0000
0031
0100
0010
,
0100
0001
1000
0020
0000
0130
0010
0110
,
0000
1000
0001
1001
0000
0010
0001
0101
,
0000
0000
1010
0000
0000
0000
0110
0000
0000
0000
1000
0001
1000
0000
0000
0000
,
0020
0000
0000
0000
0130
0000
0000
0010
0000
0000
1000
0000
0100
0000
0010
0000
,
0001
0000
0000
0011
0000
0000
0100
0000
0000
0110
0000
0000
0010
1000
0010
0000
,
1000
0000
0000
0000
1001
0000
0000
0001
0000
0000
0100
0000
0010
0000
1000
0000
,
1100
0000
0000
1100
0000
0000
1010
0000
0000
1010
0000
0000
1001
0000
0000
0000
,
0020
0000
0000
0000
0130
0000
0100
0010
0000
0000
1000
0000
0001
0000
0100
0000
,
0010
0000
0100
0010
0000
0000
0100
0000
0000
0001
0000
0000
1000
0000
0100
0000
,
0010
0000
0000
0000
0000
0000
0001
0100
0001
0000
0000
1000
0000
0000
0001
0000
,
1001
0000
0000
1001
0000
0000
1100
0000
0000
1100
0000
0000
0010
0000
0001
0000
,
0100
0010
0000
0100
0010
0000
0100
0010
0000
0100
0010
0000
1000
0000
0001
0000
,
1001
0000
0000
1001
0000
0000
1001
0000
0000
0000
0000
0000
0000
0000
0000
0000
;
