#VERSION:0.83;
#TITLE:金野火織の金色提言;
#SUBTITLE:;
#ARTIST:DJ TECHNORCH feat. 宇宙★海月;
#TITLETRANSLIT:Konno Hiori no konjiki teigen;
#SUBTITLETRANSLIT:;
#ARTISTTRANSLIT:DJ TECHNORCH feat. Uchuu-Kurage;
#GENRE:;
#ORIGIN:;
#CREDIT:;
#BANNER:Konno Hiori no konjiki teigen.png;
#BACKGROUND:Konno Hiori no konjiki teigen-bg.png;
#PREVIEWVID:;
#JACKET:Konno Hiori no konjiki teigen-jacket.png;
#CDIMAGE:;
#DISCIMAGE:;
#LYRICSPATH:;
#CDTITLE:;
#MUSIC:Konno Hiori no konjiki teigen.ogg;
#OFFSET:-0.064000;
#SAMPLESTART:99.279953;
#SAMPLELENGTH:12.800003;
#SELECTABLE:YES;
#DISPLAYBPM:225.000000;
#BPMS:0.000=225.000,
351.000=224.000,
352.000=56.750,
352.500=57.000,
353.000=56.800,
353.667=52.000,
354.000=112.500,
354.667=114.000,
356.000=225.000,
358.000=675.000,
359.667=750.000,
362.333=540.000,
364.000=225.000;
#STOPS:143.875=1.067;
#DELAYS:;
#WARPS:;
#TIMESIGNATURES:0.000=4=4;
#TICKCOUNTS:0.000=4;
#COMBOS:0.000=1;
#SPEEDS:0.000=1.000=0.000=0;
#SCROLLS:0.000=1.000;
#FAKES:;
#LABELS:0.000=Song Start;
#BGCHANGES:0.000=Konno Hiori no konjiki teigen.avi=1.000=0=0=0=StretchNoLoop====,
99999=-nosongbg-=1.000=0=0=0 // don't automatically add -songbackground-
;
#KEYSOUNDS:;
#ATTACKS:
;

//---------------dance-single - ----------------
#NOTEDATA:;
#CHARTNAME:;
#STEPSTYPE:dance-single;
#DESCRIPTION:;
#CHARTSTYLE:;
#DIFFICULTY:Hard;
#METER:16;
#RADARVALUES:0.904969,0.951150,0.480913,0.431163,0.132666,764.000000,706.000000,58.000000,52.000000,0.000000,0.000000,0.000000,0.000000,0.000000,0.904969,0.951150,0.480913,0.431163,0.132666,764.000000,706.000000,58.000000,52.000000,0.000000,0.000000,0.000000,0.000000,0.000000;
#CREDIT:;
#NOTES:
0000
0000
0000
0000
,
0000
0000
0000
0000
,
0000
0000
0000
0000
,
0000
0000
0000
0000
,
0011
0000
0001
0100
1000
0100
0001
0000
,
1000
0010
0100
0010
0100
0100
0110
0000
,
0001
0010
0100
0010
0001
1000
0100
0010
,
0100
1000
0001
0001
2002
0000
3003
0000
,
0010
0001
0100
0010
0100
0001
1000
0100
,
0010
0001
0100
1000
0200
0000
0301
0000
,
0010
0001
0100
0010
1000
0100
0010
0001
,
1000
1000
0001
0001
2002
0000
3003
0000
,
0010
0001
0100
0001
0100
0001
0010
0100
,
1000
0100
1000
0100
1000
0010
0100
0001
,
0100
0010
0100
0010
1000
0100
0010
0001
,
0010
0100
1000
0001
0001
1000
1000
0001
,
0010
0001
0010
0001
0100
0010
0100
0010
,
1000
0010
0001
0010
1000
0100
0001
0100
,
1000
0010
1000
0100
1000
0010
0001
0010
,
0100
0010
1000
0001
1000
1000
1001
0000
,
0100
0001
0100
0010
0100
0100
0110
0010
,
1000
0000
0001
0000
1000
0000
0100
0000
1000
0100
1000
0000
0001
0000
0000
0000
,
0100
0001
1000
0010
1000
0001
0010
0001
,
0100
0000
0010
0000
0100
0010
0100
0000
0220
0000
0000
0000
0330
0000
0000
0000
,
0010
0001
0100
0010
0100
0001
1000
0100
,
0001
0000
0100
0000
1000
0000
0001
0000
1000
0001
1000
0000
0010
0000
0000
0000
,
0001
0010
0100
0010
0001
1000
0100
0010
,
0001
0000
0100
0000
0010
0100
0010
0000
0220
0000
0000
0000
0330
0000
0000
0000
,
1000
0010
1010
1000
0001
0101
0001
1000
,
0100
0010
0011
0001
0100
0010
0110
0010
,
1000
0100
0010
0001
0100
1000
0100
0001
,
0010
0100
1000
0001
2002
0000
3003
0000
,
0101
0001
1000
1000
1010
0010
0010
0100
,
0101
0001
0010
0100
1000
0100
0010
0001
,
1000
0001
0100
0010
1000
0100
0010
0001
,
0100
0100
0100
0100
0220
0000
0330
0000
,
2000
0000
0000
0000
3002
0000
0000
0000
1003
0000
0100
1000
0100
0000
2000
0000
,
0000
3000
1000
0000
0002
0000
0000
0000
0013
0000
0001
0010
0001
0000
1000
0100
,
2000
0000
0000
0000
3020
0000
0000
0000
0130
0000
0010
0100
0010
0000
0200
0000
,
0000
0300
0100
0000
0001
0000
1000
0000
1001
0000
0000
0000
0110
0000
0000
0000
,
2000
0000
0000
0000
3020
0000
0000
0000
0130
0000
0010
0100
0010
0000
0200
0000
,
0000
0300
0100
0000
0002
0000
0000
0000
1003
0000
0010
1000
0010
0000
0001
0100
,
0002
0000
0000
0000
0203
0000
0000
0000
0310
0000
0010
0100
0010
0000
2000
0000
,
0000
3000
1000
0000
0001
0000
0100
0000
0110
0000
0000
0000
1001
0000
0000
0000
,
0010
0001
0100
0001
1000
0010
1000
0100
,
1000
0000
0010
0000
0100
0000
0001
0000
1000
0000
0001
1000
0001
0000
0100
0001
,
0100
0010
1000
0100
0010
0001
0010
0100
,
1000
0001
0010
0001
1001
1000
1001
0000
,
0010
0001
0100
0010
0100
0001
1000
0100
,
0010
0000
0001
0000
0100
0000
0010
0000
0100
0000
0010
1000
0010
0000
0100
0001
,
0100
0010
1000
0100
1000
0010
0001
0010
,
1000
0100
0010
0001
0011
0000
1100
0000
,
0001
0100
1000
0100
0010
0100
1000
0100
,
0001
0000
0100
0000
0010
0000
0100
0000
0001
0000
1000
0010
1000
0000
0001
0100
,
0001
1000
0100
0001
0100
1000
0010
1000
,
0002
0010
2000
3003
,
1001
0001
0010
0100
0010
0001
1000
0100
,
1000
0001
0010
1000
0001
0010
0000
1001
,
0000
1000
0100
0010
0001
0100
0010
1000
,
0002
0000
0010
0020
0000
0000
0033
0000
,
0000
1000
0100
1000
0001
0010
0001
1000
,
0100
0001
0100
1000
0010
0001
0010
1000
,
0100
0010
0001
0010
0100
1000
0010
0010
,
0100
0001
1000
0001
2002
0000
3003
0000
,
0011
0001
0100
1000
0100
0001
0011
0010
,
0110
0010
1000
0010
0001
0010
0100
1000
,
1100
1000
0100
0010
0100
1000
0001
0010
,
0100
0100
0010
0010
0220
0000
0330
0000
,
0010
0001
0100
0001
0010
0001
1000
0001
,
1000
0100
0010
0001
0100
0010
1000
0001
,
0010
0010
0010
0000
1001
0010
0000
1001
,
0010
0010
0010
0010
0010
0010
0010
0000
,
0220
0000
0000
0000
,
0000
0000
0000
0000
,
0000
0000
0000
0000
,
0330
0000
0000
0000
,
0001
1000
0100
0010
0001
0010
0100
0000
,
1001
1100
0101
0000
,
0010
0001
0100
1000
0100
0001
0010
0000
,
1001
0000
1000
0100
0001
0000
0000
0000
,
0001
0010
0100
0001
1000
0100
0010
1000
,
0001
1000
0010
0000
1001
0000
0000
0000
,
0110
0000
1001
0000
1000
0010
0100
0001
,
0000
1001
1001
0000
1001
0000
0000
0000
,
0001
0010
0100
0010
0001
1000
0100
0010
,
0001
0010
0100
1000
0100
0010
0001
1000
,
0001
0001
1000
1000
0010
0010
0100
0100
,
0001
0010
0100
1000
0220
0000
0330
0000
,
2000
0000
0000
0200
0000
3000
0020
0300
1030
1000
1000
0100
0100
0010
0010
0001
,
1000
0100
0010
0001
1001
0000
0000
0000
,
0000
0000
0000
0000
0000
0110
0000
0000
0000
0000
0000
0000
0000
0000
0000
0000
,
1001
0000
1000
0000
1000
0000
0001
0000
0010
0000
0001
0010
0001
0000
1000
0000
,
0100
0000
0010
0000
0001
0000
1000
0000
0010
0000
0100
0010
0100
0000
0001
0000
,
1000
0001
0010
0100
1000
0001
0010
0001
,
1000
0100
0010
0001
2002
0000
3003
0000
,
0010
0100
0001
0010
0100
1000
0100
0010
,
0001
0000
0100
0000
0010
0000
1000
0000
0001
0000
1000
0010
1000
0000
0001
0000
,
1000
0000
0100
0000
0010
0000
0001
0000
1000
0000
0010
0100
0010
0000
1000
0000
,
0001
0010
0100
0110
0220
0000
0330
0000
,
0001
0000
1000
0000
0100
0000
0010
0000
0001
0010
0001
0010
0001
0000
1000
0000
,
0100
0000
1000
0000
0010
0000
0100
0000
0001
0010
0001
0010
0001
0000
1000
0000
,
0010
0100
0001
0100
1000
0100
0001
0010
,
0100
1000
0010
0100
0220
0000
0330
0000
,
1001
1000
0001
0010
0100
0010
0001
1000
,
1001
0001
0010
0100
0010
0001
0001
0101
,
0000
0001
0010
0100
1000
0100
0010
0001
,
1000
0000
0001
0100
0220
0000
0000
0000
,
0330
0000
2000
0000
,
0000
3000
0000
0002
,
0000
0003
0000
0000
;

//---------------dance-single - ----------------
#NOTEDATA:;
#CHARTNAME:;
#STEPSTYPE:dance-single;
#DESCRIPTION:;
#CHARTSTYLE:;
#DIFFICULTY:Medium;
#METER:12;
#RADARVALUES:0.684649,0.769979,0.754536,0.290206,0.000000,578.000000,487.000000,91.000000,35.000000,0.000000,0.000000,0.000000,0.000000,0.000000,0.684649,0.769979,0.754536,0.290206,0.000000,578.000000,487.000000,91.000000,35.000000,0.000000,0.000000,0.000000,0.000000,0.000000;
#CREDIT:;
#DISPLAYBPM:225.000000;
#NOTES:
0000
0000
0000
0000
,
0000
0000
0000
0000
,
0000
0000
0000
0000
,
0000
0000
0000
0000
,
0010
0000
1000
0000
0001
1000
0001
0000
,
1000
0100
0010
0000
,
1000
0000
0001
0000
0100
0010
0100
0000
,
0001
1000
0001
1000
0001
0000
0000
0000
,
0010
0000
0001
0000
0100
0010
0100
0000
,
0010
0000
1000
0001
1000
0000
0000
0000
,
1000
0000
0100
0000
0010
0001
0010
0000
,
0001
0100
0001
0100
0010
0000
0000
0000
,
1000
1100
0010
0011
,
0100
0000
0110
0000
0001
1000
0001
1000
,
0001
0011
1000
1100
,
0010
0000
1001
0000
0001
0010
0100
0010
,
0001
0000
1100
0000
0001
0010
0100
0000
,
1100
0000
0011
0000
1000
0100
0010
0000
,
0001
0100
0001
0100
0010
1000
0010
1000
,
0001
0010
0100
1000
0100
0010
0001
0000
,
1000
0001
0000
0001
1000
0000
0010
0000
,
1000
0100
0010
0000
0100
0000
0001
0000
,
1000
0000
0001
0000
0010
0001
0100
0000
,
0010
1000
0100
0000
2002
0000
3003
0000
,
0010
0001
0000
1000
0100
0000
0010
0000
,
0001
0100
0001
0000
1000
0010
1000
0000
,
0001
0000
0101
0000
1000
0100
0010
0000
,
0100
0010
0001
0010
0200
0000
0300
0000
,
0001
0100
0000
0001
1000
0000
1001
0000
,
1000
0100
0010
0000
1000
0000
1001
0000
,
0010
0100
0010
0100
0001
1000
0001
1000
,
0001
0000
1000
0100
2000
0000
3000
0000
,
0001
0010
0001
0000
1000
0000
1100
0000
,
1000
0010
1000
0000
0001
0000
0011
0000
,
0100
0010
0100
0000
0001
1000
0001
0000
,
1100
0011
2002
3003
,
0000
0000
0100
0000
0020
0000
0030
0010
,
0000
1000
1001
1001
,
0010
0000
0100
0000
0220
0000
0330
1001
,
0000
0010
0011
1100
,
0010
0000
0110
0000
0001
0100
0010
0100
,
0000
0001
0100
0000
1010
0000
0101
0000
,
1000
0000
1100
0000
0001
0010
0100
1000
,
0001
1001
1001
1001
,
0010
0000
0110
0000
1000
0100
0010
0001
,
0000
0100
0010
0000
1001
0000
0110
0000
,
1001
0000
0010
0000
0001
0010
0100
1000
,
0000
0010
0100
0000
1001
0000
1100
0000
,
0011
0000
1100
0000
0001
0010
0001
0010
,
0000
1000
0100
0000
1010
0000
0101
0000
,
1010
0000
0101
0000
1000
0100
0010
0001
,
0000
1000
0001
1000
1001
0000
1001
0000
,
0010
0000
0101
0000
0001
0010
0100
1000
,
0000
1000
0100
0010
0001
0000
0110
0000
,
2000
3002
0023
0230
,
0020
0000
0000
0330
,
0000
1001
0000
0001
0010
0001
0010
0100
,
1000
0100
1000
0001
1000
0001
1000
0100
,
1000
0100
0010
0001
0010
0001
0100
0010
,
0100
0000
0020
0200
0000
0000
0330
0000
,
0000
0001
0000
1000
0001
1000
0001
1000
,
0100
1000
0100
0010
0001
0010
0001
1000
,
0100
0010
0001
0010
0100
1000
0100
0010
,
0001
1010
0202
0303
,
0010
0110
1001
0110
,
1000
1100
0011
1100
,
0001
0101
1010
0101
,
1000
0001
0100
0010
0200
0000
0300
0000
,
0001
0011
0101
1001
,
1000
1100
1010
1001
,
0010
0000
0010
0000
0100
0010
0000
0100
,
0010
0010
0010
0010
0020
0000
0030
0000
,
2002
0000
0000
0000
,
0000
0000
0000
0000
,
0000
0000
0000
0000
,
3003
0000
0000
0000
,
0001
1000
0100
0010
,
0110
1001
0110
0000
,
0001
1000
0100
0010
,
1001
1100
0011
0000
,
0001
0100
1000
0010
,
1000
0001
1000
0001
1000
0000
0000
0000
,
0110
0000
1001
0000
0110
0000
1000
0001
,
0000
1000
0001
0000
1001
0000
0000
0000
,
0001
0010
0011
1100
,
1000
0100
1100
0011
,
0110
0110
1001
1001
,
0010
0100
0010
0100
0020
0000
0030
0000
,
2002
0000
3003
0000
0000
0010
0010
0010
,
1000
0100
0010
0001
0001
0000
0000
0000
,
0000
0000
0000
0000
,
1000
0100
0000
0010
0001
0000
0100
0000
,
0001
0010
0001
0000
1000
0100
1000
0000
,
0001
0100
0001
0100
0001
0100
0001
0000
,
1000
0010
0220
0330
,
1000
0001
0000
1000
0001
0000
1000
0000
,
0001
0010
0001
0000
1000
0100
1000
0000
,
0010
0100
0010
0100
0010
0100
0010
0000
,
1100
0011
0220
0330
,
0001
0100
0001
0000
1000
0100
1000
0000
,
0001
0010
0001
0000
1000
0010
1000
0000
,
0001
0010
0100
1000
0100
0010
0001
1000
,
0100
0010
0001
0000
2002
0000
3003
0000
,
0001
0100
0001
0100
0001
0100
0010
1000
,
0000
1000
0100
1000
0100
0010
0001
0010
,
0000
0001
0100
0010
0100
0000
0001
0000
,
1000
0001
2002
3003
,
0000
0000
2000
0000
,
0000
3000
0000
0002
,
0000
0003
0000
0000
;

//---------------dance-single - ----------------
#NOTEDATA:;
#CHARTNAME:;
#STEPSTYPE:dance-single;
#DESCRIPTION:;
#CHARTSTYLE:;
#DIFFICULTY:Easy;
#METER:9;
#RADARVALUES:0.523555,0.724686,0.829160,0.431163,0.000000,442.000000,342.000000,100.000000,52.000000,0.000000,0.000000,0.000000,0.000000,0.000000,0.523555,0.724686,0.829160,0.431163,0.000000,442.000000,342.000000,100.000000,52.000000,0.000000,0.000000,0.000000,0.000000,0.000000;
#CREDIT:;
#DISPLAYBPM:225.000000;
#NOTES:
// measure 0
0000
0000
0000
0000
,  // measure 1
0000
0000
0000
0000
,  // measure 2
0000
0000
0000
0000
,  // measure 3
0000
0000
0000
0000
,  // measure 4
1000
0001
0110
0110
,  // measure 5
0001
1000
0220
0330
,  // measure 6
1000
0100
0011
0011
,  // measure 7
0010
0100
2002
3003
,  // measure 8
1000
0010
0001
0100
,  // measure 9
0001
1000
0202
0303
,  // measure 10
1000
0010
0001
0100
,  // measure 11
1001
1001
0220
0330
,  // measure 12
0001
0020
1000
0130
,  // measure 13
1000
0020
0100
0130
,  // measure 14
0001
2000
0100
3010
,  // measure 15
0001
0200
0010
0310
,  // measure 16
2000
0010
0001
3100
,  // measure 17
0001
2000
0001
3010
,  // measure 18
0202
0303
2020
3030
,  // measure 19
0110
1001
0220
0330
,  // measure 20
1000
1100
0010
0011
,  // measure 21
0100
0110
0110
0110
,  // measure 22
0001
0011
1000
1100
,  // measure 23
0110
0110
2002
3003
,  // measure 24
0010
0011
1000
1010
,  // measure 25
0100
0101
0101
0101
,  // measure 26
1000
1100
0010
0011
,  // measure 27
1001
0110
2002
3003
,  // measure 28
0010
0001
0100
1001
,  // measure 29
0010
1000
0100
1001
,  // measure 30
0010
0110
1000
1001
,  // measure 31
0001
1001
0220
0330
,  // measure 32
1000
0100
0011
1100
,  // measure 33
0001
0010
1100
0011
,  // measure 34
0100
0110
0001
1001
,  // measure 35
1000
0110
2002
3003
,  // measure 36
0000
0000
0200
0000
,  // measure 37
0302
0000
0013
0010
,  // measure 38
2000
0000
3020
0000
,  // measure 39
0032
0000
0103
0100
,  // measure 40
0020
0000
0230
0000
,  // measure 41
0302
0000
1003
1000
,  // measure 42
0110
0000
1001
0000
,  // measure 43
0110
0110
1001
1001
,  // measure 44
0001
0010
0100
1001
,  // measure 45
1000
0100
0010
1001
,  // measure 46
0010
0001
0100
1001
,  // measure 47
0010
1000
1001
1001
,  // measure 48
0010
0100
0001
1001
,  // measure 49
0010
0100
1000
1001
,  // measure 50
1000
0100
0010
1001
,  // measure 51
0010
0100
1001
1001
,  // measure 52
0100
0100
0101
1100
,  // measure 53
0010
0010
1010
0011
,  // measure 54
0100
0100
0110
1001
,  // measure 55
0220
0000
0000
0330
,  // measure 56
0010
1000
0100
0010
,  // measure 57
0001
0010
0100
1000
,  // measure 58
0100
0010
0001
0100
,  // measure 59
0010
0010
0220
0330
,  // measure 60
0001
0010
1000
0010
,  // measure 61
0001
0010
0100
1000
,  // measure 62
0100
0001
0100
1000
,  // measure 63
0010
0010
2002
3003
,  // measure 64
0001
0010
1000
1000
,  // measure 65
0010
0001
1000
1000
,  // measure 66
0100
1000
0001
0001
,  // measure 67
1000
0100
0002
0003
,  // measure 68
0010
0100
0001
1000
,  // measure 69
0001
0010
0100
1000
,  // measure 70
0010
0000
0010
0000
0000
0010
0000
0000
,  // measure 71
0010
0010
0010
0000
,  // measure 72
2002
0000
0000
0000
,  // measure 73
0000
0000
0000
0000
,  // measure 74
0000
0000
0000
0000
,  // measure 75
3003
0000
0000
0000
,  // measure 76
0010
0000
0001
0000
,  // measure 77
0100
1000
0010
0000
,  // measure 78
1000
0000
0100
0000
,  // measure 79
0001
0010
1000
0000
,  // measure 80
0100
0000
0001
0000
,  // measure 81
0100
1000
0010
0000
,  // measure 82
1000
0000
0100
0000
,  // measure 83
0001
0010
1000
0000
,  // measure 84
0010
0001
0100
0000
,  // measure 85
1000
0010
0001
0000
,  // measure 86
0100
1000
0010
0001
,  // measure 87
0010
1000
0100
0000
,  // measure 88
2002
0000
0000
0000
3003
0010
0010
0010
,  // measure 89
0020
0000
0030
0000
,  // measure 90
0000
0000
0000
0000
,  // measure 91
0000
1001
1000
0100
,  // measure 92
0010
0001
0110
1001
,  // measure 93
0001
0010
0100
1000
,  // measure 94
0110
0110
1001
0000
,  // measure 95
0000
0110
1000
0100
,  // measure 96
0001
0010
0001
0100
,  // measure 97
1000
1000
0001
0001
,  // measure 98
0110
1001
0110
0000
,  // measure 99
0011
0000
1100
0000
0001
0100
0001
0000
,  // measure 100
1100
0000
0011
0000
1000
0100
1000
0000
,  // measure 101
0110
0000
1001
0000
0010
0001
0100
0000
,  // measure 102
0010
1000
0100
0000
1001
0000
0000
0000
,  // measure 103
0010
0110
1001
1001
,  // measure 104
0100
0110
1001
1001
,  // measure 105
0000
0001
0000
0000
1000
0000
0001
0000
,  // measure 106
0100
0000
0220
0000
,  // measure 107
0330
0000
0020
0000
,  // measure 108
0000
0030
0000
0200
,  // measure 109
0000
0300
0000
0000
;

//---------------dance-single - ----------------
#NOTEDATA:;
#CHARTNAME:;
#STEPSTYPE:dance-single;
#DESCRIPTION:;
#CHARTSTYLE:;
#DIFFICULTY:Beginner;
#METER:6;
#RADARVALUES:0.272438,0.362343,0.066333,0.058041,0.000000,230.000000,222.000000,8.000000,7.000000,0.000000,0.000000,0.000000,0.000000,0.000000,0.272438,0.362343,0.066333,0.058041,0.000000,230.000000,222.000000,8.000000,7.000000,0.000000,0.000000,0.000000,0.000000,0.000000;
#CREDIT:;
#DISPLAYBPM:225.000000;
#NOTES:
// measure 0
0000
0000
0000
0000
,  // measure 1
0000
0000
0000
0000
,  // measure 2
0000
0000
0000
0000
,  // measure 3
0000
0000
0000
0000
,  // measure 4
0010
0000
1000
0000
,  // measure 5
0100
0000
0001
0000
,  // measure 6
0010
0000
0001
0000
,  // measure 7
0100
0010
0100
0000
,  // measure 8
0010
0000
1000
0000
,  // measure 9
0001
0000
0100
0000
,  // measure 10
0010
0000
1000
0000
,  // measure 11
0001
1000
0001
0000
,  // measure 12
1000
0000
0100
0000
,  // measure 13
0010
0000
0001
0000
,  // measure 14
1000
0000
0100
0000
,  // measure 15
0010
0000
0001
0000
,  // measure 16
0010
0000
0010
0000
,  // measure 17
0100
0000
0100
0000
,  // measure 18
1000
0000
0001
0000
,  // measure 19
1000
0000
0001
0000
,  // measure 20
1000
0000
0001
0000
,  // measure 21
0100
0100
0100
0000
,  // measure 22
0001
0000
1000
0000
,  // measure 23
0010
0010
0010
0000
,  // measure 24
1000
0000
0100
0000
,  // measure 25
0010
0010
0010
0000
,  // measure 26
0001
0000
0010
0000
,  // measure 27
0100
0100
0100
0000
,  // measure 28
0001
0000
0100
0000
,  // measure 29
1000
1000
1000
0000
,  // measure 30
0010
0000
1000
0000
,  // measure 31
0001
0001
0001
0000
,  // measure 32
1000
0000
1001
0000
,  // measure 33
0001
0000
1001
0000
,  // measure 34
0100
0000
0010
0000
,  // measure 35
1000
1000
1000
0000
,  // measure 36
0000
0000
0001
0000
,  // measure 37
0000
0000
1000
0000
,  // measure 38
0000
0000
0010
0000
,  // measure 39
0000
0000
0100
0100
,  // measure 40
0000
0000
0010
0000
,  // measure 41
0000
0000
1000
0000
,  // measure 42
0000
0000
0001
0000
,  // measure 43
0000
0000
1000
1000
,  // measure 44
0000
0001
0000
1000
,  // measure 45
0000
0001
0001
0001
,  // measure 46
0000
1000
0000
0001
,  // measure 47
0000
1000
1000
1000
,  // measure 48
0000
0010
0000
0100
,  // measure 49
0000
0010
0010
0010
,  // measure 50
0000
0100
0000
0010
,  // measure 51
0000
0100
0100
0100
,  // measure 52
0000
0010
0000
0010
,  // measure 53
0000
0100
0000
0100
,  // measure 54
0000
1000
0000
0001
,  // measure 55
0000
1000
0001
0000
,  // measure 56
0010
0000
0100
0000
,  // measure 57
0010
0010
0010
0000
,  // measure 58
0100
0000
0010
0000
,  // measure 59
0100
0100
0100
0000
,  // measure 60
0001
0000
1000
0000
,  // measure 61
0100
0100
0100
0000
,  // measure 62
1000
0000
0001
0000
,  // measure 63
0100
0100
0100
0000
,  // measure 64
0001
0000
1001
0000
,  // measure 65
0010
0010
0010
0000
,  // measure 66
1000
0000
1001
0000
,  // measure 67
0010
0010
0010
0000
,  // measure 68
1000
0001
1000
0000
,  // measure 69
0001
1000
0001
0000
,  // measure 70
0010
0000
0010
0000
0000
0010
0000
0000
,  // measure 71
0010
0010
0010
0000
,  // measure 72
2002
0000
0000
0000
,  // measure 73
0000
0000
0000
0000
,  // measure 74
0000
0000
0000
0000
,  // measure 75
3003
0000
0000
0000
,  // measure 76
1000
0000
0100
0000
,  // measure 77
0010
0000
1001
0000
,  // measure 78
0001
0000
0010
0000
,  // measure 79
0100
0000
1001
0000
,  // measure 80
1000
0000
0010
0000
,  // measure 81
0001
0000
0100
0000
,  // measure 82
1000
0000
0100
0000
,  // measure 83
0001
0000
0010
0000
,  // measure 84
1000
0000
0001
0000
,  // measure 85
0001
0000
1000
0000
,  // measure 86
0010
0000
0100
0000
,  // measure 87
0100
0000
1001
0000
,  // measure 88
0020
0000
0000
0000
,  // measure 89
0000
0000
0030
0000
,  // measure 90
0000
0000
0000
0000
,  // measure 91
0100
0000
0001
0000
,  // measure 92
1000
1000
1000
0000
,  // measure 93
0100
0000
1000
0000
,  // measure 94
0001
0001
0001
0000
,  // measure 95
1000
0000
0010
0000
,  // measure 96
0001
0001
0001
0000
,  // measure 97
0100
0000
0010
0000
,  // measure 98
1000
1000
1000
0001
,  // measure 99
0001
0000
1000
0000
,  // measure 100
0001
0001
0001
1000
,  // measure 101
1000
0000
0010
0000
,  // measure 102
0100
0100
0100
0000
,  // measure 103
0001
0001
0001
0000
,  // measure 104
1000
1000
1000
1000
,  // measure 105
0000
0020
0000
0030
,  // measure 106
0200
0000
0300
0000
,  // measure 107
0000
0000
0020
0000
,  // measure 108
0000
0030
0000
0200
,  // measure 109
0000
0300
0000
0000
;
