#TITLE:& Intelligence;
#SUBTITLE:;
#ARTIST:lapix;
#TITLETRANSLIT:;
#SUBTITLETRANSLIT:;
#ARTISTTRANSLIT:;
#GENRE:;
#CREDIT:;
#BANNER:Intelligence.png;
#BACKGROUND:Intelligence-bg.png;
#LYRICSPATH:;
#CDTITLE:;
#MUSIC:Intelligence.ogg;
#OFFSET:0.750000;
#SAMPLESTART:90.750000;
#SAMPLELENGTH:12.000000;
#SELECTABLE:YES;
#BPMS:0.000000=160.000000
;
#STOPS:
;
#BGCHANGES:2.000=Intelligence.avi=1.000=0=0=0=StretchNoLoop====,
99999=-nosongbg-=1.000=0=0=0 // don't automatically add -songbackground-
;
#KEYSOUNDS:;
#ATTACKS:;

//---------------dance-single - ----------------
#NOTES:
     dance-single:
     :
     Hard:
     12:
     0.570237,0.687088,0.155413,0.147233,0.368083,488.000000,469.000000,19.000000,18.000000,0.000000,0.000000,0.570237,0.687088,0.155413,0.147233,0.368083,488.000000,469.000000,19.000000,18.000000,0.000000,0.000000:
0000
0000
0000
0000
,
0000
0000
0000
0000
,
0000
0000
0000
0000
,
0000
0000
0000
0000
,
0000
0000
0000
0000
,
0000
0000
0000
0000
,
0001
0000
1000
0000
0010
0100
1000
0000
,
1000
0000
0001
0000
0100
0010
0001
0000
,
0100
0000
0000
0001
0000
0001
0000
0000
1000
0000
0000
0001
0000
0001
0000
0000
,
0010
0000
0001
0000
0100
0000
0010
1000
,
0001
0010
0001
0010
0001
0010
0100
1000
,
0001
0010
0001
0010
0001
1000
1001
0000
,
0001
0100
0001
0100
0001
0100
0010
1000
,
0001
0000
0100
0000
0001
0000
1000
0000
0000
0001
1000
0001
1000
0000
0000
0000
,
0010
0100
0010
0100
0001
0010
0100
0000
,
0010
0100
0010
1000
0100
0010
0001
0000
,
0001
1000
0000
1000
0000
1000
0000
0000
1000
0001
0000
0001
0000
0001
0000
0000
,
0020
0000
0032
0000
0203
0000
1300
0100
,
0010
0000
0000
0001
0000
0000
0001
0000
1000
0000
0100
0000
0010
0000
0001
0000
,
1000
0000
0000
0001
0000
0000
1000
0000
0100
0000
0000
0000
0010
0000
0001
0000
,
0100
0000
0000
0001
0000
0000
0001
0000
1000
0000
0010
0000
0001
0000
0010
0000
,
1000
0000
0000
0001
0000
0000
0100
0000
0010
0000
0000
0000
0100
0000
0001
0000
,
0010
0000
0000
0001
0000
0000
0001
0000
1000
0000
0010
0000
1000
0000
0100
0000
,
0010
0000
0000
0001
0000
0000
0100
0000
0010
0000
0000
0000
1000
0000
0001
0000
,
0010
0000
0000
0010
0000
0000
0001
0000
1000
0000
0100
0000
0010
0000
0001
0000
,
0100
0000
0000
0100
0000
0000
0010
0000
0000
0010
0000
0000
1001
0000
0000
0000
,
0001
0010
0100
0110
0000
0110
0000
1000
,
0001
0010
0100
0010
0001
1000
1001
0000
,
0010
0001
0000
0001
0000
0000
1000
0000
0010
0100
0000
0100
0000
0000
0001
0000
,
1000
0010
0000
0010
0000
0000
1000
0000
0001
0000
0010
0000
0100
0000
1000
0000
,
0001
0100
0000
0100
0000
0000
0010
0000
1000
0010
0000
0010
0000
0000
0100
0000
,
0001
1000
0000
1000
0000
0000
0001
0000
1000
0000
0100
0000
1000
0000
0010
0000
,
0100
0001
0000
0001
0000
0000
1000
0000
0010
0100
0000
0100
0000
0000
0010
0000
,
1000
0001
0000
0001
0000
0000
0100
0000
0001
0000
0010
0000
0001
0000
0100
0000
,
0010
1000
0000
1000
0000
1000
0000
0000
0100
0001
0000
0001
0000
0001
0000
0000
,
0011
0000
0000
1100
0000
0000
0011
0000
0000
1100
0000
0000
0001
1000
0001
1000
,
0001
0010
0100
0010
0001
1000
0100
0010
,
0001
0100
0001
0100
0010
1000
0100
0000
,
1000
0010
1000
0000
0001
0000
0001
0000
1000
0000
0100
0000
0010
0000
0001
0000
,
0100
0010
0100
0000
0100
0000
0001
0000
0010
0000
0100
0000
1000
0000
0000
0000
,
0001
0010
0001
0000
1000
0000
1000
0000
0010
0000
0100
0000
0001
0000
0001
0000
,
1000
0100
1000
0000
0001
0000
1000
0001
0000
0000
1000
0000
0100
0000
0010
0000
,
0001
0100
0001
0000
0100
0000
0001
0100
0000
0000
0010
0000
1000
0000
0001
0000
,
0100
0010
0100
0010
1000
0100
0010
0000
,
0002
1000
0100
1003
,
0020
0000
0000
1000
0130
0000
0001
0000
,
0000
1000
0100
0001
,
0020
1000
0130
0001
,
0200
1000
0010
0301
,
0020
0000
0100
0031
,
1000
0001
0010
0000
0001
1000
0100
0000
,
1000
0001
0100
1001
,
0220
0000
0000
0330
,
2002
0000
0000
3003
,
2000
3000
0002
0003
,
1000
0100
0010
0001
,
0100
0000
0000
0000
0110
0000
0000
0000
0001
0000
0000
0001
0000
0000
1000
0000
,
0010
0000
0000
0000
0110
0000
0000
0000
1000
0000
0000
1000
0000
0000
0001
0000
,
0100
0000
0010
0100
0000
0100
0000
0000
0010
0000
0100
0010
0000
0010
0000
0000
,
1000
0100
0010
0100
0010
0001
1000
0001
,
2002
0000
0000
3003
,
1000
0100
0010
1001
,
0100
0000
0010
1000
0000
1000
0000
0000
0001
0000
0010
0000
0100
0000
1000
0000
,
0010
0000
0100
0001
0000
0001
0000
0000
1000
0000
0100
0000
0010
0000
0001
0000
,
0100
0000
0001
1000
0000
1000
0000
0000
0001
0000
0100
0000
0010
0000
1000
0000
,
0001
0010
0100
0010
0001
1000
0100
0010
,
0001
0000
1000
0010
0000
0010
0000
0000
1000
0000
0100
0000
0010
0000
0001
0000
,
1000
0000
0001
0100
0000
0100
0000
0000
0001
0000
0010
0000
0100
0000
1000
0000
,
0010
0000
0100
0001
0000
0001
0000
0000
0100
0000
0010
1000
0000
1000
0000
0000
,
0010
0010
0100
0001
0010
0100
1000
0000
,
0001
0000
0100
0001
0000
0001
0000
0000
1000
0000
0100
0000
0010
0000
0001
0000
,
1000
0000
0010
1000
0000
1000
0000
0000
0001
0000
0010
0000
0100
0000
1000
0000
,
0010
0000
0100
0010
0000
0010
0000
0000
0100
0000
0010
0000
1000
0000
0001
0000
,
1000
0100
0010
0001
0001
0010
0100
1000
,
0001
0000
0100
0001
0000
0001
0000
0000
0100
0000
0010
0000
1001
0000
0000
0000
,
0000
0000
0010
1000
0000
1000
0000
0000
0001
0000
1000
0000
0110
0000
0000
0000
,
0001
0000
0010
0001
0000
0001
0000
0000
1000
0000
0100
1000
0000
1000
0000
0000
,
0001
0010
0100
0010
0001
1000
0010
0010
,
2002
0000
0000
0000
,
0000
0000
0000
0000
,
3003
0000
0000
0000
;

//---------------dance-double - ----------------
#NOTES:
     dance-double:
     :
     Hard:
     12:
     0.557383,0.687088,0.245389,0.179952,0.339454,477.000000,447.000000,30.000000,22.000000,0.000000,0.000000,0.557383,0.687088,0.245389,0.179952,0.339454,477.000000,447.000000,30.000000,22.000000,0.000000,0.000000:
00000000
00000000
00000000
00000000
,
00000000
00000000
00000000
00000000
,
00000000
00000000
00000000
00000000
,
00000000
00000000
00000000
00000000
,
00000000
00000000
00000000
00000000
,
00000000
00000000
00000000
00000000
,
10100000
00000000
00010000
00000000
00100000
00001000
00010000
00000000
,
00000100
00000000
00001010
00000000
00000001
00000100
00000010
00000000
,
00001000
00001100
00010000
00011000
,
00100000
00010000
01000000
00100000
01000000
00010000
10000000
00010000
,
10000000
01000000
10000000
01000000
00100000
00010000
00100000
00000000
,
00001000
00010000
00001000
00010000
00000100
00001000
00000100
00000000
,
00000010
00001000
00000010
00001000
00000010
00000100
00000010
00000000
,
00001000
00000100
00001000
00000100
00010000
00001000
00010000
00000000
,
01000000
00010000
01000000
00010000
01000000
01000000
01000000
00000000
,
00010000
00100000
00001000
00010000
00001000
00010000
00000100
00000000
,
00001000
00000010
00000000
00000010
00000000
00000010
00000000
00000000
00010000
00001000
00000000
00001000
00000000
00001000
00000000
00000000
,
00200000
00320000
02030000
13000000
,
00010000
00000000
00000000
10000000
00000000
00000000
10000000
00000000
00010000
00000000
00100000
00000000
00001000
00000000
00010000
00000000
,
00000010
00000000
00000000
00000010
00000000
00000000
00001000
00000000
00000100
00000000
00000010
00000000
00000001
00000000
00001000
00000000
,
00000100
00000000
00000000
00000100
00000000
00000000
00010000
00000000
00001000
00000000
01000000
00000000
00100000
00000000
10000000
00000000
,
00010000
00000000
00000000
00010000
00000000
00000000
00100000
00000000
00001000
00000000
00010000
00000000
00011000
00000000
00000000
00000000
,
00010000
00000000
00000000
00000010
00000000
00000000
00000010
00000000
00001000
00000000
00000100
00000000
00000010
00000000
00000001
00000000
,
00001000
00000000
00000000
00000100
00000000
00000000
00010000
00000000
00001000
00000000
00001000
00000000
01000000
00000000
00010000
00000000
,
10000000
00000000
00000000
00010000
00000000
00000000
00010000
00000000
00100000
00000000
00001000
00000000
00010000
00000000
00001000
00000000
,
00010000
00000000
00000000
00000100
00000000
00000000
00001000
00000000
00001100
00000000
00000000
00000000
00000011
00000000
00000000
00000000
,
00001000
00000100
00010000
00001000
00000000
00011000
00000000
00001000
,
00100000
00010000
01000000
00100000
10000000
00010000
10010000
00000000
,
10000000
00100000
00000000
00100000
00000000
00000000
01000000
00000000
00010000
01000000
00000000
01000000
00000000
00000000
00001000
00000000
,
00010000
00001000
00000000
00001000
00000000
00000000
00010000
00000000
00000010
00000000
00001000
00000000
00000100
00000000
00000010
00000000
,
00000001
00000010
00000000
00000010
00000000
00000000
00000100
00000000
00001000
00000100
00000000
00000100
00000000
00000000
00010000
00000000
,
00001000
00100000
00000000
00100000
00000000
00000000
00010000
00000000
01000000
00000000
00100000
00000000
10000000
00000000
00010000
00000000
,
00100000
00010000
00000000
00010000
00000000
00000000
00100000
00000000
00001000
00010000
00000000
00010000
00000000
00000000
00000100
00000000
,
00001000
00000100
00000000
00000100
00000000
00000000
00000010
00000000
00000001
00000000
00000100
00000000
00000010
00000000
00001000
00000000
,
00000100
00010000
00000000
00010000
00000000
00010000
00000000
00000000
00001000
00100000
00000000
00100000
00000000
00100000
00000000
00000000
,
00010000
00000000
00000000
01100000
00000000
00000000
10000000
00000000
00000000
01100000
00000000
00000000
00010000
00000000
00000000
00000000
,
10000000
00000000
01100000
00000000
00010000
00100000
00001000
00000000
,
00011000
00000000
00001010
00000000
00000001
00000010
00000100
00001000
,
00000010
00000000
00001100
00000000
00000100
00010000
00001000
00000000
,
00101000
00000000
00110000
00000000
00010000
00100000
01000000
10000000
,
00100000
01000000
00000000
00000000
00010000
00000000
00000000
00000000
00100000
00000000
00001000
00000000
00010000
00000000
00000000
00000000
,
00000100
00001000
00000000
00000000
00001000
00000000
00000000
00001000
00000100
00000000
00000010
00000000
00000001
00000000
00000000
00000000
,
00001000
00000100
00000000
00000000
00000100
00000000
00000000
00000100
00010000
00000000
00001000
00000000
00010000
00000000
00000000
00000000
,
00002000
00203000
00320000
01030000
,
00200000
10000000
01000000
10300000
,
00010000
00000000
00000000
00000000
00000000
00000000
00100000
00010000
00100000
00000000
00000000
00000000
00001000
00000000
00000000
00000000
,
00020000
00000100
00001000
00030010
,
00000200
00000001
00000010
00000310
,
00000002
00001000
00000100
00001003
,
00001000
00000000
00000000
00000000
00000000
00000000
00000100
00010000
00000100
00000000
00000000
00000000
00010000
00000000
00000000
00000000
,
00002000
00100000
00010000
01003000
,
00020000
10000000
02000000
03030000
,
02200000
00000000
03300000
00000000
,
00022000
00000000
00033000
00000000
,
00000220
00000000
00000330
00000000
,
00000002
00000010
00000100
00001003
,
00000110
00000000
00000000
00000000
00000110
00000000
00000000
00000000
00000010
00000000
00000000
00001000
00000000
00000000
00000100
00000000
,
00010000
00000000
00000000
00000000
00011000
00000000
00000000
00000000
00001000
00000000
00000000
00100000
00000000
00000000
00010000
00000000
,
01000000
00100000
10000000
00000000
01000000
00100000
00010000
00000000
,
00100000
00001000
00010000
00000100
00000100
00000100
00001000
00000001
,
00000100
00000100
00000100
00000100
00000100
00000100
00000100
00000000
,
00000011
00000110
00001100
00010100
,
00001000
00000000
00100000
00010000
00000000
00010000
00000000
00000000
10000000
00000000
01000000
00000000
00100000
00000000
00010000
00000000
,
01000000
00000000
00000000
00001000
00000000
00001000
00000000
00000000
00010000
00000000
00000100
00000000
00001000
00000000
00000001
00000000
,
00000100
00000000
00000000
00000010
00000000
00000010
00000000
00000000
00000001
00000000
00001000
00000000
00000100
00000000
00010000
00000000
,
00001000
00000000
00000000
00100000
00000000
00100000
00000000
00000000
00010000
00000000
00100000
00000000
01000000
00000000
10000000
00000000
,
00100000
00000000
00000000
01000000
00000000
00010000
00000000
00000000
10000000
00000000
01000000
00000000
00100000
00000000
00010000
00000000
,
01000000
00000000
00000000
00001000
00000000
00010000
00000000
00000000
00000100
00000000
00001000
00000000
00000010
00000000
00000100
00000000
,
00000001
00000000
00000000
00001000
00000000
00000100
00000000
00000000
00010000
00000000
00000000
00001000
00000000
01000000
00000000
00000000
,
00010000
00100000
01000000
10000000
01000000
00100000
10010000
00000000
,
00100000
00000000
10000000
00100000
00000000
00100000
00000000
00100000
10000000
00000000
00010000
00000000
00100000
00000000
00001000
00000000
,
00010000
00000000
00000010
00001000
00000000
00001000
00000000
00001000
00000001
00000000
00000100
00000000
00000010
00000000
00001000
00000000
,
00000100
00000000
00000100
00010000
00000000
00010000
00000000
00010000
00001000
00000000
00100000
00000000
00010000
00000000
01000000
00000000
,
00100000
10000000
00100000
00000000
01000000
00010000
01000000
00000000
00100000
10000000
00100000
00000000
10000000
00000000
01000000
00000000
,
00100000
00000000
00000000
00001000
00000000
00010000
00000000
00000000
00000100
00000000
00001000
00000000
00001001
00000000
00000000
00000000
,
00000010
00000000
00000000
00001000
00000000
00000100
00000000
00000000
00010000
00000000
00001000
00000000
01000000
00000000
00000000
00000000
,
00100000
00000000
10000000
01000000
00100000
00000000
00000000
00000000
00010000
00000000
00100000
00001000
00010000
00000000
00000000
00000000
,
00000100
00001000
00000010
00000001
00000100
00000010
00010000
00001000
,
00022000
00000000
00000000
00000000
,
00000000
00000000
00000000
00000000
,
00033000
00000000
00000000
00000000
;

//---------------dance-double - ----------------
#NOTES:
     dance-double:
     :
     Medium:
     9:
     0.425340,0.556214,0.392622,0.179952,0.000000,364.000000,316.000000,48.000000,22.000000,0.000000,0.000000,0.425340,0.556214,0.392622,0.179952,0.000000,364.000000,316.000000,48.000000,22.000000,0.000000,0.000000:
00000000
00000000
00000000
00000000
,
00000000
00000000
00000000
00000000
,
00000000
00000000
00000000
00000000
,
00000000
00000000
00000000
00000000
,
00000000
00000000
00000000
00000000
,
00000000
00000000
00000000
00000000
,
00100000
10000000
00010000
00100000
,
00001000
00010000
00000010
00000100
,
00000001
00000100
00001000
00010000
,
00100000
00000000
10000000
00000000
01100000
00000000
10000000
00010000
,
10000000
01000000
00010000
00100000
,
00001000
00010000
00000010
00001001
,
00000001
00000100
00001000
00000100
,
00010000
00001000
01000000
01100000
,
00100000
10000000
00100000
10000000
00100000
00000000
01010000
00000000
,
00100000
00001000
00100000
00001000
00100000
00000000
00011000
00000000
,
00002200
00003300
00000022
00000033
,
00000001
00000010
00000100
00001000
,
00000100
00000000
00010000
00000000
00001000
00100000
00001000
00100000
,
00010000
00000000
01000000
00000000
00100000
00000000
10000000
01000000
,
00100000
00000000
00001000
00000000
00010000
00000100
00010000
00000100
,
00010000
00000000
00000010
00000000
00001000
00000000
00000001
00000100
,
00000010
00000000
00001000
00000000
00000100
00010000
00001000
00010000
,
00000100
00000000
00010000
00000000
00001000
00000000
00100000
00010000
,
01000000
00000000
00100000
00000000
10000000
01000000
00100000
00010000
,
01000000
01100000
10010000
00000000
,
00010000
00000000
00000000
01010000
00000000
01010000
00000000
00000000
,
10000000
00010000
01100000
10010000
,
10000000
01000000
10000000
00000000
00010000
00100000
00010000
00000000
,
01000000
00100000
01000000
00000000
00001000
00000000
00011000
00000000
,
00010000
00000100
00010000
00000000
00000010
00001000
00000010
00000000
,
00000100
00000001
00000100
00000000
00001000
00000000
00001100
00000000
,
00010000
00001000
00010000
00000000
00001000
00100000
00010000
00000000
,
01000000
00100000
10000000
00000000
00110000
00000000
10100000
00000000
,
02020000
03030000
20200000
30300000
,
00100000
00000000
00000000
10010000
00000000
00000000
01100000
00000000
,
00000000
00000000
00000000
00000000
00100000
01000000
00010000
10000000
,
00000000
00000000
00000000
00000000
00001000
00010000
00000100
00001000
,
00000000
00000000
00000000
00000000
00000100
00000010
00001000
00000001
,
00000000
00000000
00000000
00000000
00001000
00000100
00010000
00001000
,
00010000
00000000
00001100
00000000
00000010
00000100
00000010
00000100
,
00000010
00000000
00001001
00000000
00000100
00010000
00001000
00010000
,
00000100
00011000
00100000
01100000
,
10000000
00000000
01010000
00000000
00100000
00001000
00010000
00000000
,
00002000
00010000
00100000
00010000
,
00103000
00000000
00010000
00000000
,
02000000
00100000
00010000
00100000
,
03010000
00000000
10000000
00000000
,
00020000
00100000
01000000
00100000
,
01030000
00000000
00001000
00000000
,
00020000
00001000
00000100
00001000
,
00030100
00000000
00001000
00000000
,
00000220
00000000
00000330
00000000
,
00000002
00000000
00000003
00000000
,
00002000
00000000
00003000
00000000
,
00000020
00000000
00000230
00000000
,
00000301
00000000
00000010
00000000
00001000
00000100
00000010
00000000
,
00000001
00000000
00001000
00000000
00000100
00010000
00001000
00000000
,
00100000
00000000
00010000
00000000
01000000
00100000
10000000
00000000
,
01000000
00100000
00001000
00011000
,
00010100
00010100
00001010
00001010
,
00000011
00000110
00001100
00000010
,
00001000
00000100
00001000
00000000
00000100
00010000
00001000
00000000
,
00100000
00010000
00100000
00000000
00001000
00010000
00000100
00000000
,
00001000
00000100
00000010
00000000
00000001
00000010
00000100
00000000
,
00001000
00000000
00000100
00000000
00010000
00001000
01000000
00000000
,
00010000
00100000
01000000
00000000
10000000
00000000
01100000
00000000
,
10000000
01000000
00100000
00000000
00010000
00000000
01100000
00000000
,
10000000
00010000
00100000
00000000
00001000
00010000
00000010
00000000
,
00001100
00000011
00000220
00000330
,
00000001
00000100
00000010
00000000
00001000
00000000
00001100
00000000
,
00000100
00010000
00001000
00000000
00010000
00000000
00101000
00000000
,
00100000
00010000
01000000
00000000
00100000
10000000
01000000
00000000
,
00010000
00001000
00000100
00000001
,
00000010
00000001
00000100
00000000
00001010
00000000
00001100
00000000
,
00000100
00010000
00001000
00000000
00110000
00000000
01010000
00000000
,
10000000
00010000
00100000
00000000
00001000
00010000
00000010
00000000
,
00001000
00000100
00000010
00000001
00001000
00000000
00001100
00000000
,
00022000
00000000
00000000
00000000
,
00000000
00000000
00000000
00000000
,
00033000
00000000
00000000
00000000
;

//---------------dance-double - ----------------
#NOTES:
     dance-double:
     :
     Easy:
     6:
     0.306152,0.392622,0.130874,0.220850,0.000000,262.000000,246.000000,16.000000,27.000000,0.000000,0.000000,0.306152,0.392622,0.130874,0.220850,0.000000,262.000000,246.000000,16.000000,27.000000,0.000000,0.000000:
00000000
00000000
00000000
00000000
,
00000000
00000000
00000000
00000000
,
00000000
00000000
00000000
00000000
,
00000000
00000000
00000000
00000000
,
00000000
00000000
00000000
00000000
,
00000000
00000000
00000000
00000000
,
00100000
00001000
00001000
00011000
,
00010000
00000100
00000100
00001001
,
00000010
00001000
00000100
00010000
,
00001000
01000000
00100000
10000000
,
00010000
00010000
00010000
00010000
,
10000000
01000000
00100000
00001000
,
00010000
00010000
00010000
00010000
,
00000100
00001000
00000010
00000001
,
00000100
00000100
00000010
00010000
,
00001000
00001000
00100000
00010000
,
01000000
01000000
00100000
00100000
,
20020000
00000000
00000000
30030000
,
00100000
00001000
00010000
00010000
,
00000010
00001000
00000100
00000010
,
00000001
00001000
00000100
00000100
,
00010000
00001000
01000000
01100000
,
00100000
10000000
01000000
00100000
,
00001000
00010000
00000010
00000010
,
00000200
00000300
00000020
00000030
,
00000001
00000100
00002002
00003003
,
00000020
00000000
00000000
00000030
,
00000200
00000000
00000000
00000300
,
00000001
00000100
00000100
00000001
,
00001000
00000100
00000100
00010000
,
00001000
01000000
01000000
00010000
,
10000000
01000000
00010000
00001000
,
00100000
00100000
00001000
00010000
,
00000010
00001000
00001000
00000010
,
00020000
00030000
00002000
00003000
,
00010000
00000000
00000000
00011000
00000000
00000000
00001000
00000000
,
00010000
00000100
00001000
00000001
,
00001000
00000000
00000100
00000000
00010000
00010000
00010000
00000000
,
00001000
01000000
00010000
00100000
,
01000000
00000000
10000000
00000000
00100000
00100000
00100000
00000000
,
10000000
01000000
00100000
00001000
,
00010000
00000000
00000010
00000000
00000100
00000100
00000100
00000000
,
00000010
00000010
00000010
00000000
00000100
00000100
00000100
00000000
,
00000001
00000100
00001000
00000010
,
00002000
00000100
00000010
00000001
,
00000100
00000000
00000010
00000000
,
00003200
00000000
00020300
00000000
,
00032000
00000000
02003000
00000000
,
03200000
10000000
01000000
10000000
,
20300000
00000000
30020000
00000000
,
00230000
00000000
00302000
00000000
,
00020000
00000000
00033000
00000000
,
00022000
00000000
00000000
00000000
,
00033000
00000000
00000000
00000000
,
00100000
00000000
00100000
00000000
,
10000000
01000000
00100000
00010000
,
00001000
00000000
00001000
00000000
,
00000001
00000010
00000100
00001000
,
00010000
00000000
00010000
00000000
,
00001000
00100000
00010000
01000000
,
10000000
00100000
00001000
00010000
,
00022000
00000000
00033000
00000000
,
00010000
00000010
00000010
00001000
,
00000001
00000100
00000100
00001000
,
00010000
00100000
00100000
10000000
,
01000000
00100000
00010000
00001000
,
00010000
00010000
00100000
10000000
,
01000000
01000000
00001000
00010000
,
00011000
00000000
00011000
00000000
,
00100000
00010000
01000000
10000000
,
00100000
00100000
01000000
00001000
,
00010000
00010000
00000100
00001000
,
00000010
00000010
00001000
00000001
,
00001000
00000100
00010000
00011000
,
00001000
00001000
01000000
10010000
,
00100000
00100000
01000000
10010000
,
00110000
00000000
00001100
00000000
,
00100000
00001000
00010000
00000100
,
00022000
00000000
00000000
00000000
,
00000000
00000000
00000000
00000000
,
00033000
00000000
00000000
00000000
;

//---------------dance-single - ----------------
#NOTES:
     dance-single:
     :
     Medium:
     8:
     0.434689,0.523496,0.384442,0.237209,0.000000,372.000000,325.000000,47.000000,29.000000,0.000000,0.000000,0.434689,0.523496,0.384442,0.237209,0.000000,372.000000,325.000000,47.000000,29.000000,0.000000,0.000000:
0000
0000
0000
0000
,
0000
0000
0000
0000
,
0000
0000
0000
0000
,
0000
0000
0000
0000
,
0000
0000
0000
0000
,
0000
0000
0000
0000
,
0010
1000
0100
0000
1001
0000
1001
0000
,
0010
0001
0100
0000
1001
0000
1001
0000
,
0020
0030
0200
0300
,
0001
0000
1000
0000
0010
0100
0010
0100
,
0001
0001
0001
0001
,
0001
0000
0001
0000
0010
0100
1000
0000
,
1000
1000
1000
1000
,
1000
0000
1000
0000
0100
0010
0001
0000
,
1000
0000
1000
0000
0001
0010
0100
0000
,
0001
0000
0001
0000
1000
0100
0010
0000
,
0100
0010
0001
0000
1000
0100
0010
0000
,
2002
0000
0000
3003
,
0010
0000
1001
0000
1000
0100
1000
0000
,
0001
0100
0001
0100
0010
0000
1001
0000
,
0010
0000
1001
0000
0100
1000
0010
0000
,
0100
0001
1000
0001
0100
0000
1010
0000
,
0001
0000
0011
0000
0001
0100
0010
0000
,
1000
0100
0010
0001
0100
0000
1001
0000
,
0100
0110
0010
0100
,
1001
0100
2002
3003
,
0020
0000
0000
0100
0000
0130
0000
0000
,
0001
0100
0001
0100
0001
0000
1010
0000
,
0010
0100
0001
0000
0010
0100
0001
0000
,
0010
0100
0001
0000
1000
0100
0010
0001
,
0100
0010
1000
0000
0100
0010
1000
0000
,
0100
0010
1000
0000
0001
0010
0100
0000
,
1000
0001
0001
0000
1000
0001
0001
0000
,
1000
0001
0001
0000
1000
0100
0010
0000
,
0011
0000
1100
0000
,
0110
0000
0000
1001
0000
0000
0110
0000
,
1000
0000
0001
0000
0100
0010
1000
0001
,
0100
0000
0010
0000
0100
0010
1000
0100
,
0010
0000
0001
0000
1000
0100
0010
0100
,
1000
0000
0001
0000
0100
0010
0100
0001
,
0100
0000
1001
0000
0010
1000
0100
1000
,
0010
0000
0101
0000
0010
1000
0100
1000
,
0002
0010
0100
1000
,
2000
0000
0000
3003
,
0020
1000
0100
1000
,
2030
0000
3002
0000
,
0203
0010
0001
0010
,
0020
0000
0330
0000
,
0002
0100
1000
0010
,
0200
0303
2000
3000
,
0020
0100
1000
0100
,
2000
3030
0002
0003
,
0220
0000
0000
0330
,
0002
0000
0000
0003
,
2000
0000
0000
0000
,
3200
0000
0320
0000
,
0031
0000
0100
0000
1000
0100
0001
0000
,
1000
0000
0100
0000
0001
0100
1000
0000
,
0001
1010
1000
0101
,
0010
0110
1001
0110
,
0020
0000
0000
0000
,
0100
0100
0130
1001
,
0010
0100
0010
0000
1000
0100
0010
0000
,
0001
0100
0001
0000
0010
0100
1000
0000
,
0010
0010
0010
0000
1000
0001
1000
0000
,
0010
0100
0010
0100
0100
0000
1001
0000
,
1000
0010
1000
0000
0001
0001
0001
0000
,
1000
0100
1000
0000
0010
0010
0010
0000
,
1000
0100
0010
0000
0100
0010
0001
0000
,
0110
1001
1100
0011
,
0001
0100
0001
0000
1010
0000
0101
0000
,
1000
0100
1000
0000
0011
0000
1100
0000
,
0010
0100
0001
0000
1000
0100
0010
0000
,
0001
0100
1001
0110
,
0010
1000
0100
0010
0001
0000
1001
0000
,
0010
0100
0001
1000
0010
0000
1001
0000
,
0001
0010
0100
0000
1000
0100
0010
0000
,
0110
1001
0110
1001
,
0220
0000
0000
0000
,
0000
0000
0000
0000
,
0330
0000
0000
0000
;

//---------------dance-single - ----------------
#NOTES:
     dance-single:
     :
     Easy:
     6:
     0.331859,0.523496,0.531676,0.458059,0.000000,284.000000,219.000000,65.000000,56.000000,0.000000,0.000000,0.331859,0.523496,0.531676,0.458059,0.000000,284.000000,219.000000,65.000000,56.000000,0.000000,0.000000:
0000
0000
0000
0000
,
0000
0000
0000
0000
,
0000
0000
0000
0000
,
0000
0000
0000
0000
,
0000
0000
0000
0000
,
0000
0000
0000
0000
,
0010
0010
1000
0101
,
0010
0010
0001
1100
,
0010
1001
0100
1001
,
0101
0101
1100
1100
,
0010
0010
0010
0010
,
0010
0010
0110
1001
,
0100
0100
0100
0100
,
0100
0100
0110
1001
,
0010
0010
0110
1001
,
0100
0100
0110
1001
,
0022
0033
2200
3300
,
0020
0100
0100
0130
,
0002
0100
1000
0100
,
2003
0010
0010
0010
,
3002
0010
0100
1000
,
2003
0100
0010
0100
,
3002
0010
0100
0100
,
2003
0010
0001
0001
,
3002
0100
2003
0100
,
3010
0100
2002
3003
,
0220
0000
0000
0330
,
2002
0000
0000
3003
,
0010
0010
1000
1000
,
0100
0100
0010
1001
,
0010
0010
0001
0001
,
0100
0100
0110
1001
,
0020
0130
0200
0310
,
0020
0130
0110
1001
,
0220
0330
2002
3003
,
0022
0000
0033
1001
,
1000
0100
1000
0000
,
0001
0100
0001
0000
,
0010
0001
0100
0000
,
0010
1000
0100
0000
,
0001
0001
0001
0100
,
1000
1000
1000
0100
,
0010
0010
0010
0100
,
0001
0010
0100
1001
,
0020
0000
0230
0000
,
0302
0000
2003
0000
,
3020
0000
2030
0000
,
3200
0000
0300
0000
,
0002
0000
0023
0000
,
0230
0000
2300
0000
,
3020
0000
0230
0000
,
0020
0000
0330
0000
,
2002
0000
0000
0000
,
0000
0000
0000
3003
,
0010
0000
0000
0000
,
0100
0000
0010
0000
,
1000
0000
0000
0000
,
0001
0000
0000
0000
,
0010
0000
0010
0000
,
0010
0000
0000
0100
,
0001
0001
0001
0001
,
2002
0000
0000
3003
,
0010
0000
0110
1001
,
0100
0000
0110
1001
,
0010
0000
1001
0000
,
1000
0100
0010
0001
,
1100
0000
0011
1010
,
0101
0000
1100
0011
,
0220
0330
2002
3003
,
0001
0100
1000
0110
,
1000
1010
0101
1001
,
0001
0110
1010
0101
,
0100
1001
0110
1001
,
0010
0100
1001
1001
,
0100
0010
1100
0101
,
0010
0100
0101
1100
,
0220
0330
2002
3003
,
0001
0100
1000
0010
,
2002
0000
0000
0000
,
0000
0000
0000
0000
,
3003
0000
0000
0000
;

//---------------dance-single - ----------------
#NOTES:
     dance-single:
     :
     Beginner:
     3:
     0.139054,0.261748,0.032718,0.179952,0.000000,119.000000,115.000000,4.000000,22.000000,0.000000,0.000000,0.139054,0.261748,0.032718,0.179952,0.000000,119.000000,115.000000,4.000000,22.000000,0.000000,0.000000:
// measure 0
0000
0000
0000
0000
,  // measure 1
0000
0000
0000
0000
,  // measure 2
0000
0000
0000
0000
,  // measure 3
0000
0000
0000
0000
,  // measure 4
0000
0000
0000
0000
,  // measure 5
0000
0000
0000
0000
,  // measure 6
0010
0000
0010
0000
,  // measure 7
0100
0000
0100
0000
,  // measure 8
0001
0000
0001
0000
,  // measure 9
1000
0000
1000
0000
,  // measure 10
0020
0000
0000
0000
,  // measure 11
0030
0000
0000
0000
,  // measure 12
0200
0000
0000
0000
,  // measure 13
0300
0000
0000
0000
,  // measure 14
0010
0000
0000
0000
,  // measure 15
0100
0000
0000
0000
,  // measure 16
0010
0000
0010
0000
,  // measure 17
0020
0000
0030
0000
,  // measure 18
0001
0000
0001
0000
,  // measure 19
0002
0000
0003
0000
,  // measure 20
1000
0000
1000
0000
,  // measure 21
2000
0000
3000
0000
,  // measure 22
0010
0000
0010
0000
,  // measure 23
0020
0000
0030
0000
,  // measure 24
0100
0000
0100
0000
,  // measure 25
0200
0000
0300
0000
,  // measure 26
0002
0000
0003
0000
,  // measure 27
2000
0000
3000
0000
,  // measure 28
0001
0000
0001
0000
,  // measure 29
0001
0000
0001
0000
,  // measure 30
1000
0000
1000
0000
,  // measure 31
1000
0000
1000
0000
,  // measure 32
0010
0000
0010
0000
,  // measure 33
0100
0000
0100
0000
,  // measure 34
0010
0000
0100
0000
,  // measure 35
2002
0000
3003
0000
,  // measure 36
0010
0000
0010
0000
,  // measure 37
1000
0000
0100
0000
,  // measure 38
0010
0000
0010
0000
,  // measure 39
0001
0000
0100
0000
,  // measure 40
0010
0000
0010
0000
,  // measure 41
1000
0000
0001
0000
,  // measure 42
0100
0000
0100
0000
,  // measure 43
0020
0000
0030
0000
,  // measure 44
2000
0000
0000
0000
,  // measure 45
3000
0000
0000
0000
,  // measure 46
0002
0000
0000
0000
,  // measure 47
0003
0000
0000
0000
,  // measure 48
0200
0000
0000
0000
,  // measure 49
0300
0000
0000
0000
,  // measure 50
0020
0000
0000
0000
,  // measure 51
0030
0000
0000
0000
,  // measure 52
2002
0000
0000
0000
,  // measure 53
3003
0000
0000
0000
,  // measure 54
0010
0000
0010
0000
,  // measure 55
0100
0000
0100
0000
,  // measure 56
0001
0000
0001
0000
,  // measure 57
1000
0000
1000
0000
,  // measure 58
0010
0000
0100
0000
,  // measure 59
0001
0000
1000
0000
,  // measure 60
2002
0000
0000
0000
,  // measure 61
3003
0000
0000
0000
,  // measure 62
0010
0000
0010
0010
,  // measure 63
0010
0000
0100
0000
,  // measure 64
0001
0000
0001
0000
,  // measure 65
1000
0000
1000
0000
,  // measure 66
0100
0000
0100
0100
,  // measure 67
0100
0000
0010
0000
,  // measure 68
1000
0000
1000
0000
,  // measure 69
0001
0000
0001
0000
,  // measure 70
1000
0000
0001
0000
,  // measure 71
1000
0000
0001
0000
,  // measure 72
0100
0000
0100
0000
,  // measure 73
0010
0010
0010
0000
,  // measure 74
0001
0000
0100
0000
,  // measure 75
1000
0000
0010
0000
,  // measure 76
0100
0100
0100
0000
,  // measure 77
0010
0010
0010
0000
,  // measure 78
2002
0000
0000
0000
,  // measure 79
0000
0000
0000
0000
,  // measure 80
3003
0000
0000
0000
;
