#TITLE:Innocent Floor;
#SUBTITLE:;
#ARTIST:P*Light;
#TITLETRANSLIT:;
#SUBTITLETRANSLIT:;
#ARTISTTRANSLIT:;
#GENRE:;
#CREDIT:;
#BANNER:Innocent Floor.png;
#BACKGROUND:Innocent Floor-bg.png;
#LYRICSPATH:;
#CDTITLE:;
#MUSIC:Innocent Floor.ogg;
#OFFSET:0.600000;
#SAMPLESTART:89.800156;
#SAMPLELENGTH:12.000000;
#SELECTABLE:YES;
#BPMS:0.000000=199.000000
;
#STOPS:32.000000=0.075000,
32.500000=0.075000,
33.000000=0.075000,
33.500000=0.075000,
65.000000=0.075000,
65.500000=0.075000,
66.000000=0.160000,
94.000000=0.302000,
95.000000=0.302000
;
#BGCHANGES:;
#KEYSOUNDS:;
#ATTACKS:;

//---------------dance-single - ----------------
#NOTES:
     dance-single:
     :
     Hard:
     14:
     0.708694,0.798212,0.243265,0.217201,0.373585,571.000000,543.000000,28.000000,25.000000,0.000000,0.000000,0.708694,0.798212,0.243265,0.217201,0.373585,571.000000,543.000000,28.000000,25.000000,0.000000,0.000000:
// measure 0
0000
0000
0000
0000
,  // measure 1
0000
0000
0000
0000
,  // measure 2
0000
0000
0000
0000
,  // measure 3
0000
0000
0000
0000
,  // measure 4
0010
0000
0100
0000
0001
0010
0100
1000
,  // measure 5
1000
0000
0000
0000
0000
0000
0000
0001
,  // measure 6
0001
0000
0000
1000
1000
0000
0000
0010
,  // measure 7
1000
0100
0010
0001
1000
0100
0010
0000
,  // measure 8
0100
0100
0100
0100
0100
0000
0001
1000
,  // measure 9
0100
1000
0001
1000
0100
1000
0001
1000
,  // measure 10
0100
1000
0001
1000
0100
0010
0001
0100
,  // measure 11
0010
0100
0001
0100
0010
0100
0001
0100
,  // measure 12
0010
1000
0001
0010
0100
1000
0100
0010
,  // measure 13
0100
0001
0100
0010
0100
1000
0100
0010
,  // measure 14
0100
0010
0001
0010
0100
1000
0001
1000
,  // measure 15
0001
1000
0010
0100
0010
0100
0001
1000
,  // measure 16
0001
1000
0000
1000
0001
0000
0001
0000
0001
0000
1000
0000
0100
0000
0010
0000
,  // measure 17
0001
0000
1000
0001
0000
0000
1000
0000
0001
0000
0010
0000
0100
0000
1000
0000
,  // measure 18
0010
0000
0100
0010
0000
0000
1000
0000
0100
0000
0010
0000
0100
0000
0010
0000
,  // measure 19
0001
0000
1000
0001
0000
0000
1000
0000
0010
0000
0100
0000
0010
0000
0000
0000
,  // measure 20
0001
0010
0100
1000
0001
1000
1001
0000
,  // measure 21
1000
0001
1001
0000
0010
0100
0010
0100
,  // measure 22
0010
0100
0010
0000
0100
0010
0100
0000
0001
0000
1000
0000
0010
0000
1000
0000
,  // measure 23
0001
0000
0000
0000
0000
0000
0000
0000
0000
0000
0000
0000
0000
0000
0000
0000
0000
0000
0000
0000
0000
0000
0000
0000
1000
0000
0000
0000
0000
0000
0000
0000
0000
0000
0000
0000
0001
0000
0000
0000
0000
0000
0000
0000
0000
0000
0000
0000
0000
0000
0000
0000
0000
0000
0000
0000
0000
0000
0000
0000
0000
0000
0000
0000
0000
0000
0000
0000
0000
0000
0000
0000
0100
0000
0000
0000
0000
0000
0000
0000
0000
0000
0000
0000
0000
0000
0000
0000
0000
0000
0000
0000
0000
0000
0000
0000
0020
0000
0000
0000
0030
0000
0000
0000
0000
0000
0000
0000
0000
0000
0000
0000
0000
0000
0000
0000
0000
0000
0000
0000
0000
0000
0000
0000
0000
0000
0000
0000
0000
0000
0000
0000
0000
0000
0000
0000
0000
0000
0000
0000
0000
0000
0000
0000
0200
0000
0000
0300
0000
0000
0000
0000
0000
0000
0000
0000
0000
0000
0000
0000
0000
0000
0000
0000
0000
0000
0000
0000
0000
0000
0000
0000
0000
0000
0000
0000
0000
0000
0000
0000
0000
0000
0000
0000
0000
0000
0000
0000
0000
0000
0000
0000
,  // measure 24
0001
0000
1000
0000
0001
0000
1000
0000
0010
0000
0000
0010
0000
0000
0010
0000
,  // measure 25
1000
0000
0001
0000
1000
0000
0001
0000
0100
0000
0000
0100
0000
0000
0100
0000
,  // measure 26
0001
0000
0000
0001
0000
0000
0001
0000
1000
0000
0000
1000
0000
0000
1000
0000
,  // measure 27
0010
0000
0000
0010
0000
0000
0010
0000
0100
0000
0000
0100
0000
0000
0100
0000
,  // measure 28
0001
0000
1000
0000
0010
0000
0100
0000
0001
0000
0000
0100
0000
0000
1000
0000
,  // measure 29
0001
0000
1000
0000
0010
0000
1000
0000
0100
0000
0000
1000
0000
0000
0010
0000
,  // measure 30
0100
0000
0000
0100
0000
0000
0100
0000
0001
0000
0000
0001
0000
0000
0001
0000
,  // measure 31
0010
0000
0000
0010
0000
0000
0010
0000
1000
0000
0000
1000
0000
0000
1000
0000
,  // measure 32
0001
0100
0010
1000
0001
1000
0001
1001
,  // measure 33
0000
0000
0010
0000
0010
0000
0000
0000
1000
0000
0000
0100
0000
0000
0001
0000
,  // measure 34
1000
0000
0000
1000
0000
0000
0010
0000
0100
0000
0000
0100
0000
0000
0001
0000
,  // measure 35
0010
0000
0000
0010
0000
0000
0100
0000
1000
0000
0000
1001
0000
0000
0001
0000
,  // measure 36
1000
0100
1100
0000
0001
0010
0011
0000
,  // measure 37
0100
0000
0010
0000
0100
0000
0010
0000
1000
0001
1000
0000
0001
1000
0001
0000
,  // measure 38
1000
0100
0000
0100
0000
0000
0010
0000
0001
0000
0010
0000
0100
0000
1000
0000
,  // measure 39
0010
0100
0000
0100
0000
0000
0010
0000
1000
0100
1000
0000
0001
0100
0001
0000
,  // measure 40
2002
0000
0000
0003
,  // measure 41
0020
0000
0000
0030
,  // measure 42
0200
0000
0000
0300
,  // measure 43
0020
0000
0000
0030
,  // measure 44
3002
0000
0000
0000
,  // measure 45
0023
0000
0000
0000
,  // measure 46
0230
0000
0000
0000
,  // measure 47
2300
0000
0000
0000
,  // measure 48
3001
0000
0001
0100
0000
0000
0001
0000
1000
0000
0000
1000
0000
0000
0010
0000
,  // measure 49
1000
0000
1000
0010
0000
0000
1000
0000
0001
0000
0000
0001
0000
0000
0001
0000
,  // measure 50
0100
0000
0100
0010
0000
0000
1000
0000
0001
0000
0000
0001
0000
0000
0001
0000
,  // measure 51
0010
0000
0010
0100
0000
0000
1000
0000
0001
0000
0000
0001
0000
0000
0001
0000
,  // measure 52
1000
0000
0100
0000
1000
0000
0100
0000
0010
0000
0000
0010
0000
0000
0010
0000
,  // measure 53
0001
0000
0010
0000
0001
0000
0010
0000
0100
0000
0000
0100
0000
0000
0100
0000
,  // measure 54
1000
0100
0010
0001
1000
0100
0010
0001
,  // measure 55
0100
0010
1000
0100
0010
0100
1000
0001
,  // measure 56
2002
0000
0000
0000
0000
0000
0000
3003
,  // measure 57
0110
0000
0000
0110
0000
0000
0110
0000
0000
0000
0000
0000
1001
0000
0000
0000
,  // measure 58
1000
0000
1000
0100
0000
0000
1000
0000
0001
0000
0000
0001
0000
0000
0100
0000
,  // measure 59
0001
0000
0001
0100
0000
0000
0001
0000
1000
0000
0000
1000
0000
0000
0010
0000
,  // measure 60
1000
0000
0000
1000
0000
0000
0100
0000
0010
0000
0000
0010
0000
0000
0001
0000
,  // measure 61
0010
0000
0001
0010
0000
0001
0010
0000
0100
0000
1000
0100
0000
1000
0100
0000
,  // measure 62
0010
0000
0100
0010
0000
0000
0100
0000
1000
0000
0000
1000
0000
0000
1000
0000
,  // measure 63
0001
0000
1000
0001
0000
0000
1000
0000
0010
0000
0000
0010
0000
0000
1000
0000
,  // measure 64
0100
0000
0000
0100
0000
0000
0010
0000
0001
0000
0000
0001
0000
0000
0010
0000
,  // measure 65
0100
0000
0000
0110
0000
0000
0000
0000
0001
0000
0000
1001
0000
0000
0000
0000
,  // measure 66
2200
0300
0002
0003
,  // measure 67
0020
0030
0200
3300
,  // measure 68
0101
0000
1000
0001
0000
0110
0000
2002
,  // measure 69
0000
3000
1000
0000
0100
0000
0013
0000
,  // measure 70
1000
0100
1000
0100
0010
0001
0010
0001
,  // measure 71
0100
0010
0100
0010
0001
0010
0100
1000
,  // measure 72
0010
0010
0010
0010
0010
0000
1000
0001
,  // measure 73
0000
0220
0000
0000
0000
0330
1001
0000
,  // measure 74
0001
0010
0001
0010
0100
1000
0100
1000
,  // measure 75
0100
0010
0100
0010
0001
0010
0100
1000
,  // measure 76
0001
0000
0000
0001
0000
0000
0100
0000
1000
0000
0000
1000
0000
0000
0010
0000
,  // measure 77
0001
0000
0000
0001
0000
0000
0100
0000
1000
0000
0000
1000
0000
0000
0100
0000
,  // measure 78
1000
0010
1000
0010
0100
0001
0100
0001
,  // measure 79
1000
0010
0100
0001
1000
1000
0001
0001
,  // measure 80
0100
0000
0000
0100
0000
0000
0001
0000
1000
0000
0000
1000
0000
0000
0010
0000
,  // measure 81
1000
0000
0000
1001
0000
0000
0001
0000
1000
0000
0000
1010
0000
0000
0010
0000
,  // measure 82
1000
0100
0010
0001
1000
1000
0001
0001
,  // measure 83
1000
0001
0010
0100
1000
1000
0001
0001
,  // measure 84
0100
0000
0000
0110
0000
0000
0010
0000
1000
0000
0000
0100
0000
0000
0010
0000
,  // measure 85
0001
0000
0000
1001
0000
0000
1000
0000
0001
0000
0000
0010
0000
0000
0100
0000
,  // measure 86
0010
0000
0001
0000
0010
0000
0001
0000
1000
0001
1000
0001
1000
0000
0000
0000
,  // measure 87
0100
0000
0010
0000
0100
0000
0001
0000
1000
0001
1000
0001
1000
0000
0000
0000
,  // measure 88
0011
0000
0000
0001
0000
0000
1000
0000
1100
0000
0000
1000
0000
0000
0001
0000
,  // measure 89
0101
0000
0000
0001
0000
0000
1000
0000
1010
0000
0000
1000
0000
0000
0001
0000
,  // measure 90
0100
0000
0000
0100
0000
0000
0200
0000
0010
0000
0000
0010
0000
0000
0320
0000
,  // measure 91
1000
0000
0000
1000
0000
0000
2030
0000
0001
0000
0000
0001
0000
0000
3001
0000
;

//---------------dance-single - ----------------
#NOTES:
     dance-single:
     :
     Medium:
     11:
     0.560998,0.678480,0.269329,0.147696,0.212857,452.000000,421.000000,31.000000,17.000000,0.000000,0.000000,0.560998,0.678480,0.269329,0.147696,0.212857,452.000000,421.000000,31.000000,17.000000,0.000000,0.000000:
// measure 0
0000
0000
0000
0000
,  // measure 1
0000
0000
0000
0000
,  // measure 2
0000
0000
0000
0000
,  // measure 3
0000
0000
0000
0000
,  // measure 4
1000
0000
0001
0000
0100
0010
0100
0000
,  // measure 5
1001
0000
0000
0000
,  // measure 6
0110
0000
1001
0000
,  // measure 7
0010
0000
0100
0000
0010
0100
0010
0100
,  // measure 8
0020
0000
0130
0001
,  // measure 9
1000
0100
1000
0000
0001
0010
0001
0000
,  // measure 10
1000
0100
1000
0000
0001
0100
0001
0000
,  // measure 11
1000
0010
1000
0000
0001
0010
0001
0000
,  // measure 12
1000
0100
1000
0100
1000
0000
0001
0000
,  // measure 13
0100
0010
1000
0000
0010
0100
0001
0000
,  // measure 14
1000
0100
0010
0000
0100
0010
0001
0000
,  // measure 15
1000
0000
0010
0000
0100
0001
0000
1000
,  // measure 16
0000
1000
0001
0001
0000
0000
0101
0000
,  // measure 17
1000
0000
0000
1000
0000
0000
1000
0000
0000
0000
0000
0000
1100
0000
0000
0000
,  // measure 18
0010
0000
0000
0010
0000
0000
0010
0000
0000
0000
0000
0000
1001
0000
0000
0000
,  // measure 19
0100
0000
0000
0100
0000
0000
0100
0000
0000
0000
0000
0000
1001
0000
0000
0000
,  // measure 20
1000
0001
1000
0000
0010
1000
0100
0000
,  // measure 21
0010
1000
0100
0000
0010
1000
0010
1000
,  // measure 22
0001
0100
0001
0100
0010
0100
0010
0000
,  // measure 23
1000
0000
0000
0000
0000
0000
0000
0000
0000
1000
0000
0000
0000
0000
0000
0000
0000
0000
1000
0000
0000
0000
0000
0000
0002
0000
0000
0000
0000
0000
0000
0000
0000
0000
0000
0000
0200
0303
0000
0000
0000
0000
0000
0000
0000
0000
0000
0000
,  // measure 24
0010
1000
0100
0000
1000
0000
0011
0000
,  // measure 25
1000
0100
0010
0000
1000
0000
0101
0000
,  // measure 26
0010
0100
0010
0000
1000
0100
1000
0000
,  // measure 27
0001
0001
0001
0000
1000
1000
1000
0000
,  // measure 28
0010
1000
0100
1000
0010
0000
0101
0000
,  // measure 29
0010
0001
0100
0001
0010
0000
1001
0000
,  // measure 30
0010
0100
0010
0000
1000
0100
1000
0000
,  // measure 31
0001
0010
0001
0000
1000
0100
1000
0000
,  // measure 32
0010
0000
1001
0000
1000
0100
0010
0001
,  // measure 33
0000
0100
0100
0000
0001
0010
0100
0000
,  // measure 34
1000
1001
0010
0110
,  // measure 35
1000
1100
0001
0011
,  // measure 36
1000
0100
1000
0000
0001
0100
0001
0000
,  // measure 37
0010
0100
0010
0100
0001
1000
0001
1000
,  // measure 38
0001
1000
0010
0100
,  // measure 39
0001
1000
0100
0010
0001
0000
1000
0000
,  // measure 40
0220
0000
0000
0000
,  // measure 41
0000
0000
0000
0000
,  // measure 42
0000
0000
0000
0000
,  // measure 43
0330
0000
0000
0000
,  // measure 44
2000
0000
0000
0000
,  // measure 45
3002
0000
0000
0000
,  // measure 46
0203
0000
0000
0000
,  // measure 47
0320
0000
0000
0030
,  // measure 48
1000
0000
0001
0000
1000
0100
0010
0000
,  // measure 49
0001
0000
1000
0000
0001
0010
0100
0000
,  // measure 50
1000
0100
1000
0000
0001
0100
0001
0000
,  // measure 51
0010
0001
0010
0000
1000
0010
1000
0000
,  // measure 52
0001
0000
0001
0000
1000
0000
1000
0000
0010
0000
0000
0100
0000
0000
0010
0000
,  // measure 53
1000
0000
1000
0000
0001
0000
0001
0000
0100
0000
0000
0010
0000
0000
0010
0000
,  // measure 54
1000
0000
0000
1000
0000
0000
0000
0000
0001
0000
0000
0001
0000
0000
0000
0000
,  // measure 55
0100
0000
0000
0100
0000
0000
0100
0000
0100
0000
0000
0100
0000
0000
0100
0000
,  // measure 56
0010
0000
0000
0010
0000
0000
0010
0000
0010
0000
0000
0010
0000
0000
0010
0000
,  // measure 57
1000
0000
0000
1000
0000
0000
1000
0000
0002
0000
0000
0000
0103
0000
0000
0000
,  // measure 58
1000
0000
0000
0100
0000
0000
1000
0000
0001
0000
0000
0001
0000
0000
0000
0000
,  // measure 59
0001
0000
0000
0100
0000
0000
0001
0000
1000
0000
0000
1000
0000
0000
0000
0000
,  // measure 60
1000
0000
0000
1000
0000
0000
0000
0000
0010
0000
0000
0010
0000
0000
0000
0000
,  // measure 61
0001
0000
0000
0001
0000
0000
0000
0000
1000
0000
0000
1000
0000
0000
0000
0000
,  // measure 62
0010
0000
0000
0010
0000
0000
0100
0000
1000
0000
0000
1000
0000
0000
0000
0000
,  // measure 63
0001
0000
0000
0001
0000
0000
1000
0000
0010
0000
0000
0010
0000
0000
0000
0000
,  // measure 64
0100
0000
0000
0100
0000
0000
0000
0000
0001
0000
0000
0001
0000
0000
0000
0000
,  // measure 65
0010
0000
0000
0010
0000
0000
0000
0000
1000
0000
0000
1000
0000
0000
0000
0000
,  // measure 66
2000
3100
0002
0103
,  // measure 67
0020
0130
0002
0103
,  // measure 68
1001
0000
0100
0010
0000
0110
0000
1001
,  // measure 69
0000
0001
0100
0000
1000
0000
0010
0000
,  // measure 70
0001
0010
0001
0010
0100
1000
0100
1000
,  // measure 71
0010
0100
0010
0100
0001
0010
0100
1000
,  // measure 72
0020
0000
0100
0000
0130
0000
0000
0110
,  // measure 73
0000
2002
0000
0000
0000
0000
3003
0000
,  // measure 74
1000
0000
0010
0000
1000
0100
0010
0000
,  // measure 75
0100
0010
0001
0000
0100
0000
0001
0000
,  // measure 76
0010
0000
0000
0010
0000
0000
0000
0000
0100
0000
0000
0100
0000
0000
0000
0000
,  // measure 77
1000
0000
0000
1000
0000
0000
0000
0000
0001
0000
0000
0001
0000
0000
0000
0000
,  // measure 78
0100
0010
0100
0010
0100
0010
0100
0000
,  // measure 79
0001
1000
0001
1000
0001
1000
0001
0000
,  // measure 80
1000
0000
0000
1000
0000
0000
0000
0000
0001
0000
0000
0001
0000
0000
0000
0000
,  // measure 81
0100
0000
0000
0100
0000
0000
0000
0000
0010
0000
0000
0010
0000
0000
0000
0000
,  // measure 82
1000
0010
1000
0100
0010
0001
0010
0001
,  // measure 83
1000
0010
1000
0100
0010
0001
0010
0001
,  // measure 84
1000
0000
0000
1001
0000
0000
0000
0000
0010
0000
0000
0110
0000
0000
0000
0000
,  // measure 85
1000
0000
0000
1100
0000
0000
0000
0000
0010
0000
0000
0011
0000
0000
0000
0000
,  // measure 86
0100
0010
0100
0010
1000
1000
1000
1000
,  // measure 87
0010
0100
0010
0100
0001
0001
0001
0001
,  // measure 88
1000
0000
0000
1010
0000
0000
0000
0000
0001
0000
0000
0101
0000
0000
0000
0000
,  // measure 89
1000
0000
0000
1100
0000
0000
0000
0000
0001
0000
0000
0101
0000
0000
0000
0000
,  // measure 90
0010
0000
0000
0010
0000
0000
0000
0000
0100
0000
0000
0100
0000
0000
0000
0000
,  // measure 91
1000
0000
0000
0001
0000
0000
0000
0000
1000
0000
0000
0001
0000
0000
1001
0000
;

//---------------dance-single - ----------------
#NOTES:
     dance-single:
     :
     Easy:
     7:
     0.352485,0.398563,0.225889,0.390961,0.000000,284.000000,258.000000,26.000000,45.000000,0.000000,0.000000,0.352485,0.398563,0.225889,0.390961,0.000000,284.000000,258.000000,26.000000,45.000000,0.000000,0.000000:
// measure 0
0000
0000
0000
0000
,  // measure 1
0000
0000
0000
0000
,  // measure 2
0000
0000
0000
0000
,  // measure 3
0000
0000
0000
0000
,  // measure 4
0000
0000
0000
0000
,  // measure 5
1001
0000
1001
0000
,  // measure 6
0010
0010
0100
0100
,  // measure 7
0001
0010
0100
1000
,  // measure 8
0020
0000
0130
0001
,  // measure 9
0001
1000
0100
1000
,  // measure 10
1000
0001
0100
0010
,  // measure 11
1000
0100
0001
0010
,  // measure 12
0010
0100
0100
0001
,  // measure 13
0100
1000
0010
0001
,  // measure 14
0100
1000
0010
1000
,  // measure 15
1000
0001
0001
0100
,  // measure 16
0000
1001
0000
0000
,  // measure 17
0100
1001
0100
0000
,  // measure 18
0010
0000
1001
0000
,  // measure 19
0010
1001
0010
0000
,  // measure 20
0110
0000
0001
1000
,  // measure 21
0100
0100
1000
0001
,  // measure 22
0100
0100
0002
0003
,  // measure 23
2000
3000
2002
3003
,  // measure 24
0010
0000
0100
0000
,  // measure 25
0010
0100
0010
0100
,  // measure 26
0001
0001
1000
1000
,  // measure 27
0010
0100
0010
0100
,  // measure 28
0010
0010
0100
0100
,  // measure 29
1000
0001
1000
0001
,  // measure 30
1000
1000
0001
0001
,  // measure 31
0100
0100
0010
0010
,  // measure 32
1000
0100
0010
0001
,  // measure 33
0000
0110
1001
0000
,  // measure 34
0001
0001
1000
1000
,  // measure 35
0010
0010
0100
0100
,  // measure 36
0001
0100
1000
0100
,  // measure 37
0001
0010
1000
0010
,  // measure 38
0002
0100
0100
0103
,  // measure 39
2002
3003
0220
0330
,  // measure 40
2002
0000
0000
0000
,  // measure 41
0000
0000
0000
3003
,  // measure 42
0020
0000
0000
0000
,  // measure 43
0230
0000
0000
0000
,  // measure 44
0302
0000
0000
0000
,  // measure 45
2000
0000
0000
3003
,  // measure 46
0020
0000
0230
0300
,  // measure 47
2002
0000
0000
3003
,  // measure 48
0010
0010
0001
0100
,  // measure 49
0010
0010
1000
0100
,  // measure 50
0010
0010
0001
0100
,  // measure 51
0010
0010
1000
0100
,  // measure 52
0010
0010
0100
0100
,  // measure 53
0010
0010
0100
0100
,  // measure 54
0001
0010
0100
1000
,  // measure 55
0002
0000
0000
0003
,  // measure 56
2000
0000
0000
3000
,  // measure 57
2002
0000
3003
0000
,  // measure 58
0010
0010
0100
0100
,  // measure 59
0010
0100
0010
0100
,  // measure 60
0001
0001
1000
1000
,  // measure 61
0001
0010
0100
1000
,  // measure 62
0100
0100
0010
0010
,  // measure 63
0100
0010
0100
0010
,  // measure 64
1000
1000
0001
0001
,  // measure 65
1000
0100
0020
0030
,  // measure 66
0001
0100
1000
0100
,  // measure 67
0001
0001
1000
1000
,  // measure 68
0001
0010
1000
0010
,  // measure 69
0001
0001
1000
1000
,  // measure 70
0020
0030
0200
0300
,  // measure 71
0002
0003
2000
3000
,  // measure 72
2002
0000
3003
0220
,  // measure 73
0000
0000
0330
0000
,  // measure 74
1000
1000
0100
0010
,  // measure 75
0001
0001
0010
0100
,  // measure 76
1001
0000
0110
0000
,  // measure 77
1001
0000
0110
0000
,  // measure 78
1000
1000
0010
0001
,  // measure 79
1000
1000
0100
0001
,  // measure 80
2000
3000
0002
0003
,  // measure 81
2000
3000
0002
0003
,  // measure 82
0100
0100
0001
1000
,  // measure 83
0010
0010
1000
1001
,  // measure 84
2000
3000
0002
0003
,  // measure 85
2000
3000
0002
0003
,  // measure 86
1000
1000
0010
0000
,  // measure 87
0001
0001
0010
0000
,  // measure 88
1010
0000
0101
0000
,  // measure 89
0220
0000
0000
0330
,  // measure 90
2002
0000
0000
0000
,  // measure 91
0000
0000
0000
3003
;

//---------------dance-single - ----------------
#NOTES:
     dance-single:
     :
     Beginner:
     6:
     0.230853,0.318850,0.008688,0.060816,0.000000,186.000000,185.000000,1.000000,7.000000,0.000000,0.000000,0.230853,0.318850,0.008688,0.060816,0.000000,186.000000,185.000000,1.000000,7.000000,0.000000,0.000000:
// measure 0
0000
0000
0000
0000
,  // measure 1
0000
0000
0000
0000
,  // measure 2
0000
0000
0000
0000
,  // measure 3
0000
0000
0000
0000
,  // measure 4
0000
0000
0000
0000
,  // measure 5
0001
0000
0001
0000
,  // measure 6
0010
0000
0100
0000
,  // measure 7
0001
0000
1000
0000
,  // measure 8
0020
0000
0030
0010
,  // measure 9
0000
0100
0000
0010
,  // measure 10
0000
0100
0000
1000
,  // measure 11
0000
0001
0000
1000
,  // measure 12
0000
0001
0000
0010
,  // measure 13
0000
0100
0000
0100
,  // measure 14
0100
0100
0000
0010
,  // measure 15
0000
0100
0000
0010
,  // measure 16
0010
0010
0000
0000
,  // measure 17
0100
0000
0010
0010
,  // measure 18
0010
0000
1000
0000
,  // measure 19
0001
0000
1000
1000
,  // measure 20
1000
0000
0001
0000
,  // measure 21
1000
0000
0001
0000
,  // measure 22
1000
0000
0001
0001
,  // measure 23
0001
0001
0001
0000
,  // measure 24
0010
0000
0100
0000
,  // measure 25
0010
0010
0010
0000
,  // measure 26
0001
0000
1000
0000
,  // measure 27
0001
0000
1000
0000
,  // measure 28
0010
0000
0100
0000
,  // measure 29
0010
0010
0010
0000
,  // measure 30
1000
0000
0001
0000
,  // measure 31
1000
0000
0001
0000
,  // measure 32
1000
1000
1000
1000
,  // measure 33
0000
0010
0010
0000
,  // measure 34
1000
0000
0001
0000
,  // measure 35
1000
0000
0001
0000
,  // measure 36
0002
0003
0001
0000
,  // measure 37
2000
3000
1000
0000
,  // measure 38
0001
0001
0001
0001
,  // measure 39
0001
0000
1000
0000
,  // measure 40
2002
0000
0000
0000
,  // measure 41
0000
0000
0000
3003
,  // measure 42
0000
0000
0000
0000
,  // measure 43
0000
0000
0000
0000
,  // measure 44
0001
0000
0000
0000
,  // measure 45
1000
0000
0000
0000
,  // measure 46
0010
0000
0000
0000
,  // measure 47
0100
0000
0000
0000
,  // measure 48
0010
0000
0010
0000
,  // measure 49
0100
0000
0100
0000
,  // measure 50
0010
0000
0100
0000
,  // measure 51
0010
0000
0100
0000
,  // measure 52
0001
0000
1000
0000
,  // measure 53
0001
0000
1000
0000
,  // measure 54
0001
0000
0001
0000
,  // measure 55
1000
0000
1000
0000
,  // measure 56
0010
0010
0010
0010
,  // measure 57
0020
0000
0030
0000
,  // measure 58
0010
0000
0100
0000
,  // measure 59
0010
0000
0010
0000
,  // measure 60
0001
0000
1000
0000
,  // measure 61
0001
0000
0001
0000
,  // measure 62
1000
0000
0001
0000
,  // measure 63
1000
0000
1000
0000
,  // measure 64
0010
0000
0100
0000
,  // measure 65
0010
0000
0100
0000
,  // measure 66
0001
0000
0001
0000
,  // measure 67
1000
0000
1000
0000
,  // measure 68
0001
0000
0001
0000
,  // measure 69
0002
0000
0003
0000
,  // measure 70
0010
0000
0100
0000
,  // measure 71
0001
0000
1000
0000
,  // measure 72
0001
0000
0000
0010
,  // measure 73
0000
0000
0000
0000
,  // measure 74
1000
1000
1000
0000
,  // measure 75
0001
0001
0001
0000
,  // measure 76
0010
0000
0010
0000
,  // measure 77
0100
0000
0100
0000
,  // measure 78
1000
1000
1000
0000
,  // measure 79
0001
0001
0001
0000
,  // measure 80
1000
0000
0001
0000
,  // measure 81
1000
0000
0001
0000
,  // measure 82
0100
0100
0100
0000
,  // measure 83
0010
0010
0010
0000
,  // measure 84
1000
0000
0001
0000
,  // measure 85
1000
0000
0001
0000
,  // measure 86
1000
1000
1000
0000
,  // measure 87
0001
0001
0001
0000
,  // measure 88
0010
0000
0100
0000
,  // measure 89
0010
0010
0010
0000
,  // measure 90
0100
0100
0100
0100
,  // measure 91
0100
0100
0100
0100
;
