#TITLE:I'm Something Else;
#SUBTITLE:;
#ARTIST:SomeThingElseYT;
#TITLETRANSLIT:;
#SUBTITLETRANSLIT:;
#ARTISTTRANSLIT:;
#GENRE:;
#CREDIT:;
#BANNER:I'm Something Else.png;
#BACKGROUND:I'm Something Else-bg.png;
#LYRICSPATH:;
#CDTITLE:;
#MUSIC:I'm Something Else.ogg;
#OFFSET:2.609000;
#SAMPLESTART:104.688957;
#SAMPLELENGTH:12.000000;
#LASTBEATHINT:2.467134;
#SELECTABLE:YES;
#DISPLAYBPM:92.000000;
#BPMS:0.000000=92.000031
,22.000000=92.990013
;
#STOPS:
;
#BGCHANGES:0.000=I'm Something Else.avi=1.000=0=0=0=StretchNoLoop====,
99999=-nosongbg-=1.000=0=0=0 // don't automatically add -songbackground-
;
#KEYSOUNDS:;
#ATTACKS:;

//---------------dance-single - ----------------
#NOTES:
     dance-single:
     :
     Hard:
     11:
     0.375201,0.486714,0.285970,0.135460,0.206952,349.000000,311.000000,38.000000,18.000000,0.000000,0.000000,0.375201,0.486714,0.285970,0.135460,0.206952,349.000000,311.000000,38.000000,18.000000,0.000000,0.000000:
// measure 0
0000
0000
0000
0000
,  // measure 1
0000
0000
0000
0000
,  // measure 2
0000
0000
0000
0000
,  // measure 3
0000
0000
0000
0000
,  // measure 4
0000
0000
0000
0000
,  // measure 5
0001
0000
1000
0000
0001
0000
1000
0000
0010
0100
0010
0100
0000
0001
0000
1000
,  // measure 6
0100
0000
1000
0000
0010
0000
0001
0000
0100
0010
0100
0010
0000
1000
0000
0001
,  // measure 7
0100
0000
0010
0000
1000
0010
1000
0000
0001
0010
0001
0010
0000
0001
0000
0100
,  // measure 8
0010
0000
1000
0000
0001
0000
0100
0000
0010
0100
0010
0100
0000
0110
0000
0000
,  // measure 9
0001
0000
0010
0001
0010
0000
0001
0000
1000
0000
0100
0000
0010
0000
0001
0000
,  // measure 10
1000
0010
1000
0010
0000
1000
0000
0001
0100
0000
0010
0000
1000
0000
0001
0000
,  // measure 11
1000
0010
1000
0000
0001
0000
0100
0000
0001
0010
0001
0000
0100
0000
0010
0000
,  // measure 12
1000
0000
0001
0000
0100
0000
0010
0000
0000
1000
0100
1000
0100
0000
0000
0000
,  // measure 13
1000
0000
0001
1000
0110
0000
1000
0001
,  // measure 14
0110
0001
1000
0001
0110
0000
0001
1000
,  // measure 15
0011
0001
1000
0001
1010
1000
0001
0010
,  // measure 16
0100
0010
0001
1000
1001
0000
0110
0000
,  // measure 17
2000
0000
3100
0010
0002
0000
0013
0100
,  // measure 18
1000
0100
0010
0100
1000
0000
0001
0100
,  // measure 19
0020
0000
1030
0010
0200
0000
0301
0010
,  // measure 20
0100
0010
0001
1000
2002
0000
3003
0000
,  // measure 21
0002
0000
0013
0100
2000
0000
3100
0010
,  // measure 22
0001
0010
0100
0010
0001
0000
1000
0001
,  // measure 23
0200
0000
0301
1000
0020
0000
1030
0100
,  // measure 24
0010
0001
0010
0100
1000
0000
0000
0000
,  // measure 25
0010
0000
0000
0000
0010
0100
0010
0100
0010
0000
0000
0000
1000
0001
1000
0000
,  // measure 26
0001
1000
0001
0000
0010
0100
0010
0100
0010
0000
0000
0000
1000
0100
1000
0000
,  // measure 27
0001
0100
0001
0000
0010
0100
0010
0100
0010
0000
1000
0001
0000
0001
1000
0000
,  // measure 28
0010
0000
1000
0000
0010
0100
0010
0100
0010
0000
0000
0000
0000
0000
1000
0001
,  // measure 29
0100
0000
0101
0000
0001
0010
0100
0000
1000
0100
0010
0100
1000
0000
0001
0000
,  // measure 30
0100
0000
0110
0000
0001
1000
0010
0000
1000
0010
0100
0010
0100
0000
0001
0000
,  // measure 31
1010
0000
0001
0100
0001
0000
1000
0010
1000
0010
0000
0100
0010
0000
1001
0000
,  // measure 32
0000
0000
0001
0100
0001
0100
0010
1000
0010
0000
0100
0000
1001
0000
0000
0000
,  // measure 33
0002
0000
1003
0100
0020
0000
0130
1000
,  // measure 34
0001
0010
0100
1000
0001
0000
1000
0100
,  // measure 35
0020
0000
0130
0001
2000
0000
3001
0010
,  // measure 36
0100
1000
0100
0010
0001
0000
0000
0000
,  // measure 37
0000
0000
0000
0000
,  // measure 38
0000
0000
0000
0000
,  // measure 39
0000
0000
0000
0000
,  // measure 40
0000
0000
0000
0000
,  // measure 41
0000
0000
0000
0000
0000
0000
0000
0000
0000
0001
1000
0001
1000
0000
0000
0000
,  // measure 42
0110
0000
0011
0101
1001
0000
1000
0100
,  // measure 43
0010
0001
0010
0100
1001
0000
1100
1010
,  // measure 44
1001
0000
0110
0110
0110
0000
0001
0100
,  // measure 45
1000
0100
0001
1000
2002
0000
3003
0000
,  // measure 46
0011
0000
0110
0110
0110
0000
1000
0100
,  // measure 47
0001
0100
1000
0010
1001
0000
0011
0101
,  // measure 48
1001
0000
1100
1100
1100
0000
0001
0100
,  // measure 49
0010
0100
0001
1000
2002
0000
3003
0000
;

//---------------dance-threepanel - ----------------
#NOTES:
     dance-threepanel:
     :
     Challenge:
     1:
     0.003225,0.058511,0.007526,0.000000,0.003763,3.000000,1.000000,1.000000,0.000000,0.000000,1.000000,0.003225,0.058511,0.007526,0.000000,0.003763,3.000000,1.000000,1.000000,0.000000,0.000000,1.000000:
000
000
000
000
,
000
000
000
000
,
000
000
000
000
,
000
000
000
000
,
000
000
000
000
,
000
000
000
000
,
000
000
000
000
,
000
000
000
000
,
000
000
000
000
,
000
000
000
000
,
000
000
000
000
,
000
000
000
000
,
000
000
000
000
,
000
000
000
000
,
000
000
000
000
,
000
000
000
000
,
000
000
000
000
,
000
000
000
000
,
000
000
000
000
,
000
000
000
000
,
000
000
000
000
,
000
000
000
000
,
000
000
000
000
,
000
000
000
000
,
000
000
000
000
,
000
000
000
000
,
000
000
000
000
,
000
000
000
000
,
000
000
000
000
,
000
000
000
000
,
000
000
000
000
,
000
000
000
000
,
000
000
000
000
,
000
000
000
000
,
000
000
000
000
,
000
000
000
000
,
000
000
000
000
,
000
000
000
000
,
000
000
000
000
,
000
000
000
000
,
000
000
000
000
,
000
000
000
000
,
000
000
000
000
,
000
000
000
000
,
000
000
000
000
,
000
000
000
000
,
000
000
000
000
,
000
000
000
000
,
000
000
000
000
,
000
000
000
000
,
000
000
000
000
,
000
000
000
000
000
000
000
000
000
000
111
000
;

//---------------dance-single - ----------------
#NOTES:
     dance-single:
     :
     Medium:
     7:
     0.240817,0.318236,0.263394,0.052679,0.000000,224.000000,189.000000,35.000000,7.000000,0.000000,0.000000,0.240817,0.318236,0.263394,0.052679,0.000000,224.000000,189.000000,35.000000,7.000000,0.000000,0.000000:
0000
0000
0000
0000
,
0000
0000
0000
0000
,
0000
0000
0000
0000
,
0000
0000
0000
0000
,
0000
0000
0000
0000
,
0001
0000
1000
0010
1000
0000
0001
0000
,
1000
0000
0100
0010
0100
0000
1000
0000
,
0001
0000
0100
0010
0100
0000
0001
0000
,
1000
0000
0001
0010
0001
0000
1000
0000
,
0010
1001
0100
1001
,
0010
1100
0101
0100
,
0001
0110
1000
0110
,
0001
1010
0101
1000
,
0001
0000
1000
0001
1000
0000
0001
1000
,
0001
1000
0001
1000
0001
0000
1010
0000
,
0101
0000
0011
0000
1100
0000
0010
0100
,
0010
0000
0100
0010
0100
0000
0000
0000
,
0001
0000
0010
0100
0010
0000
1000
0000
,
0010
0000
0100
0010
0100
0000
0001
0000
,
1000
0000
0001
0010
0001
0000
1000
0000
,
0010
0100
1001
0000
,
0001
0000
1000
0010
1000
0000
0001
0000
,
1000
0000
0010
0100
0010
0000
1000
0000
,
0001
0000
0100
0001
0100
0000
0010
0000
,
1010
0101
1001
0000
,
0010
0000
0010
0000
,
0001
1000
0001
1000
0010
0000
1001
0000
,
0110
0000
1000
1000
0010
0000
0001
0001
,
0010
0000
0100
0100
0010
0000
0000
1000
,
0001
0001
1000
0000
1000
0100
0010
0000
,
0100
0010
0001
0000
0001
0001
1000
0000
,
0010
1001
0100
1001
,
0002
2003
3010
1001
,
0020
0030
0200
0300
,
0001
1000
0001
1000
0001
0000
1000
0000
,
0020
0030
0200
0300
,
0001
1000
0001
1000
0001
0000
0000
0000
,
0000
0000
0000
0000
,
0000
0000
0000
0000
,
0000
0000
0000
0000
,
0000
0000
0000
0000
,
0000
0000
0000
0000
,
1001
0000
1100
0000
0101
0000
1000
0100
,
1000
0100
0010
0001
0010
0000
0011
0000
,
0011
0000
1100
0000
1100
0000
0001
0100
,
0001
0100
0010
1000
0010
0000
0000
0000
,
1010
0000
1010
0000
1001
0000
1000
0001
,
1000
0001
0100
0010
0100
0000
0110
0000
,
1001
0000
0110
0000
1001
0000
0001
0010
,
0001
1000
0100
1000
0002
0000
0003
0000
;

//---------------dance-single - ----------------
#NOTES:
     dance-single:
     :
     Easy:
     4:
     0.138685,0.168478,0.000000,0.037628,0.000000,129.000000,129.000000,0.000000,5.000000,0.000000,0.000000,0.138685,0.168478,0.000000,0.037628,0.000000,129.000000,129.000000,0.000000,5.000000,0.000000,0.000000:
0000
0000
0000
0000
,
0000
0000
0000
0000
,
0000
0000
0000
0000
,
0000
0000
0000
0000
,
0000
0000
0000
0000
,
0001
0001
0100
0001
,
1000
1000
0100
1000
,
0001
0001
0010
0001
,
1000
1000
0010
0000
,
0001
0100
0001
0001
,
1000
0100
1000
1000
,
0001
0010
0001
0001
,
1000
0010
1000
0000
,
0001
0010
0010
0001
,
1000
0100
0100
1000
,
0001
0100
0100
0001
,
1000
0010
0010
0000
,
0001
0000
1000
0000
,
0001
1000
0001
0000
,
1000
0000
0001
0000
,
1000
0001
1000
0000
,
0010
0000
0010
0000
,
0100
0010
0100
0000
,
0100
0000
0100
0000
,
0010
0100
0010
0000
,
1000
0000
0100
0000
,
0010
0001
0010
0000
,
0001
0010
0001
1000
,
0100
1000
0100
0000
,
0001
0100
1000
0000
,
1000
0010
0001
0000
,
1000
0100
0001
0000
,
0001
0010
1000
0000
,
0002
0003
2000
3000
,
0001
1000
0001
0000
,
2000
3000
0002
0003
,
1000
0001
1000
0000
,
0000
0000
0000
0000
,
0000
0000
0000
0000
,
0000
0000
0000
0000
,
0000
0000
0000
0000
,
0000
0000
0000
0000
,
0010
0100
0010
1000
,
1000
0001
0001
0100
,
0010
0100
0010
1000
,
0001
0001
1000
0000
,
0010
1000
0010
0100
,
0100
0001
0001
1000
,
0100
1000
0001
0100
,
0100
0010
0020
0030
;

//---------------dance-single - ----------------
#NOTES:
     dance-single:
     :
     Beginner:
     2:
     0.095682,0.112319,0.000000,0.015051,0.000000,89.000000,89.000000,0.000000,2.000000,0.000000,0.000000,0.095682,0.112319,0.000000,0.015051,0.000000,89.000000,89.000000,0.000000,2.000000,0.000000,0.000000:
0000
0000
0000
0000
,
0000
0000
0000
0000
,
0000
0000
0000
0000
,
0000
0000
0000
0000
,
0000
0000
0000
0000
,
0001
0000
0001
0000
,
1000
0000
1000
0000
,
0010
0000
0010
0000
,
0100
0000
0100
0000
,
1000
0000
1000
0000
,
0001
0000
0001
0000
,
0100
0000
0100
0000
,
0010
0000
0010
0000
,
0000
1000
0000
1000
,
0000
0001
0000
0001
,
0000
1000
0000
0001
,
0000
1000
1000
0000
,
0010
0000
0010
0000
,
0010
0010
0010
0000
,
0100
0000
0100
0000
,
0100
0100
0100
0000
,
0010
0000
0100
0000
,
0010
0010
0010
0000
,
0100
0000
0010
0000
,
0100
0100
0100
0000
,
0001
0000
0100
0000
,
1000
0000
0100
0000
,
0010
0000
0001
0000
,
1000
0000
0100
0000
,
0001
0000
1000
0000
,
0010
0000
0010
0000
,
1000
0000
0001
0000
,
0200
0000
0300
0000
,
0001
0000
1000
0000
,
0001
0001
0001
0000
,
1000
0000
0001
0000
,
1000
1000
1000
0000
,
0000
0000
0000
0000
,
0000
0000
0000
0000
,
0000
0000
0000
0000
,
0000
0000
0000
0000
,
0000
0000
0000
0000
,
0010
0000
0100
0000
,
0010
0010
0010
0000
,
0100
0000
0010
0000
,
0100
0100
0100
0000
,
0001
0000
1000
0000
,
0001
0001
0001
0000
,
1000
0000
0001
0000
,
1000
1000
2000
3000
;

//---------------dance-double - ----------------
#NOTES:
     dance-double:
     :
     Easy:
     5:
     0.132234,0.187198,0.030102,0.007526,0.000000,123.000000,119.000000,4.000000,1.000000,0.000000,0.000000,0.132234,0.187198,0.030102,0.007526,0.000000,123.000000,119.000000,4.000000,1.000000,0.000000,0.000000:
00000000
00000000
00000000
00000000
,
00000000
00000000
00000000
00000000
,
00000000
00000000
00000000
00000000
,
00000000
00000000
00000000
00000000
,
00000000
00000000
00000000
00000000
,
10000000
00000000
00010000
00000000
,
01000000
00100000
00010000
00000000
,
00001000
00000000
00010000
00000000
,
00000100
00001000
00000010
00000000
,
00000001
00000000
00001000
00000000
,
00000100
00010000
00001000
00000000
,
00100000
00000000
00010000
00000000
,
01000000
00100000
00010000
00000000
,
10000000
00010000
10000000
00010000
,
00100000
00001000
00010000
00000000
,
00000010
00001000
00000001
00001000
,
00000010
00001000
00000100
00000000
,
00010000
00000000
00001000
00000000
,
00010000
00010000
00010000
00000000
,
00001000
00000000
00010000
00000000
,
00001000
00001000
00001000
00000000
,
00100000
00010000
01000000
10000000
,
00100000
00100000
00001000
00000000
,
00010000
00000100
00001000
00000010
,
00000001
00000001
00000001
00000000
,
00001000
00000000
00001001
00000000
,
00000010
00001000
00001001
00000000
,
00000100
00010000
00011000
00000000
,
00100000
00010000
10010000
00000000
,
10000000
01000000
00010000
00000000
,
00001000
00000010
00000001
00000000
,
00000100
00001000
00010000
00000000
,
00001000
00010000
00100000
00000000
,
10000000
00000000
00010000
00000000
,
10000000
00010000
00010000
00000000
,
00001000
00000000
00010000
00000000
,
00000010
00001000
00000001
00000000
,
00000000
00000000
00000000
00000000
,
00000000
00000000
00000000
00000000
,
00000000
00000000
00000000
00000000
,
00000000
00000000
00000000
00000000
,
00000000
00000000
00000000
00000000
,
00010000
00100000
01000000
10000000
,
01000000
00100000
00010000
00000000
,
00001000
00000100
00000010
00000001
,
00000010
00000100
00001000
00000000
,
00010000
01000000
10000000
01000000
,
00010000
00100000
00001000
00000000
,
00010000
00000100
00000010
00000100
,
00001000
00000001
00002000
00003000
;

//---------------dance-double - ----------------
#NOTES:
     dance-double:
     :
     Medium:
     6:
     0.205339,0.299516,0.150511,0.015051,0.000000,191.000000,171.000000,20.000000,2.000000,0.000000,0.000000,0.205339,0.299516,0.150511,0.015051,0.000000,191.000000,171.000000,20.000000,2.000000,0.000000,0.000000:
00000000
00000000
00000000
00000000
,
00000000
00000000
00000000
00000000
,
00000000
00000000
00000000
00000000
,
00000000
00000000
00000000
00000000
,
00000000
00000000
00000000
00000000
,
00010000
00000000
10000000
00010000
10000000
00000000
00010000
00000000
,
00100000
00001000
00010000
00010000
,
00000010
00000000
00001000
00000001
00001000
00000000
00000100
00000000
,
00010000
00010000
00001000
00000000
,
01000000
00000000
00100000
10000000
00100000
00000000
01000000
00000000
,
00001000
00010000
00000100
00000100
,
00001000
00000000
00000001
00000010
00000001
00000000
00001000
00000000
,
00000100
00010000
00010000
00000000
,
00001000
00000000
00100000
00010000
00100000
00000000
00010000
00000000
,
10000000
01000000
00100000
00001000
,
00010000
00000000
00001000
00010000
00001000
00000000
00010000
00000000
,
00000010
00000100
00001001
00000000
,
00000001
00000100
00001000
00010000
,
00100000
01000000
10000000
00010000
,
10000000
01000000
00100000
00001000
,
00000100
00000010
00001001
00000000
,
00000001
00000010
00001000
00010000
,
01000000
00010000
10000000
00100000
,
00001000
00010000
00000010
00001000
,
00000100
00000001
00001001
00000000
,
00000010
00000000
00000010
00000100
00000010
00000000
00001000
00000100
,
00010000
00000000
00010000
00001000
00100000
00000000
00010000
10000000
,
01000000
00000000
00010000
01000000
00100000
00000000
00010000
00100000
,
00001000
00000000
00001000
00010000
00000010
00000000
00000000
00000000
,
00000101
00001100
00011000
01010000
,
10000000
01000000
00100000
00010000
01000000
00000000
00010000
00000000
,
10100000
00110000
00011000
00001010
,
00000001
00000010
00000100
00001000
00000100
00000000
00000000
00000000
,
00001000
00100000
00010000
01000000
,
10000000
00100000
00010000
00100000
,
00001000
00010000
00000010
00001000
,
00000100
00000010
00000001
00000000
,
00000000
00000000
00000000
00000000
,
00000000
00000000
00000000
00000000
,
00000000
00000000
00000000
00000000
,
00000000
00000000
00000000
00000000
,
00000000
00000000
00000000
00000000
,
00110000
00000000
11000000
00000000
01100000
00000000
10000000
00010000
,
10000000
00010000
00100000
00001000
,
00010000
00000000
00000010
00000000
00001001
00000000
00000001
00000100
,
00001000
00000010
00001001
00000000
,
00000101
00000000
00000101
00000000
00001100
00000000
00000010
00001000
,
00000100
00010000
00001000
01000000
,
00100000
10000000
01000000
00100000
,
00001000
00000000
00010000
00001000
00022000
00000000
00033000
00000000
;

//---------------dance-double - ----------------
#NOTES:
     dance-double:
     :
     Hard:
     11:
     0.389177,0.505433,0.285970,0.015051,0.237054,362.000000,324.000000,38.000000,2.000000,0.000000,0.000000,0.389177,0.505433,0.285970,0.015051,0.237054,362.000000,324.000000,38.000000,2.000000,0.000000,0.000000:
00000000
00000000
00000000
00000000
,
00000000
00000000
00000000
00000000
,
00000000
00000000
00000000
00000000
,
00000000
00000000
00000000
00000000
,
00000000
00000000
00000000
00000000
,
10000000
00000000
00010000
00100000
00010000
00000000
00100000
00000000
00001000
00010000
00000100
00010000
00000000
00000100
00000000
00001000
,
00000100
00000000
00000010
00000000
00000001
00000000
00001000
00000000
00000100
00001000
00000100
00010000
00000000
00000100
00000000
00010000
,
00001000
00000000
00100000
00000000
00010000
00000000
10000000
00000000
00010000
00100000
00010000
01000000
00000000
00100000
00000000
10000000
,
01000000
00000000
00100000
00000000
00010000
00000000
00100000
00000000
00001000
00010000
00001000
00010000
00000000
00011000
00000000
00000000
,
00010000
00000000
00000100
00000000
00001000
00000000
00000010
00000000
00000100
00000001
00000100
00000000
00000010
00001000
00000010
00000000
,
00001000
00000000
00000100
00000000
00010000
00000000
00001000
00000000
00100000
00010000
00100000
00000000
10000000
01000000
10000000
00000000
,
00010000
00000000
00100000
00000000
00001000
00000000
00010000
00000000
00000010
00001000
00000010
00000000
00000100
00000001
00000100
00000000
,
00000010
00000000
00001000
00000000
00000100
00000000
00010000
00000000
00000000
00001000
00010000
00001000
00010000
00000000
00000000
00000000
,
01010000
00000000
00000000
00000000
10000000
01000000
00100000
00010000
10000000
00000000
00000000
00000000
00010000
00000000
00100000
00000000
,
00001000
00010000
00000010
00000100
00000001
00000000
00000010
00001000
,
00010000
00000000
00100000
01000000
10000000
00000000
00100000
00010000
,
00001000
00000100
00000001
00000100
00001001
00000000
00000011
00000000
,
00001010
00000000
00000001
00000100
00001000
00000000
00010000
00100000
,
10000000
01000000
00100000
00010000
00001000
00000000
00010000
00000100
,
00001000
00000000
00000001
00000100
00001000
00000000
00000010
00001000
,
00000100
00001000
00000001
00000101
00001001
00000000
00000000
00000000
,
00011000
00000000
00001000
00100000
00010000
00000000
10000000
01000000
,
00010000
01000000
00100000
01000000
00001000
00000000
00010000
00000010
,
00000100
00000000
00000001
00001000
00000100
00000000
00000001
00000100
,
00001000
00000010
00000001
00000100
00001001
00000000
00000000
00000000
,
00001010
00000000
00000000
00000000
00001000
00000100
00000010
00000100
00001000
00000000
00000000
00000000
00000100
00010000
00001000
00010000
,
00000100
00000000
00010000
00001000
00100000
00001000
00100000
00000000
00010000
00000000
00000000
00000000
01000000
00100000
10000000
00100000
,
10000000
00000000
00010000
00100000
00010000
00100000
00001000
00000000
00010000
00000000
00000100
00001000
00000010
00001000
00000100
00000000
,
00000010
00000000
00000001
00000100
00000001
00001000
00000001
00000000
00001000
00000000
00000000
00000000
00010100
00000000
00001000
00100000
,
00010000
00000000
01010000
00000000
00010000
00100000
01000000
00000000
10000000
01000000
00100000
00000000
00010000
00100000
00001000
00000000
,
00010000
00000000
00001100
00000000
00001000
00000010
00000100
00000000
00000001
00000010
00000100
00000010
00000001
00000000
00001000
00000000
,
00010100
00000000
00010000
00001000
00100000
00000000
00001000
00000000
00100000
00000000
00010000
00100000
01000000
00000000
00010000
00000000
,
10000000
00000000
01000000
00100000
00010000
00100000
01000000
10000000
00100000
00000000
01000000
00000000
00110000
00000000
00000000
00000000
,
00011000
00000000
00001000
00000100
00000001
00000000
00000010
00001000
,
00010000
00000000
00100000
00000000
01000000
00000000
10000000
00000000
00100000
00000000
00000000
00000000
10000000
00010000
00100000
00000000
,
00001000
00000000
00000000
00000000
00010000
00000100
00001000
00000000
00000001
00000000
00000000
00000000
00001000
00000100
00010000
00000000
,
00001000
00100000
00010000
01000000
10010000
00000000
00000000
00000000
,
00000000
00000000
00000000
00000000
,
00000000
00000000
00000000
00000000
,
00000000
00000000
00000000
00000000
,
00000000
00000000
00000000
00000000
,
00000000
00000000
00000000
00000000
00000000
00000000
00000000
00000000
00000000
00010000
10000000
00010000
10000000
00000000
00000000
00000000
,
00110000
00000000
11000000
10100000
10010000
00000000
00100000
00001000
,
00011000
00010000
00000100
00001000
00001001
00000000
00000011
00000101
,
00001001
00000000
00001100
00001100
00001100
00000000
00000100
00010000
,
00011000
00010000
00000100
00010000
00011000
00000000
01010000
00000000
,
10010000
00000000
00000000
00000000
00100000
00010000
01000000
00000000
01010000
00000000
00000000
00000000
00100000
00001000
00010000
00000000
,
00001000
00000000
00010000
00000000
00000010
00000000
00000100
00000000
00000101
00000000
00000000
00000000
00000010
00000100
00001000
00000000
,
00001100
00000000
00000000
00000000
00010000
00001000
00100000
00000000
00110000
00000000
00000000
00000000
10000000
01000000
00100000
00000000
,
01000000
00100000
00010000
00000000
00100000
00000000
00001000
00000000
00022000
00000000
00000000
00000000
00033000
00000000
00000000
00000000
;
