#TITLE:Hey Brother;
#SUBTITLE:;
#ARTIST:Avicii;
#TITLETRANSLIT:;
#SUBTITLETRANSLIT:;
#ARTISTTRANSLIT:;
#GENRE:;
#CREDIT:;
#BANNER:Hey Brother.png;
#BACKGROUND:Hey Brother-bg.png;
#LYRICSPATH:;
#CDTITLE:;
#MUSIC:Hey Brother.ogg;
#OFFSET:1.870000;
#SAMPLESTART:107.194695;
#SAMPLELENGTH:15.374763;
#LASTBEATHINT:1.810760;
#SELECTABLE:YES;
#DISPLAYBPM:125.000000;
#BPMS:0.000000=124.880005
;
#STOPS:
;
#BGCHANGES:4.000=Hey Brother.avi=1.000=0=0=0=StretchNoLoop====,
99999=-nosongbg-=1.000=0=0=0 // don't automatically add -songbackground-
;
#KEYSOUNDS:;
#ATTACKS:;

//---------------dance-single - ----------------
#NOTES:
     dance-single:
     :
     Hard:
     10:
     0.379357,0.470462,0.125457,0.473947,0.108032,381.000000,363.000000,18.000000,68.000000,0.000000,0.000000,0.379357,0.470462,0.125457,0.473947,0.108032,381.000000,363.000000,18.000000,68.000000,0.000000,0.000000:
0000
0000
0000
0000
,
0000
0000
0000
0000
,
0000
0000
0000
0000
,
2000
0000
0000
0000
,
3001
0200
0000
0000
0300
0000
1001
0000
,
0020
1030
2000
3100
,
0020
0031
2002
0000
,
0000
3003
0020
0000
,
0000
0000
0000
0000
1030
0002
0000
0000
,
0003
1000
0002
0103
,
0200
0310
0020
1030
,
2002
0000
0000
3003
,
0220
0000
0000
0000
0330
0000
1000
0001
,
0200
0301
2000
3010
,
2002
0000
0000
0000
0000
0000
3003
0010
,
0200
0000
0000
0000
0300
0000
0000
0001
,
1000
0000
0000
1000
0000
0000
1000
0000
0001
0000
0000
0001
0000
0000
0001
0000
,
0200
0010
0010
0310
,
2002
0000
0000
3003
,
1000
0010
1000
0000
0010
0000
1001
0000
,
0001
0100
0001
0000
0100
0000
1001
0000
,
0010
1000
0100
0000
0010
0001
0100
0000
,
0001
1000
0001
0000
0200
0000
0010
0000
,
0010
0000
0310
0000
0001
0010
0001
0000
,
1000
0000
0110
0000
1000
0010
1000
0000
,
0001
0000
0110
0000
1000
0001
0100
0000
,
0001
1000
0010
0000
1000
0010
0100
0000
,
0002
0100
0100
0103
,
2002
0000
0000
0000
3003
0000
0001
1000
,
0010
0000
0000
0010
1000
0000
0000
1000
0010
0000
0000
0010
0100
0000
0000
0100
,
0002
0000
0010
0000
0103
0000
1000
0001
,
0200
0000
0010
0000
0001
0000
0301
1000
,
0010
0000
0010
1000
0100
0000
0010
0001
,
0200
0010
0010
0310
,
2002
3003
0002
0203
,
0310
0100
0010
0100
0010
1000
0100
0010
,
0002
0203
0320
1000
,
1030
0000
0001
1000
0100
1000
0001
0000
,
1000
0001
0010
0000
0001
0100
0001
0100
,
0010
1000
0010
1000
0002
0000
0203
0000
,
0320
0000
0100
0000
0100
0000
0130
0001
,
1000
0100
0010
0000
0010
0001
0100
0000
,
0220
0000
0000
0000
0330
0000
0001
0100
,
0010
0000
0000
0010
1000
0000
0000
1000
0001
0000
0000
0001
0100
0000
0000
0100
,
0020
0000
1000
0000
0100
0000
1030
0010
,
0200
0000
0001
0000
0010
0000
0301
0010
,
0001
0000
0000
0001
0000
0000
0001
0000
1000
0000
0000
1000
0000
0000
1000
0000
,
0020
0100
0100
0130
,
2002
3003
0002
0203
,
0320
0000
1000
0000
1030
0001
0100
0010
,
2000
0000
3001
0000
0200
0000
0310
1000
,
0002
0000
0100
0000
0103
0001
1000
0010
,
0200
0000
0302
0000
0023
0000
0031
0100
,
0020
0000
1000
0000
0130
0010
1000
0001
,
2000
0000
0100
0000
3020
0000
0130
0010
,
0200
0000
0001
0000
0301
1000
0010
0100
,
0020
2030
3100
1001
,
0010
1000
0010
1000
0001
0100
0010
1000
,
0001
0000
0000
0001
0100
0000
0000
0100
0001
0000
0000
0001
1000
0000
0010
0000
,
1000
0100
1000
0100
0010
0001
0010
0001
,
0100
0000
0000
0100
0010
0000
0000
0010
1000
0000
0000
1000
0001
0000
0100
0000
,
0010
1000
0010
1000
0001
0100
0001
0100
,
0010
0000
0000
0010
0100
0000
0000
0100
0001
0000
0000
0001
1000
0000
0010
0000
,
1000
0100
1000
0100
0010
0001
0010
0001
,
0100
0000
0000
0100
0010
0000
0000
0010
1000
0000
0000
0000
0010
0100
0010
0000
,
0100
0001
0010
0001
0100
0010
1000
0100
,
0010
0000
0000
0010
0001
0000
0000
0001
1000
0000
0000
1000
0010
0000
0100
0000
,
0001
0010
0001
0010
0100
1000
0100
1000
,
0010
0000
0000
0010
0100
0000
0000
0100
0001
0000
0000
0000
0001
1000
0001
0000
,
2000
0000
0010
0000
3010
0100
0010
0100
,
0002
0000
0010
0000
0100
0000
1003
0010
,
0200
0000
0000
0000
0001
0000
0000
0000
0010
0300
0001
0000
0100
0000
0010
0000
,
1000
0000
0000
0000
1100
0000
0000
0000
0011
0000
0000
0000
0100
0010
0100
0000
,
2002
0000
0000
0000
,
0000
0000
0000
0000
,
3003
0000
0000
0000
;

//---------------dance-double - ----------------
#NOTES:
     dance-double:
     :
     Hard:
     9:
     0.296715,0.444325,0.125457,0.473947,0.000000,298.000000,280.000000,18.000000,68.000000,0.000000,0.000000,0.296715,0.444325,0.125457,0.473947,0.000000,298.000000,280.000000,18.000000,68.000000,0.000000,0.000000:
00000000
00000000
00000000
00000000
,
00000000
00000000
00000000
00000000
,
00000000
00000000
00000000
00000000
,
20000000
00000000
00000000
00000000
,
30010000
00200000
00000000
00000000
00300000
00000000
00100000
00000000
,
00001000
00010000
00000010
00001000
,
00000001
00000000
00000100
00000000
00000020
00000200
00000000
00000000
,
00000000
00000330
00000002
00000000
,
00000000
00000000
00000000
00000000
00001003
00000200
00000000
00000000
,
00000300
00000100
00001000
00000100
,
00010000
00001000
01000000
00100000
,
20000000
00020000
00000000
00000000
00000000
00000000
30030000
00000000
,
02200000
00000000
00000000
00000000
03300000
00000000
10000000
00010000
,
00100000
00001000
00000010
00001000
,
00200000
00000000
00000000
00000000
00300000
00000000
00000000
00001000
,
00020000
00000000
00000000
00000000
00030000
00000000
00000000
00000100
,
00001000
00000010
00000100
00000001
,
00002002
00000000
00000000
00000000
,
00003003
00000000
00000000
00000000
,
00002002
00000000
00000000
00003003
,
00000010
00001000
00000200
00000000
00000300
00000000
00010000
00001000
,
00010000
00001000
00100000
00010000
,
01000000
00100000
20020000
00000000
,
00000000
30030000
00200000
00001000
,
00001000
00000000
00301000
00000000
00010000
00000200
00000000
00000000
,
00000300
00000000
00001010
00000000
00000001
00000100
00000001
00000000
,
00001000
00000010
00001000
00000000
00000100
00000000
00010000
00000000
,
00002000
00020000
00000000
00000000
00000000
00000000
00033000
00000000
,
00002000
00000000
00100000
00000000
00103000
00000000
00100000
00010000
,
00100000
00010000
01000000
00100000
,
20020000
00000000
00000000
00000000
30030000
00000000
00000000
01000000
,
00200000
10000000
10300000
00100000
,
01000000
00010000
01000000
00000000
00010000
00000000
00100000
00000000
,
00220000
00000000
00000000
00330000
,
00011000
00000000
00020000
00030020
,
00002030
00000000
00000001
00000000
00003010
00000000
00000100
00000010
,
00002000
00000010
00000002
00000000
,
00000000
00000000
00003003
00000000
00000001
00000100
00000010
00000000
,
00001000
00000100
00010000
00000000
00002000
00000000
00010000
00000000
,
00103000
00000000
00100000
00010000
02000000
00000000
00100000
00000000
,
00020000
00000000
03030000
00000000
,
01000000
00010000
10000000
00000000
10010000
00000000
01100000
00000000
,
00020000
00000000
00100000
00000000
00130000
00000000
00100000
00001000
,
00020000
00000010
00000100
00031000
,
00020200
00000000
00000000
00000000
00000000
00000000
00030300
00001000
,
00000020
00000100
00001000
00000130
,
00000001
00000100
00000010
00000000
00001000
00000000
00000100
00000000
,
00022000
00000000
00000000
00000000
,
00033000
00000000
00200000
00320000
,
02030000
00000000
00100000
00000000
03100000
00000000
10000000
01000000
,
00200000
00000000
00001000
00000000
00001000
00000000
00301000
00010000
,
00000200
00000000
00001000
00000000
00001300
00000000
00000010
00000100
,
00000002
00000000
00000203
00000000
00000320
00000000
00001030
00000100
,
00002000
00000000
00000100
00000000
00003100
00000000
00001000
00000010
,
00000200
00000000
00000001
00000000
00000310
00000000
00000001
00000100
,
00000020
00001000
00000100
00001030
,
00000200
00001000
00010300
00011000
,
00010000
00000100
00010000
00000100
00010000
00000100
00001000
00000010
,
00000200
00000000
00000001
00000000
00000310
00000000
00000001
00000100
,
00000010
00001000
00000010
00001000
00000010
00000100
00000010
00000100
,
00000020
00000000
00002030
00000000
00003200
00000000
00010300
00001000
,
00010000
00001000
00100000
00001000
00100000
00010000
01000000
00100000
,
20000000
00000000
00100000
00000000
30010000
00000000
00100000
00001000
,
00010000
00000100
00010000
00000100
00010000
00000010
00010000
00000010
,
00001000
00001001
00001100
00001001
,
00000120
00000000
00001000
00000000
00000130
00000010
00000100
00000010
,
00001000
00000100
00000010
00000001
00001000
00000000
00000100
00010000
,
00001000
00010000
00001000
00010000
00001000
00100000
00010000
01000000
,
00200000
00000000
10000000
00000000
01300000
00000000
10000000
00010000
,
00200000
00000000
00001000
00000000
00301000
00010000
00001000
00010000
,
00000020
00000000
00001000
00000000
00000130
00000000
00000001
00000100
,
00000020
00000000
00001000
00000000
00000100
00000000
00000130
00000001
,
00001000
00000100
00000010
00000001
,
00002002
00000000
00000000
00000000
,
00000000
00000000
00000000
00000000
,
00003003
00000000
00000000
00000000
;

//---------------dance-single - ----------------
#NOTES:
     dance-single:
     :
     Beginner:
     1:
     0.091603,0.130684,0.006970,0.034849,0.000000,92.000000,91.000000,1.000000,5.000000,0.000000,0.000000,0.091603,0.130684,0.006970,0.034849,0.000000,92.000000,91.000000,1.000000,5.000000,0.000000,0.000000:
0000
0000
0000
0000
,
0000
0000
0000
0000
,
0000
0000
0000
0000
,
1000
0000
0000
0000
,
0001
0000
0000
0000
,
1000
0000
1000
0000
,
1000
0000
1000
0000
,
0000
0000
0001
0000
,
0000
0000
1000
0000
,
0000
0000
0001
0000
,
0001
0000
0001
0000
,
0001
0000
0000
0000
,
0100
0000
0000
0000
,
0010
0000
0010
0000
,
0010
0000
0000
0000
,
0010
0000
0000
0000
,
0100
0000
0100
0000
,
0200
0000
0000
0000
,
0300
0000
0000
0000
,
0001
0000
0000
0000
,
1000
0000
0000
0000
,
0001
0000
0001
0000
,
0001
0000
0001
0000
,
0000
0000
1000
0000
,
0000
0000
0001
0000
,
0000
0000
1000
0000
,
1000
0000
1000
0000
,
1000
0000
0000
0000
,
0010
0000
0000
0000
,
0100
0000
0100
0000
,
0100
0000
0000
0000
,
0100
0000
0000
0000
,
0010
0000
0010
0000
,
0020
0000
0000
0000
,
0030
0000
0000
0000
,
0001
0000
0000
0000
,
1000
0000
1000
0000
,
0000
0000
0001
0000
,
1000
0000
0001
0000
,
0000
0000
0001
0000
,
1000
0000
0000
0000
,
0010
0000
0010
0000
,
0010
0000
0000
0000
,
0100
0000
0100
0000
,
0100
0000
0000
0000
,
0001
0000
0000
0000
,
1000
0000
1000
0000
,
2000
0000
0000
0000
,
3000
0000
0000
0000
,
0010
0000
0000
0000
,
0100
0000
0000
0000
,
0001
0000
0000
0000
,
1000
0000
0000
0000
,
0100
0000
0000
0000
,
0010
0000
0000
0000
,
0001
0000
0000
0000
,
1000
0000
0000
0000
,
0001
0000
0000
0000
,
0100
0000
0100
0000
,
0100
0000
0000
0000
,
1000
0000
1000
0000
,
1000
0000
0000
0000
,
0010
0000
0010
0000
,
0010
0000
0000
0000
,
0001
0000
0001
0000
,
0001
0000
0000
0000
,
0100
0000
0100
0000
,
0100
0000
0000
0000
,
0010
0000
0010
0000
,
0010
0000
0000
0000
,
1000
0000
1000
0000
,
1000
0000
0000
0000
,
0001
0000
0001
0000
,
2002
0000
0000
0000
,
0000
0000
0000
0000
,
3003
0000
0000
0000
;

//---------------dance-single - ----------------
#NOTES:
     dance-single:
     :
     Easy:
     2:
     0.106538,0.156821,0.069698,0.313641,0.000000,107.000000,97.000000,10.000000,45.000000,0.000000,0.000000,0.106538,0.156821,0.069698,0.313641,0.000000,107.000000,97.000000,10.000000,45.000000,0.000000,0.000000:
// measure 0
0000
0000
0000
0000
,  // measure 1
0000
0000
0000
0000
,  // measure 2
0000
0000
0000
0000
,  // measure 3
2000
0000
0000
0000
,  // measure 4
0002
0000
3003
0000
,  // measure 5
1000
0000
0001
0000
,  // measure 6
1000
0000
0002
0000
,  // measure 7
0003
0000
0002
0000
,  // measure 8
0000
0000
2000
0000
,  // measure 9
3003
0000
0001
0000
,  // measure 10
1000
0000
0001
0000
,  // measure 11
2000
0000
3000
0000
,  // measure 12
0020
0000
0030
0000
,  // measure 13
1000
0000
0100
0000
,  // measure 14
0002
0000
0003
0000
,  // measure 15
0020
0000
0030
0000
,  // measure 16
0001
0000
0100
0000
,  // measure 17
2000
0000
0000
0000
,  // measure 18
3000
0000
0000
0000
,  // measure 19
0020
0000
0000
0000
,  // measure 20
0200
0000
0330
0000
,  // measure 21
0100
0000
0010
0000
,  // measure 22
1000
0000
0002
0000
,  // measure 23
0000
0003
0200
0000
,  // measure 24
0000
0000
0020
0000
,  // measure 25
0330
0000
0010
0000
,  // measure 26
1000
0000
0100
0000
,  // measure 27
0002
0000
0003
0000
,  // measure 28
2002
0000
3003
0000
,  // measure 29
0001
0000
1000
0000
,  // measure 30
0002
0000
0003
0000
,  // measure 31
2002
0000
3003
0000
,  // measure 32
1000
0000
0001
0000
,  // measure 33
2000
0000
0000
0000
,  // measure 34
3000
0000
0000
0000
,  // measure 35
1001
0000
0000
0000
,  // measure 36
0010
0000
2002
0000
,  // measure 37
3003
0000
0100
0000
,  // measure 38
0010
0000
0100
0000
,  // measure 39
0000
0000
0010
0000
,  // measure 40
2002
0000
3003
0000
,  // measure 41
0100
0000
0010
0000
,  // measure 42
2000
0000
3000
0000
,  // measure 43
0001
0000
1000
0000
,  // measure 44
0002
0000
0003
0000
,  // measure 45
0002
0000
0003
0000
,  // measure 46
1000
0000
0001
0000
,  // measure 47
2002
0000
0000
0000
,  // measure 48
3003
0000
0000
0000
,  // measure 49
0020
0000
0030
0000
,  // measure 50
0010
0000
0010
0000
,  // measure 51
0200
0000
0300
0000
,  // measure 52
0100
0000
0100
0000
,  // measure 53
0002
0000
0003
0000
,  // measure 54
0001
0000
0001
0000
,  // measure 55
2000
0000
3000
0000
,  // measure 56
1000
0000
1000
0000
,  // measure 57
0002
0000
0003
0000
,  // measure 58
1000
0000
0001
0000
,  // measure 59
2000
0000
3000
0000
,  // measure 60
0001
0000
1000
0000
,  // measure 61
0020
0000
0030
0000
,  // measure 62
0100
0000
0010
0000
,  // measure 63
0200
0000
0300
0000
,  // measure 64
0001
1000
0001
1000
,  // measure 65
0002
0000
0003
0000
,  // measure 66
1000
0000
1001
0000
,  // measure 67
0002
0000
0003
0000
,  // measure 68
0001
0000
1001
0000
,  // measure 69
2000
0000
3000
0000
,  // measure 70
1000
0000
1001
0000
,  // measure 71
0002
0000
0003
0000
,  // measure 72
0100
0000
0010
0000
,  // measure 73
2002
0000
0000
0000
,  // measure 74
0000
0000
0000
0000
,  // measure 75
3003
0000
0000
0000
;

//---------------dance-double - ----------------
#NOTES:
     dance-double:
     :
     Easy:
     2:
     0.109526,0.156821,0.006970,0.174245,0.000000,110.000000,109.000000,1.000000,25.000000,0.000000,0.000000,0.109526,0.156821,0.006970,0.174245,0.000000,110.000000,109.000000,1.000000,25.000000,0.000000,0.000000:
00000000
00000000
00000000
00000000
,
00000000
00000000
00000000
00000000
,
00000000
00000000
00000000
00000000
,
00100000
00000000
00000000
00000000
,
01000000
00000000
00000000
00000000
,
00010000
00000000
10000000
00000000
,
00010000
00000000
10000000
00000000
,
00000000
00000000
00010000
00000000
,
00000000
00000000
10000000
00000000
,
00000000
00000000
00010000
00000000
,
00100000
00000000
00010000
00000000
,
00100000
00000000
00000000
00000000
,
00001000
00000000
00000000
00000000
,
00001000
00000000
00010000
00000000
,
00001000
00000000
00000000
00000000
,
00010000
00000000
00000000
00000000
,
00010000
00000000
00001000
00000000
,
00020000
00000000
00000000
00000000
,
00030000
00000000
00000000
00000000
,
00000020
00000000
00000000
00000000
,
00000200
00000000
00000330
00000000
,
00000001
00000000
00000010
00000000
,
00000100
00000000
00002000
00000000
,
00003000
00000000
00000200
00000000
,
00000000
00000000
00000020
00000000
,
00000330
00000000
00001000
00000000
,
00000100
00000000
00000010
00000000
,
00000002
00000000
00000003
00000000
,
00002000
00000000
00003000
00000000
,
00000001
00000000
00000100
00000000
,
00002000
00000000
00003000
00000000
,
00020000
00000000
00030000
00000000
,
10000000
00000000
01000000
00000000
,
00020000
00000000
00000000
00000000
,
00030000
00000000
00000000
00000000
,
10000000
00000000
00010000
00000000
,
10000000
10000000
10000000
00000000
,
00010000
00000000
00100000
00000000
,
00001000
00000000
00010000
00000000
,
00000010
00000000
00001000
00001000
,
00001000
00000000
00000001
00000000
,
00001000
00000000
00000100
00000000
,
00020000
00000000
00030000
00000000
,
00001000
00000000
00010000
00000000
,
00002000
00000000
00003000
00000000
,
00002000
00000000
00003000
00000000
,
00010000
00000000
00001000
00000000
,
00020000
00000000
00000000
00000000
,
00030000
00000000
00000000
00000000
,
00002000
00000000
00000000
00000000
,
00103000
00000000
00100000
00000000
,
00020000
00000000
00000000
00000000
,
10030000
00000000
01000000
00000000
,
20000000
00000000
00000000
00000000
,
30010000
00000000
00010000
00000000
,
00200000
00000000
00000000
00000000
,
00301000
00000000
00010000
00000000
,
00000010
00000000
00000010
00000000
,
00001000
00000001
00001000
00000000
,
00000100
00000000
00000100
00000000
,
00000001
00001000
00000001
00000000
,
00001000
00000000
00000100
00000000
,
00010000
00001000
00010000
00000000
,
00001000
00000000
01000000
00000000
,
00010000
10000000
00010000
00000000
,
20000000
00000000
30000000
00000000
,
10000000
00000000
01000000
00000000
,
00020000
00000000
00030000
00000000
,
00100000
00000000
00001000
00000000
,
00020000
00000000
00030000
00000000
,
00001000
00000000
00000100
00000000
,
00000002
00000000
00000003
00000000
,
00000010
00000000
00001000
00000000
,
00022000
00000000
00000000
00000000
,
00000000
00000000
00000000
00000000
,
00033000
00000000
00000000
00000000
;

//---------------dance-double - ----------------
#NOTES:
     dance-double:
     :
     Medium:
     5:
     0.185198,0.235231,0.167275,0.466977,0.000000,186.000000,162.000000,24.000000,67.000000,0.000000,0.000000,0.185198,0.235231,0.167275,0.466977,0.000000,186.000000,162.000000,24.000000,67.000000,0.000000,0.000000:
00000000
00000000
00000000
00000000
,
00000000
00000000
00000000
00000000
,
00000000
00000000
00000000
00000000
,
20000000
00000000
00000000
00000000
,
00020000
00000000
30030000
10000000
,
01000000
00100000
00010000
00100000
,
01000000
00002000
00020000
00000000
,
00033000
00000000
00020000
00000000
,
00000000
00000000
00002000
00000000
,
00033000
00010000
00000100
00001000
,
00000010
00001000
00000001
00001000
,
00000200
00000000
00000300
00000000
,
00002002
00000000
00003003
00000001
,
00000010
00000100
00001000
00010000
,
00022000
00000000
00033000
00000000
,
00022000
00000000
00033000
00000000
,
00100000
00010000
01000000
10000000
,
20020000
00000000
00000000
00000000
,
30030000
00000000
00000000
00000000
,
20000000
00000000
00000000
00000000
,
00020000
00000000
30030000
10000000
,
01000000
00100000
00010000
00100000
,
01000000
20000000
00020000
00000000
,
30030000
00000000
00200000
00000000
,
00000000
00000000
00002000
00000000
,
00303000
00100000
00001000
00010000
,
00000100
00001000
00000001
00001000
,
00002002
00000000
00003003
00000000
,
00000020
00000000
00000030
00000001
,
00000010
00000100
00001000
00000010
,
00002002
00000000
00003003
00000100
,
00020000
00000000
00030000
00000000
,
00001000
00100000
00010000
01000000
,
20020000
00000000
00000000
00000000
,
30030000
00000000
00010000
01000000
,
20020000
00000000
30030000
01000000
,
00001000
00001000
00022000
00000000
,
00033000
00000000
00010000
00000010
,
00001000
00000001
00002002
00000000
,
00003003
00000010
00001000
00000100
,
00002002
00000000
00003003
00000000
,
00000100
00010000
00001000
00000000
,
00202000
00000000
00303000
00100000
,
00010000
01000000
10000000
00100000
,
20020000
00000000
30030000
00000000
,
00022000
00000000
00033000
00000000
,
00010000
00000100
00001000
00000001
,
00002002
00000000
00000000
00000000
,
00003003
00000000
00000010
00001000
,
00000200
00000000
00000300
00000010
,
00000001
00001000
00000100
00000000
,
00020000
00000000
00000000
00031000
,
00100000
00010000
01000000
00000000
,
00200000
00000000
00300000
10000000
,
01000000
00100000
00010000
00000000
,
00200000
00000000
00000000
00301000
,
00010000
00000010
00001000
00000000
,
00002002
00000000
00003003
00000001
,
00000100
00001000
00010000
00000000
,
00022000
00000000
00033000
00001000
,
00010000
01000000
10000000
00000000
,
20020000
00000000
30030000
10000000
,
00100000
00010000
00001000
00000000
,
00022000
00000000
00000000
00033000
,
00010000
00000010
00010000
00001000
,
00022000
00000000
00033000
00001000
,
00100000
00010000
10000000
00000000
,
20020000
00000000
30030000
10000000
,
00010000
00100000
00001000
00000000
,
00022000
00000000
00033000
00010000
,
00000100
00001000
00000001
00000000
,
00002002
00000000
00003003
00000001
,
00001000
00000100
00010000
00000000
,
00022000
00000000
00000000
00000000
,
00000000
00000000
00000000
00000000
,
00033000
00000000
00000000
00000000
;

//---------------dance-single - ----------------
#NOTES:
     dance-single:
     :
     Medium:
     6:
     0.230004,0.287505,0.216064,0.480917,0.000000,231.000000,200.000000,31.000000,69.000000,0.000000,0.000000,0.230004,0.287505,0.216064,0.480917,0.000000,231.000000,200.000000,31.000000,69.000000,0.000000,0.000000:
0000
0000
0000
0000
,
0000
0000
0000
0000
,
0000
0000
0000
0000
,
1020
0000
0000
0000
,
0130
0200
0000
0000
0000
0000
0301
0000
,
1000
0100
0010
0001
,
0010
0100
2002
0000
,
0000
3003
0120
0000
,
0000
0000
0000
0000
0130
0200
0000
0000
,
0000
0300
0001
0010
,
0100
1000
0010
0100
,
2002
0000
0000
3003
,
0002
0000
0000
1003
,
0010
0100
0010
1000
,
2002
0000
0000
3003
,
0220
0000
0000
0330
,
0001
0010
0100
0010
,
2002
0000
0000
0000
,
3003
0000
0000
0000
,
2000
0010
0010
3010
,
0200
0001
0001
0301
,
1000
0010
0100
0001
,
0100
0010
2002
0000
,
0000
3003
0002
0010
,
0010
0013
0200
1000
,
1000
1300
0001
0010
,
0100
1000
0010
0100
,
2002
0000
0000
3003
,
0220
0000
0330
1000
,
0100
0010
0001
0100
,
2002
0000
0000
3003
,
0220
0000
0000
0330
,
0001
0010
1000
0100
,
2002
0000
0000
0000
,
3003
0000
0010
0100
,
0002
0100
0100
0103
,
0101
0001
2020
0000
,
0000
3030
0010
0100
,
0001
2000
0010
0010
,
0010
3010
1010
1000
,
0202
0000
0000
0303
,
0010
0001
0100
1001
,
0220
0000
0000
0330
,
0010
1000
0100
0001
,
2000
0000
0000
3000
,
0220
0000
0000
0330
,
0001
0100
1000
0010
,
0002
0000
0000
0000
,
1003
0000
0010
0100
,
0002
0000
0000
0013
,
0100
1000
2002
3003
,
2000
0000
0000
3100
,
0010
0001
2002
3003
,
0020
0100
0100
0130
,
0001
0100
2002
3003
,
0200
0010
0010
0310
,
1000
0100
2002
3003
,
0002
0100
0100
0103
,
0001
0010
0100
1000
,
2000
0100
0100
3100
,
1000
0100
0010
0001
,
0200
0010
0010
0310
,
0001
0100
1000
0010
,
0020
0100
0100
0130
,
0010
1000
0100
0001
,
2010
0010
0010
3010
,
1000
0001
0100
0010
,
0102
0100
0100
0103
,
0001
1000
0010
0100
,
2002
0000
3003
0010
,
0100
0110
2002
3003
,
0220
0000
0330
1000
,
0100
0010
0001
0100
,
2002
0000
0000
0000
,
0000
0000
0000
0000
,
3003
0000
0000
0000
;
