#TITLE:GODHEART;
#SUBTITLE:;
#ARTIST:BlackY;
#TITLETRANSLIT:;
#SUBTITLETRANSLIT:;
#ARTISTTRANSLIT:;
#GENRE:;
#CREDIT:;
#BANNER:GODHEART.png;
#BACKGROUND:GODHEART-bg.png;
#LYRICSPATH:;
#CDTITLE:;
#MUSIC:GODHEART.ogg;
#OFFSET:0.792000;
#SAMPLESTART:74.997475;
#SAMPLELENGTH:13.894737;
#SELECTABLE:YES;
#BPMS:0.000000=190.000000
;
#STOPS:35.750000=0.947369,
229.000000=1.263161
;
#BGCHANGES:;
#KEYSOUNDS:;
#ATTACKS:;

//---------------dance-single - ----------------
#NOTES:
     dance-single:
     :
     Hard:
     17:
     1.021066,1.219613,0.627985,0.090893,1.107237,865.000000,789.000000,76.000000,11.000000,0.000000,0.000000,1.021066,1.219613,0.627985,0.090893,1.107237,865.000000,789.000000,76.000000,11.000000,0.000000,0.000000:
0000
0000
0000
0000
,
0000
0000
0000
0000
,
0000
0000
0000
0000
,
0000
0000
0000
0000
,
0000
0000
0000
0000
,
0000
0000
0000
0000
,
1010
0000
1000
0010
0000
0100
0001
0000
0101
0000
0001
0100
0000
0010
0100
0000
,
0110
0000
0010
1000
0000
1000
0001
0000
1001
0000
0001
0010
0000
0010
0100
0000
,
0010
0001
0010
0001
1000
0100
0010
0001
1000
0100
1000
0100
1000
0001
0010
0100
,
0000
0000
0000
0000
0001
0000
0100
0000
0010
0100
0010
0100
0010
0000
1000
0000
,
0001
0010
0001
0010
0001
0000
1000
0000
0010
0100
0001
0100
0010
0000
1000
0000
,
0001
0000
0100
0000
0010
0000
1000
0000
0001
0010
0100
0010
0001
0000
1000
0000
,
0010
0100
1000
0100
0010
0000
1000
0000
0001
0000
0010
0000
0001
0000
0100
0000
,
0010
0000
1000
0000
0001
0000
1000
0000
0001
0010
0100
0010
0001
0000
1000
0000
,
0010
0100
1000
0100
0010
0100
1000
0000
0001
0000
1000
0000
0100
0000
0010
0000
,
0001
0000
1000
0000
0010
0000
1000
0000
0001
0010
0100
0010
0001
0000
1000
0000
,
0010
0100
0001
0100
0010
0100
0010
0000
1000
0010
1000
0000
0001
0000
0010
0000
,
0110
0000
0100
0000
1001
0000
0000
0000
0010
0001
0100
0001
0010
0000
0001
0000
,
1000
0100
0010
0100
1000
0000
0001
0000
0100
0010
0100
0010
1000
0000
0001
0000
,
0011
0000
0001
0000
1000
0000
0001
0000
0100
0010
0100
0010
1000
0000
0001
0000
,
0010
0001
0010
0001
0100
0000
0010
0000
1000
0100
0010
0001
0100
0000
0101
0000
,
0101
0000
1001
0000
1000
0000
0010
0000
0100
0010
0100
0001
1000
0000
0010
0000
,
1000
0100
1000
0001
0100
0000
0010
0000
1000
0001
1000
0001
0010
0000
0001
0100
,
0010
1000
0100
0010
0001
0000
1000
0010
1000
0010
0100
0001
0100
0001
1000
0100
,
0010
0001
0010
0100
1000
0100
1000
0100
0010
0001
0010
0001
1000
0100
0010
0100
,
1000
0100
0010
0001
0100
0000
0010
0000
0100
0010
0000
0000
1000
0000
0001
0000
,
1000
0010
0000
0000
0001
0000
1000
0000
0001
0010
0000
0000
0001
0000
0100
0000
,
1000
0000
0100
0000
0001
0000
0010
0000
0001
0100
0000
0000
0010
0000
1000
0000
,
0010
0100
0000
0000
0001
0000
1000
0000
0001
0010
0000
0000
0001
0000
0100
0000
,
1000
0000
0100
0000
0001
0000
1000
0000
0010
0100
0010
0000
1000
0000
0001
0000
,
1000
0100
1000
0000
0001
0000
0010
0000
0001
0100
0001
0000
1000
0000
0010
0000
,
1000
0000
0001
0000
0010
0000
0001
0000
0100
0010
0100
0010
0100
0000
0001
0000
,
1000
0010
1000
0010
1000
0000
0001
0010
0001
0100
0001
0000
1000
0100
0010
0100
,
1000
0100
0010
0001
0100
0000
0000
0100
0010
0000
1000
0000
0010
0000
0000
1000
,
0010
0000
1000
0000
0001
0000
0000
1000
0001
0000
1000
0000
0100
0000
0000
1000
,
0100
0000
0010
0000
0001
0000
0000
0010
0001
0000
0100
0000
0010
0000
0000
0100
,
0010
0000
1000
0000
0001
0000
0000
1000
0001
0000
1000
0000
0100
0000
0000
0010
,
0001
0000
0100
0000
0010
0000
0000
0110
0000
0000
1100
0000
0000
0110
0000
0000
,
0011
0000
0000
1010
0000
0000
0101
0000
0000
1010
0000
0000
1100
0000
0000
0011
,
0000
0000
1100
0000
1000
0000
1000
0000
0001
0000
0001
0000
1000
0010
1000
0010
,
0100
0001
0100
0001
1000
0000
0010
0100
0000
0010
0100
0000
0001
0000
0100
0010
,
0000
0100
0010
0000
2020
0000
0000
0000
0000
0000
0000
0000
0000
0000
0000
0000
,
0000
0000
0000
0000
,
0000
3030
0000
0000
,
0000
0000
0000
0000
,
0000
0000
0000
0000
0001
0000
0000
0000
0001
0000
1000
0000
0010
0000
0000
0010
,
0000
0000
1000
0000
0010
0000
1000
0010
0000
0000
0100
0000
0001
0100
0000
0000
,
0001
0000
1000
0000
0010
0000
1000
0010
0000
0000
1000
0000
0001
0000
0100
0001
,
0000
0000
0100
0000
0010
0000
0000
0110
0000
0000
0010
1000
0010
0100
0001
1000
,
0100
0010
0001
1000
0001
0000
0100
0000
1000
0000
0100
0000
0001
0000
1000
0010
,
0000
1000
0010
0100
0001
0000
0010
0001
0000
0100
0001
0000
1000
0000
0010
1000
,
0100
0000
1000
0000
0001
0000
0010
0000
0100
0000
0100
0010
0001
0000
1000
0010
,
0000
1000
0100
0010
0001
0000
0100
0010
0000
1000
0010
0000
0001
0000
1000
0100
,
0000
1000
0010
0000
1001
0000
0000
1010
0000
0000
0101
0000
0101
0000
0000
1010
,
0000
0000
0011
0000
1000
0100
1000
0100
0010
0001
0010
0001
1000
0010
1000
0001
,
0100
0001
1000
0010
1000
0000
0001
1000
0001
0100
0001
0000
1000
0010
1000
0010
,
1000
0100
1000
0000
0001
0010
0001
0100
0001
1000
0001
0010
0001
0100
0001
1000
,
0001
0000
0200
0000
0020
0330
0000
0000
0000
0000
0000
0000
0000
0000
0000
0000
,
0000
0000
0000
0000
0001
0000
1000
0000
0010
0000
1000
0000
0001
0000
1000
0100
,
0000
0000
1000
0100
0010
0000
0100
0010
0000
0100
0010
0000
0001
0000
0010
0000
,
0100
0000
1000
0000
0001
0000
0100
0000
0010
0000
0100
0000
0001
0000
1000
0001
,
0000
0000
1000
0100
1000
0000
0001
1000
0000
0001
1000
0000
0001
0010
0001
1000
,
0000
0001
1000
0000
0010
0000
0100
0000
0001
0000
0100
0000
0010
0000
1000
0010
,
0000
1000
0010
1000
0001
0000
0100
0001
0000
0010
0001
0000
0001
1000
0000
0010
,
0100
0000
0010
1000
0001
0000
1000
0001
0000
1000
0100
0000
0010
0000
0100
0001
,
0000
0100
0010
0000
1000
0000
0001
0100
0000
0001
0010
0001
1000
0100
1000
0001
,
0010
0100
1000
0001
1000
0010
1000
0010
1000
0000
0001
0010
0001
0000
1000
0100
,
0000
0010
0001
0000
1000
0000
0001
0010
0000
0100
1000
0000
0010
0000
0100
0000
,
1000
0001
1001
1000
0001
0101
0001
1000
,
0110
0000
1000
0000
0001
0000
0101
0000
0000
1010
0000
0000
1010
0000
1000
0100
,
0000
0010
0001
0000
0100
0000
0010
0100
0000
0010
1000
0000
0010
0000
0100
0010
,
0000
1000
0010
0000
0100
0010
0100
0010
1000
0001
1000
0001
1000
0100
0010
0001
,
1000
0100
0010
0001
1000
0000
0010
1000
0010
1000
0100
0000
0010
0001
0010
0001
,
0100
0010
1000
0000
0001
0000
0100
0001
0000
1000
0100
0010
0001
0000
0011
0000
,
0101
0000
1000
0000
2002
0000
0000
0000
3000
0000
0100
0000
0000
0100
0000
0003
,
0101
0000
0000
0000
2010
0000
0010
0000
0000
3100
0000
0000
0102
0000
0000
0000
,
1003
0000
0000
0000
1000
0000
0010
0100
0020
0000
0000
1000
0000
0000
1030
0000
,
0000
0001
0000
0000
0010
0000
0110
0000
0000
1010
0000
0000
0110
0000
0000
0101
,
0000
0000
0110
0000
1001
0000
0000
1001
0000
0000
1100
0000
0000
0011
0000
0000
,
0110
0000
0000
1010
0000
0000
0101
0000
1001
0000
0000
1010
0000
0000
0011
0000
,
0000
0110
0000
0000
1010
0000
0000
1100
0000
0000
0011
0000
0101
0000
0000
1001
,
0000
0000
0100
0000
0110
0000
0000
1010
0000
0000
0010
1000
0010
1000
0001
0100
,
0001
0100
0010
1000
0001
0000
0100
0010
0100
0000
0001
0000
1000
0000
0001
0010
,
0000
0001
0100
0001
0100
0000
0010
1000
0000
0010
0100
0010
0100
0000
0010
1000
,
0000
0001
0010
0100
1000
0000
0100
0000
0010
0000
0011
0000
0001
0000
0100
0000
,
0101
0000
0100
0000
0010
0000
1010
0000
0000
0101
0000
0000
1100
0000
0000
0011
,
0000
0000
0100
0000
0010
0000
1000
0010
0000
1000
0001
0000
0100
0000
0001
1000
,
0000
0001
0010
0000
0001
0100
0001
0100
0010
1000
0010
1000
0001
0010
0100
1000
,
0001
0010
0100
1000
0001
0000
0100
0000
0010
1000
0010
0000
1000
0100
1000
0000
,
0001
0010
0001
0000
0000
0101
0000
0000
1100
0000
0000
0011
0000
0000
1100
0000
,
0110
0011
0000
2002
0000
0000
0000
0000
,
0000
0000
0000
0000
,
0000
3003
0000
0000
;

//---------------dance-single - ----------------
#NOTES:
     dance-single:
     :
     Medium:
     13:
     0.689367,0.876597,0.462726,0.115681,0.359439,584.000000,528.000000,56.000000,14.000000,0.000000,0.000000,0.689367,0.876597,0.462726,0.115681,0.359439,584.000000,528.000000,56.000000,14.000000,0.000000,0.000000:
0000
0000
0000
0000
,
0000
0000
0000
0000
,
0000
0000
0000
0000
,
0000
0000
0000
0000
,
0000
0000
0000
0000
,
0000
0000
0000
0000
,
1010
0000
0000
0110
0000
0000
0000
0000
0101
0000
0000
0110
0000
0000
0000
0000
,
1001
0000
0000
0101
0000
0000
0000
0000
1010
0000
0000
1100
0000
0000
0000
0000
,
0001
0000
0010
0000
0100
0000
1000
0000
0001
0100
0001
0100
0001
0100
0001
0100
,
0000
0000
0001
0100
1000
0100
0001
0100
,
1000
0100
0001
1000
0001
1000
0010
0100
,
0010
0100
0010
1000
0010
0001
0010
0100
,
0010
1000
0001
1000
0001
1000
0100
1000
,
0100
0010
0001
0100
0001
0010
0001
0100
,
0001
0010
0100
0010
0001
0100
0001
0010
,
0001
0100
0010
1000
0100
1000
0010
1000
,
0100
1000
0010
0100
0010
0100
1001
0000
,
1100
0000
0001
0010
0001
0100
0001
1000
,
0001
0100
0001
0010
0001
0100
0001
1000
,
0100
0010
0001
0100
0010
1000
0010
1000
,
0001
1000
0100
1000
0010
1000
0001
0100
,
0010
0010
1000
0001
1000
0100
0010
0001
,
1000
1000
0001
1000
0001
0010
0100
1000
,
0001
0001
1000
0100
0010
0001
0001
0010
,
0100
1000
0020
0000
0100
0000
0130
0000
,
1001
0000
0000
0000
0010
1000
0000
0000
1000
0100
0000
0000
0100
0010
0000
0000
,
0010
0001
0000
0000
0001
0100
0000
0000
0100
0010
0000
0000
1000
0000
0100
0000
,
0010
0000
0001
0000
0001
1000
0000
0000
1000
0010
0000
0000
0010
1000
0000
0000
,
1000
0100
0000
0000
0100
0010
0000
0000
0010
0001
0000
0000
0001
0000
0100
0000
,
0010
0000
0100
0000
0100
0001
0000
0000
0001
1000
0000
0000
1000
0100
0000
0000
,
0100
1000
0000
0000
1000
0010
0000
0000
0010
0100
0000
0000
0001
0000
0100
0000
,
0010
0000
1000
0000
1000
0010
0000
0000
0010
1000
0000
0000
1000
0001
0000
0000
,
0001
0010
0000
0000
0010
0001
0000
0000
0001
0100
0000
0000
0100
0000
0010
0000
,
1000
0001
1000
0000
0001
0010
0100
0000
,
0001
0010
0100
0000
0001
0010
0100
1000
,
0100
0010
0001
0000
1000
0100
0010
0000
,
1000
0100
0010
0000
1000
0100
0010
0100
,
1000
0000
0001
0000
1000
0000
0000
1000
0000
0000
0001
0000
0000
0001
0000
0000
,
1000
0000
0000
0100
0000
0000
0010
0000
0000
0001
0000
0000
0010
0000
0000
0100
,
0000
1000
0010
0100
0010
0100
0001
1000
,
0001
0000
1000
0000
0010
0100
0010
0100
0010
0100
0010
0100
0010
0100
0010
0100
,
0010
2002
0000
0000
,
0000
0000
0000
0000
,
0000
3003
0000
0000
,
0000
0000
0000
0000
,
0000
0001
1000
0010
,
0100
1000
0010
0100
,
0001
1000
0010
0001
,
0100
0010
1000
0100
,
0001
0000
0000
0000
1000
0000
0010
0000
1000
0000
0000
0000
0001
0000
0000
0010
,
0000
0001
2000
0000
3001
0000
1000
0010
,
1000
0000
0000
0000
0001
0000
0010
0000
0001
0000
0000
0000
0100
0000
0000
0010
,
0000
0100
0002
0000
1003
0000
0010
0100
,
0010
0000
0000
0000
0001
0000
0000
0001
0000
0000
1000
0000
0001
0000
0000
0001
,
0000
1000
0001
0010
0100
1000
0100
0010
,
0001
1000
0010
0100
0010
0100
0001
1000
,
0001
0000
1000
0000
0001
0000
0010
0000
0100
0000
1000
0000
0001
1000
0001
1000
,
0001
1000
0001
1000
0001
0000
0000
0000
0000
0000
0000
0000
0000
0000
0000
0000
,
0000
0000
0000
0000
0010
0000
0100
0000
0010
0000
0100
0000
0010
0000
0000
1010
,
0000
0000
0010
0000
0100
0000
0000
0101
0000
0000
0100
0000
0001
0000
0010
0000
,
0100
0000
1000
0000
0010
0000
1000
0000
0001
0000
1000
0000
0010
0000
0000
1010
,
0000
0000
1000
0000
0100
0000
0000
1100
0000
0000
1000
0000
0010
0000
0000
1010
,
0000
0000
1000
0000
0001
0000
0100
0000
0010
0000
0100
0000
0001
0000
0000
0101
,
0000
0000
0100
0000
0010
0000
0000
1010
0000
0000
0010
0000
0000
0110
0000
0000
,
0001
0000
1000
0000
0010
0000
0000
1010
0000
0000
0010
0000
0100
0000
0000
0101
,
0000
0000
0100
0000
0001
0000
0000
0011
0000
0000
0001
0000
0100
0010
0100
0010
,
0100
0010
0100
0000
0002
0000
0000
0000
1003
0000
0010
0000
1000
0000
0000
1001
,
0000
0000
1000
0000
0100
0000
0000
1100
0000
0000
1000
0000
0001
0000
0010
0000
,
0100
1000
1001
0000
0000
1100
0000
0000
,
0011
0000
0000
0000
0000
0000
1010
0000
0000
1010
0000
0000
0011
0000
0000
0011
,
0000
0000
0100
0000
0001
0000
0000
1001
0000
0000
0001
0000
1000
0000
0000
1001
,
0000
1000
0010
0100
0001
1000
0010
0100
,
0001
1000
0010
1000
0010
1000
0001
0100
,
0001
0100
0010
0000
0000
0110
0000
0000
,
1000
0001
1000
0001
2000
0000
0000
0000
0000
0000
0000
0000
0000
0000
0000
0000
,
3010
0200
0000
0302
,
0000
2000
0000
0000
,
3003
0020
0000
0200
,
0330
0000
0000
0000
0011
0000
0000
0101
0000
0000
1001
0000
0000
0101
0000
0000
,
0011
0000
0000
0001
0000
0000
1000
0000
0010
0000
0000
1010
0000
0000
1000
0000
,
0000
0001
0000
0000
0101
0000
0000
0100
0000
0000
0010
0000
0110
0000
0000
1001
,
0000
0000
1000
0000
1100
0000
0000
0010
0000
0000
0001
0000
0010
0000
0100
0000
,
1000
0001
1000
0000
1001
0000
0010
1000
,
0100
1000
0010
0001
0010
1000
0100
1000
,
0010
0100
0001
0000
0100
0101
0000
1000
,
1100
0000
0000
0000
0010
0000
0011
0000
0000
0001
0000
0000
0101
0000
0000
0100
,
0000
0000
0010
0000
1000
0000
0000
1010
0000
0000
1000
0000
0001
0000
0000
0101
,
0000
0001
1000
0100
0010
0001
0010
0100
,
1000
0001
1000
0010
0100
0010
0001
0010
,
0100
0000
0010
0000
1000
0000
0000
1001
0000
0000
0101
0000
0000
1100
0000
0000
,
0001
0010
0000
2002
0000
0000
0000
0000
,
0000
0000
0000
0000
,
0000
3003
0000
0000
;

//---------------dance-single - ----------------
#NOTES:
     dance-single:
     :
     Easy:
     9:
     0.445019,0.609806,0.528829,0.454463,0.016526,377.000000,313.000000,64.000000,55.000000,0.000000,0.000000,0.445019,0.609806,0.528829,0.454463,0.016526,377.000000,313.000000,64.000000,55.000000,0.000000,0.000000:
// measure 0
0000
0000
0000
0000
,  // measure 1
0000
0000
0000
0000
,  // measure 2
0000
0000
0000
0000
,  // measure 3
0000
0000
0000
0000
,  // measure 4
0000
0000
0000
0000
,  // measure 5
0000
0000
0000
0000
,  // measure 6
2002
3003
0202
0303
,  // measure 7
0022
0033
2200
3300
,  // measure 8
0011
1100
0110
1001
,  // measure 9
0000
0000
0010
0000
1010
0000
0001
0100
,  // measure 10
0010
0000
1000
0000
1001
0000
1000
0100
,  // measure 11
0010
0001
0100
0000
0100
0000
0001
0100
,  // measure 12
0010
0000
1000
0000
1000
0000
0001
0010
,  // measure 13
0001
0100
0001
0000
1001
0000
0010
1000
,  // measure 14
0100
0000
0010
0000
0011
0000
0001
0100
,  // measure 15
0010
1000
0001
0000
0001
0000
1000
0100
,  // measure 16
0010
0000
0001
0100
0001
0100
0001
0100
,  // measure 17
0001
1000
1001
0010
,  // measure 18
0110
0000
1000
0000
1100
0000
0001
0100
,  // measure 19
0001
0010
0011
1000
,  // measure 20
1010
0000
1000
0000
1100
0000
0001
0100
,  // measure 21
0010
1000
0011
1000
,  // measure 22
0101
0000
1000
0000
1001
0000
0010
0100
,  // measure 23
0001
0001
1010
0001
,  // measure 24
1100
0220
0000
0000
,  // measure 25
0330
0000
0001
0000
0100
0000
1000
0001
,  // measure 26
1000
0000
0010
1000
0010
0000
1000
0000
,  // measure 27
0100
0000
0010
0000
0001
0000
1000
0100
,  // measure 28
1000
0000
0010
0000
0100
0000
0001
1000
,  // measure 29
0001
0000
1000
0000
0100
0000
0010
0001
,  // measure 30
0010
0000
0001
0000
0100
0000
0010
1000
,  // measure 31
0010
1000
0010
0001
,  // measure 32
0100
0000
1000
0000
0010
0000
0100
0010
,  // measure 33
0100
0002
0103
2000
,  // measure 34
3010
0020
0130
0200
,  // measure 35
0301
0002
1003
2000
,  // measure 36
3010
0000
0020
0000
0130
0000
0001
0100
,  // measure 37
0010
0000
1010
0000
0000
0011
0000
0000
,  // measure 38
1100
0000
0000
0011
0000
0000
1010
0000
,  // measure 39
0000
0002
0100
0100
,  // measure 40
0103
0000
0010
0100
0010
0100
0010
0000
,  // measure 41
1000
2002
0000
0000
,  // measure 42
0000
0000
0000
0000
,  // measure 43
0000
3003
0000
0000
,  // measure 44
0000
0000
0000
0000
,  // measure 45
0000
0020
0000
0000
,  // measure 46
0000
0230
0000
0000
,  // measure 47
0000
0302
0000
2003
,  // measure 48
0000
3010
0100
0001
,  // measure 49
1001
0000
0000
0000
0010
0000
0000
0000
0000
0000
0000
0000
0100
0000
0000
0100
,  // measure 50
0000
0100
0020
0000
0030
0000
2000
0000
,  // measure 51
3000
0000
0000
0000
0001
0000
0000
0000
0000
0000
0000
0000
1000
0000
0000
1000
,  // measure 52
0000
1000
0002
0000
0003
0000
0200
0000
,  // measure 53
0300
0000
0000
0000
0010
0000
0000
0010
0000
0000
0000
0000
0100
0000
0000
0100
,  // measure 54
0000
0001
0010
0100
,  // measure 55
1000
0000
0010
0100
0010
0000
0100
0010
,  // measure 56
0100
0001
0100
0010
,  // measure 57
1000
1001
0000
0000
,  // measure 58
0000
0000
0110
0000
1001
0000
0001
0100
,  // measure 59
0001
0000
1000
0100
1000
0000
0010
0000
,  // measure 60
0110
0000
1001
0000
0110
0000
0010
0100
,  // measure 61
0010
0000
1000
0100
1000
0000
0002
0000
,  // measure 62
0103
0000
1001
0000
0110
0000
0010
1000
,  // measure 63
0010
0000
0100
0010
0100
0000
0001
0010
,  // measure 64
0001
1100
0011
0110
,  // measure 65
1001
0000
0110
0000
0000
1001
0000
0000
,  // measure 66
1100
0000
0011
0000
0101
0000
0001
0100
,  // measure 67
0010
0000
1000
0010
0100
0000
1001
0000
,  // measure 68
0110
0000
1000
0000
0000
0011
0000
0000
,  // measure 69
1010
0000
0000
0011
0000
0000
0110
0000
,  // measure 70
1001
0200
1300
0020
,  // measure 71
0031
2000
3100
0020
,  // measure 72
0031
0200
0010
0010
,  // measure 73
0310
0002
1000
1000
,  // measure 74
1003
0002
0000
0000
,  // measure 75
0003
0200
0000
0020
,  // measure 76
0330
2002
0000
0000
,  // measure 77
3003
2000
0000
0020
,  // measure 78
3030
0002
0000
0000
,  // measure 79
0003
2000
0000
3200
,  // measure 80
0000
0000
0320
0000
0000
0032
0000
0000
,  // measure 81
0203
0020
0330
2002
,  // measure 82
3003
0001
1001
0010
,  // measure 83
1010
0002
0103
2000
,  // measure 84
3100
0000
0010
0000
0000
0101
0000
0000
,  // measure 85
1100
0000
0000
0011
0000
0000
1001
0000
,  // measure 86
0000
0010
0100
0001
,  // measure 87
1000
0000
0010
0100
0010
0000
1000
0000
,  // measure 88
0001
0000
1000
0100
1000
0000
0001
0100
,  // measure 89
0001
0100
0010
1000
,  // measure 90
0001
0000
0000
2002
0000
0000
0000
0000
,  // measure 91
0000
0000
0000
0000
,  // measure 92
0000
3003
0000
0000
;

//---------------dance-single - ----------------
#NOTES:
     dance-single:
     :
     Beginner:
     6:
     0.226641,0.343016,0.074367,0.148733,0.000000,192.000000,183.000000,9.000000,18.000000,0.000000,0.000000,0.226641,0.343016,0.074367,0.148733,0.000000,192.000000,183.000000,9.000000,18.000000,0.000000,0.000000:
// measure 0
0000
0000
0000
0000
,  // measure 1
0000
0000
0000
0000
,  // measure 2
0000
0000
0000
0000
,  // measure 3
0000
0000
0000
0000
,  // measure 4
0000
0000
0000
0000
,  // measure 5
0000
0000
0000
0000
,  // measure 6
0002
0003
2000
3000
,  // measure 7
0002
0003
2000
3000
,  // measure 8
0010
0010
0010
0010
,  // measure 9
0000
0010
0000
0010
,  // measure 10
0000
1000
0000
0001
,  // measure 11
0000
0100
0000
0100
,  // measure 12
0000
0001
0000
1000
,  // measure 13
0000
0001
0000
1000
,  // measure 14
0000
0010
0000
0010
,  // measure 15
0000
1000
0000
0001
,  // measure 16
0000
0100
0000
0100
,  // measure 17
0000
1000
1000
1000
,  // measure 18
0000
0001
0001
0001
,  // measure 19
0000
0010
0010
0010
,  // measure 20
0000
0100
0100
0100
,  // measure 21
0000
1000
0000
0001
,  // measure 22
0000
0100
0000
0010
,  // measure 23
0000
1000
0001
0100
,  // measure 24
0010
0010
0000
0000
,  // measure 25
0000
0001
0000
1000
,  // measure 26
0000
0001
0000
1000
,  // measure 27
1000
1000
0000
0001
,  // measure 28
0000
1000
0000
0001
,  // measure 29
0001
0001
0000
0100
,  // measure 30
0000
0100
0000
0010
,  // measure 31
0010
0010
0000
0001
,  // measure 32
0000
1000
0000
0001
,  // measure 33
0001
0002
0003
2000
,  // measure 34
3000
0002
0003
0001
,  // measure 35
0000
2000
3000
0002
,  // measure 36
0003
2000
3000
1000
,  // measure 37
0000
0110
0000
0000
,  // measure 38
1001
0000
0000
0110
,  // measure 39
0000
0100
0100
0100
,  // measure 40
0000
0010
0010
0010
,  // measure 41
0000
2002
0000
0000
,  // measure 42
0000
0000
0000
0000
,  // measure 43
0000
3003
0000
0000
,  // measure 44
0000
0000
0000
0000
,  // measure 45
0000
0010
0000
0000
,  // measure 46
0000
0001
0000
0000
,  // measure 47
0000
0100
0000
0000
,  // measure 48
0000
1000
0000
0001
,  // measure 49
0000
1000
0000
0001
,  // measure 50
0000
2000
0000
0000
,  // measure 51
3000
0001
0000
1000
,  // measure 52
0000
0002
0000
0000
,  // measure 53
0003
0100
0000
0010
,  // measure 54
0000
0100
0100
0100
,  // measure 55
0000
0010
0010
0010
,  // measure 56
0000
0001
0001
1000
,  // measure 57
1000
1001
0000
0000
,  // measure 58
0000
0010
0000
0001
,  // measure 59
0000
1000
1000
1000
,  // measure 60
0000
0100
0000
1000
,  // measure 61
0000
0001
0001
0001
,  // measure 62
0000
0001
0000
0010
,  // measure 63
0000
0100
0100
0100
,  // measure 64
0000
1000
0000
0100
,  // measure 65
0000
0010
0010
0010
,  // measure 66
0000
0001
0001
0001
,  // measure 67
0000
1000
1000
1000
,  // measure 68
0000
1000
0000
0001
,  // measure 69
0000
1000
0000
0001
,  // measure 70
0000
0100
0000
0010
,  // measure 71
0000
1000
0000
0001
,  // measure 72
0000
0010
0010
0010
,  // measure 73
0000
1000
1000
1000
,  // measure 74
0000
0001
0000
0000
,  // measure 75
0000
0100
0000
0010
,  // measure 76
0000
1000
0000
0000
,  // measure 77
0000
0001
0000
0010
,  // measure 78
0000
0100
0000
0000
,  // measure 79
0000
1000
0000
0001
,  // measure 80
0000
0100
0000
0000
,  // measure 81
0010
0000
0000
2002
,  // measure 82
3003
1000
1000
1000
,  // measure 83
0000
0001
0001
0001
,  // measure 84
0000
0100
0000
0000
,  // measure 85
0110
0000
0000
1001
,  // measure 86
0000
0010
0010
0010
,  // measure 87
0000
0100
0100
0100
,  // measure 88
0000
1000
1000
0001
,  // measure 89
0001
1000
0001
1000
,  // measure 90
0001
0000
0000
2002
0000
0000
0000
0000
,  // measure 91
0000
0000
0000
0000
,  // measure 92
0000
3003
0000
0000
;
