#TITLE:GENE;
#SUBTITLE:-for EXXTREME-;
#ARTIST:VINCENT GANATCH;
#TITLETRANSLIT:;
#SUBTITLETRANSLIT:;
#ARTISTTRANSLIT:;
#GENRE:;
#CREDIT:;
#BANNER:GENE -for EXXTREME-.png;
#BACKGROUND:GENE -for EXXTREME--bg.png;
#LYRICSPATH:;
#CDTITLE:;
#MUSIC:GENE -for EXXTREME-.ogg;
#OFFSET:-8.850999;
#SAMPLESTART:107.501976;
#SAMPLELENGTH:13.251534;
#SELECTABLE:YES;
#DISPLAYBPM:163.000000;
#BPMS:0.000000=163.000000
,44.000000=162.000000
,48.000000=163.000000
,57.000000=163.300003
,72.000000=163.000000
,76.000000=160.000000
,79.000000=163.000000
,172.000000=166.000000
,176.000000=163.000000
,236.000000=160.000000
,239.000000=163.199997
,268.000000=163.000000
,299.000000=166.000000
,299.333344=163.000000
,299.500000=160.000000
,302.500000=163.000000
,310.000000=162.500000
,324.000000=163.000000
;
#STOPS:
;
#BGCHANGES:;
#KEYSOUNDS:;
#ATTACKS:;

//---------------dance-single - ----------------
#NOTES:
     dance-single:
     :
     Hard:
     15:
     0.738511,0.772920,0.445777,0.107849,0.780110,719.000000,657.000000,62.000000,15.000000,0.000000,0.000000,0.738511,0.772920,0.445777,0.107849,0.780110,719.000000,657.000000,62.000000,15.000000,0.000000,0.000000:
0000
0000
0000
0000
,
0000
0000
0000
0000
,
0000
0000
0000
0000
,
0001
0010
0100
1000
0001
0010
0100
1000
,
0001
0010
0100
1000
0001
0010
0100
0010
,
1000
0010
0100
0001
1000
0010
0100
0001
,
1000
0010
0100
0001
1000
0010
0100
0010
,
0001
0010
1000
0010
0001
0010
1000
0100
,
0001
0100
1000
0100
0001
0100
1000
0010
,
0100
0001
1000
0001
0100
0001
1000
0001
,
0010
0100
1000
0001
0010
0100
1000
0001
,
1001
0000
0010
0000
1000
0010
0000
0010
0000
1000
0100
0000
0010
0000
0001
1000
,
0000
0000
0001
0000
0100
0010
0000
0010
0000
1000
0100
0000
1000
0000
0001
0000
,
0100
0000
0010
0000
1000
0010
0000
0010
0000
1000
0100
0000
0010
0000
0001
0100
,
0000
0000
0010
0000
1000
0001
0000
0001
0000
1000
0100
0000
0010
0000
0100
0000
,
1000
0000
0010
0000
1000
0010
0000
0001
0000
1000
0100
0000
0010
0000
0001
0100
,
0000
0000
0010
0000
0100
0001
0000
1000
0000
0000
0001
0000
0010
0000
0100
0000
,
1000
0000
0001
0000
1000
0010
0000
0001
0000
1000
0100
0000
0010
0000
0001
1000
,
0000
0000
0001
0000
1000
0001
0000
0001
0000
1000
0010
0000
0100
0000
0010
0000
,
1010
0000
0000
0000
0101
0000
0000
0000
1100
0000
0000
0000
0011
0000
0000
0101
,
0000
0000
1000
0000
0101
0000
0000
0000
0011
0000
0000
0000
0100
0000
0010
1000
,
0020
0000
0000
0000
0130
0000
0001
0100
0020
0000
0000
0000
1030
0000
0010
1000
,
0100
0000
1000
0000
1001
0000
0100
0001
0100
0000
0010
1000
0010
0000
1000
0000
,
1100
0000
0000
0000
0101
0000
0000
0000
0011
0000
0000
0000
0110
0000
0000
0110
,
0000
0000
1000
0000
0101
0000
0000
0000
0011
0000
0000
0000
1010
0000
0010
1000
,
0002
0000
0000
0000
0103
0000
0010
1000
0020
0000
0000
0000
0130
0000
0001
0100
,
0010
0000
1000
0000
1001
0000
1000
0100
0010
0000
0000
0000
1001
0000
0000
0000
,
0010
0000
0010
1000
0000
0001
1000
0000
0100
0000
0100
1000
0000
0001
1000
0000
,
0010
0000
0010
1000
0000
0001
1000
0000
0100
0000
0100
0000
1000
0010
0100
0010
,
0100
0000
0001
1000
0000
1000
0001
0000
0100
0000
0001
1000
0000
1000
0001
1000
,
0010
0000
0010
1000
0000
0001
1000
0000
0001
0100
0000
0100
0001
1000
0001
1000
,
0001
0000
1000
0100
0000
0100
1000
0000
0001
0000
0010
0001
0000
0001
0010
0000
,
1000
0000
0010
0100
0000
0100
0010
0000
1000
0001
0000
0001
0100
0001
0100
0010
,
1000
0000
0010
0100
0000
0100
0010
0000
1000
0001
0000
0001
0100
0000
0010
0000
,
1000
0000
0001
0010
0000
0010
0001
0000
1000
0100
0000
0010
0001
0000
0100
0000
,
0001
0000
1000
0001
0000
0001
1000
0000
0010
0000
1000
0001
0000
0001
1000
0000
,
0100
0000
1000
0001
0000
0001
1000
0000
0001
0010
0000
0100
1000
0000
0010
0000
,
1000
0000
0001
0010
0000
0010
0001
0000
0100
0000
0001
0010
0000
0010
0001
0000
,
1000
0000
0001
0100
0000
0100
0001
0000
1000
0001
0000
0001
1000
0010
1000
0010
,
1000
0000
0001
0010
0000
0010
0001
0000
1000
0000
0010
0100
0000
0100
0010
0000
,
1000
0000
0001
0010
0000
0010
0001
0000
1000
0100
0000
0010
0001
0000
0100
0000
,
0010
0000
0010
1000
0000
1000
0010
0000
0100
0000
0001
0100
0000
0100
0001
0000
,
1000
0000
0001
0010
0000
0010
0100
0000
0001
0010
0100
1000
0001
0010
0100
1000
,
0001
0000
1000
0010
0000
0010
0000
0001
1000
0000
0001
0010
0000
0010
0001
0010
,
0001
0000
0000
0110
0000
0000
1010
0000
0000
0101
0000
0000
1000
0000
0100
0000
,
0010
0000
0001
0100
0000
0100
0000
0010
1000
0000
0010
0100
0000
0100
0001
1000
,
0001
0000
0000
1010
0000
0000
0101
0000
0000
1100
0000
0000
0010
0000
0001
0000
,
0100
0000
0010
1000
0000
1000
0100
1000
0100
0000
0010
0001
0000
0100
0001
0100
,
0001
0000
0000
0101
0000
0000
1100
0000
0000
0101
0000
0000
0100
0000
0010
0000
,
1000
0000
0001
0010
0000
0010
0001
0100
0001
0000
0010
0001
0000
1000
0010
1000
,
0100
0000
0000
1100
0000
0000
0110
0000
0000
0011
0000
0000
0100
0000
0110
0000
,
2002
0000
0000
0000
,
0000
0003
3020
0230
,
0002
0000
0000
0000
,
0000
0000
0000
0000
0000
0000
0000
0000
0303
0000
0000
0000
0000
0000
0100
0010
,
0200
0000
0000
0000
,
0000
0000
0302
2003
,
0020
0000
0000
0000
0000
0000
0000
0000
3000
0000
0000
0000
0030
0000
0100
0010
,
0200
0000
0000
0300
,
1001
0000
0110
0000
0011
0000
1100
1100
,
0000
0011
0011
0000
0100
0110
0110
0000
,
0101
0000
1010
0000
0101
0000
0110
0110
,
0000
1001
1001
0000
1000
1100
1100
0000
,
0011
0000
0101
0000
1001
0000
0100
0110
,
0000
0010
0110
0000
0001
0010
0011
0000
,
1100
0000
0101
0000
1100
0000
0010
0110
,
0000
1000
1001
0000
0001
0100
0010
1000
,
0001
0000
0100
0001
0000
0001
0100
0000
0001
0000
1000
0000
0100
0000
0010
0000
,
0001
0000
1000
0100
0000
0100
1000
0000
0001
0000
0100
0000
0010
1000
0010
1000
,
0010
0000
0010
0100
0000
0100
0001
0000
1000
0000
0100
0000
0010
0000
0001
0000
,
1000
0000
0010
1000
0000
1000
0010
0000
0100
0001
0000
0001
0010
0001
0010
0000
,
0001
0000
1000
0100
0000
0100
1000
0000
0010
0000
1000
0100
0000
0100
1000
0000
,
0001
0000
0100
0010
0000
0010
0100
0000
0001
0000
1000
0000
0010
0100
0010
0100
,
0010
0000
1000
0100
0000
0010
0001
0000
0100
0000
0010
1000
0000
1000
0010
1000
,
0010
0000
0100
0001
0000
1000
0010
0000
1000
0000
0100
0000
0010
0001
0100
0000
,
0001
0100
0001
0100
0010
1000
0010
1000
0000
0000
0001
0010
0000
0010
0001
0000
,
1000
0000
0010
0000
0100
0001
0000
1000
0000
0000
0010
0100
0010
0100
0010
0000
,
1000
0100
1000
0100
0010
0001
0010
0001
0000
0000
1000
0010
0000
0010
1000
0000
,
0001
0000
0100
0000
0010
0100
0000
0100
0000
0000
0001
1000
0001
1000
0001
0000
,
1000
0010
1000
0010
0100
0001
0100
0001
0000
0000
1000
0001
0000
0001
1000
0000
,
0010
0000
0100
0000
0001
0010
0000
0010
0000
0000
1000
0100
0000
0100
1000
0000
,
0001
0010
0001
0010
0100
1000
0100
1000
0000
0000
0010
0100
0000
0100
0010
0000
,
1000
0000
0001
0100
0000
0010
0000
1000
0000
0001
0010
0001
1000
0100
0010
0001
,
2000
0000
0000
0000
,
0000
0000
0000
0000
,
0000
0000
0000
0000
,
3000
0000
0000
0000
;

//---------------dance-double - ----------------
#NOTES:
     dance-double:
     :
     Hard:
     15:
     0.690235,0.772920,0.309168,0.309168,0.672260,672.000000,629.000000,43.000000,43.000000,0.000000,0.000000,0.690235,0.772920,0.309168,0.309168,0.672260,672.000000,629.000000,43.000000,43.000000,0.000000,0.000000:
00000000
00000000
00000000
00000000
,
00000000
00000000
00000000
00000000
,
00000000
00000000
00000000
00000000
,
20000000
32000000
03200000
00302000
,
00023000
00030020
00000230
00000302
,
00002003
00003200
00020300
00032000
,
02003000
03020000
00230000
20300000
,
32000000
03020000
00032000
00003020
,
00000032
00000203
00002300
00023000
,
00230000
02300000
23000000
30200000
,
02300000
03002000
00023000
00031000
,
00010000
00000000
00000100
00000000
00001000
00000100
00000000
00000010
00000000
00000001
00000010
00000000
00000100
00000000
00010000
00000000
,
00001000
00000000
01000000
00000000
00010000
00100000
00000000
01000000
00000000
10000000
01000000
00000000
00100000
00000000
00010000
00000000
,
01000000
00000000
00001000
00000000
00010000
00000010
00000000
00000100
00000000
00000010
00001000
00000000
00000100
00000000
00010000
00000000
,
00001000
00000000
01000000
00000000
00010000
10000000
00000000
00100000
00000000
10000000
00010000
00000000
00100000
00000000
00001000
00000000
,
00010000
00000000
00000100
00000000
00001000
00000100
00000000
00000010
00000000
00000001
00000010
00000000
00000100
00000000
00001000
00000000
,
00010000
00000000
00001000
00000000
00100000
00010000
00000000
01000000
00000000
00100000
10000000
00000000
01000000
00000000
00100000
00000000
,
00001000
00000000
00010000
00000000
00000100
00001000
00000000
00010000
00000000
00001000
00000100
00000000
00010000
00000000
00001000
00000000
,
00010000
00000000
00001000
00000000
00100000
00010000
00000000
01000000
00000000
00010000
00100000
00000000
00001000
00000000
00010000
00000000
,
00011000
00000000
00000000
00000000
10010000
00000000
00000000
00000000
11000000
00000000
00000000
00000000
01010000
00000000
00000000
10010000
,
00000000
00000000
01010000
00000000
01010000
00000000
00000000
00000000
00011000
00000000
00000000
00000000
00001000
00000100
00000010
00000100
,
00002000
00000000
00000000
00000000
00003010
00000000
00000100
00000001
00000200
00000000
00000000
00000000
00000310
00000000
00001000
00000100
,
00000000
00000100
00010000
00000000
00001000
00000000
00100000
00010000
00100000
00000000
00010000
00000000
01000000
00000000
00100000
00000000
,
10010000
00000000
00000000
00000000
00011000
00000000
00000000
00000000
00001100
00000000
00000000
00000000
00000101
00000000
00000000
00000101
,
00000000
00000000
00001000
00000000
00001100
00000000
00000000
00000000
00011000
00000000
00000000
00000000
00100000
00000000
00010000
01000000
,
00020000
00000000
00000000
00000000
10030000
00000000
00100000
01000000
00200000
00000000
00000000
00000000
10300000
00000000
10000000
00010000
,
10000000
00000000
00010000
00100000
00010000
00000000
00100000
00000000
00001000
00000000
00000000
00000000
00011000
00000000
00000000
00000000
,
00001000
00100000
00010000
10000000
01000000
00100000
01000000
10000000
,
00001000
00010000
00000100
00001000
00000100
00000010
00000100
00010000
,
00001000
01000000
00010000
00100000
01000000
00100000
00010000
01000000
,
00001000
00010000
00000100
00000010
00000001
00000010
00000100
00010000
,
00001000
00000000
00100000
00000000
00010000
00000000
01000000
00000000
00010000
00000000
10000000
00100000
00000000
00100000
10000000
00000000
,
00010000
00000000
00100000
00000000
00001000
00000000
00010000
00000000
00000100
00001000
00000000
00001000
00000100
00000000
00000010
00000000
,
00000001
00000000
00000100
00000010
00000000
00000010
00000100
00000000
00000001
00000000
00001000
00000000
00000100
00000000
00010000
00000000
,
00001000
00000000
01000000
00100000
00000000
00100000
01000000
00000000
00010000
00000000
10000000
00000000
01000000
00000000
00100000
00000000
,
00001000
00000000
00010000
00000100
00000000
00000100
00001000
00000000
00000010
00000000
00000001
00000000
00000010
00000000
00001000
00000000
,
00000100
00000000
00010000
00001000
00000000
00001000
00100000
00000000
00010000
00000000
00100000
00000000
10000000
00000000
00100000
00000000
,
00010000
00000000
01000000
00001000
00000000
00001000
00010000
00000000
00000100
00000000
00010000
00000000
01000000
00000000
00100000
00000000
,
00010000
00000000
00100000
00001000
00000000
00001000
00100000
00000000
01000000
00000000
00100000
00000000
00001000
00000000
00100000
00000000
,
01000000
00000000
00100000
00010000
00000000
00010000
01000000
00000000
00100000
00000000
10000000
00000000
00100000
00000000
00010000
00000000
,
00100000
00000000
00001000
00010000
00000000
00010000
00001000
00000000
00010000
00000000
00000100
00000000
00001000
00000000
00000100
00000000
,
00010000
00000000
00000010
00001000
00000000
00001000
00000010
00000000
00000100
00000000
00000001
00001000
00000000
00000001
00001000
00000001
,
00001000
00000000
00000100
00000010
00000000
00000001
00001000
00000000
00000010
00001000
00000000
00001000
00000100
00000000
00010000
00000000
,
00001000
00000000
00010000
00001000
00000000
00101000
00000000
00000000
00100000
00000000
00010000
01000000
00000000
01100000
00000000
00000000
,
11000000
00000000
00000000
01100000
00000000
00000000
00110000
00000000
00000000
00011000
00000000
00000000
00010000
00000000
00000010
00000000
,
00001000
00000000
00000001
00000100
00000000
00000101
00000000
00000000
00001000
00000000
00000100
00010000
00000000
00010100
00000000
00000000
,
00011000
00000000
00000000
00001010
00000000
00000000
00000101
00000000
00000000
00001010
00000000
00000000
00001100
00000000
00000100
00000000
,
00010000
00000000
00001000
00100000
00000000
00100000
00010000
00000000
01000000
00000000
00100000
10000000
00000000
10000000
00010000
00000000
,
10000000
00000000
00000000
10010000
00000000
00000000
00110000
00000000
00000000
00011000
00000000
00000000
00000100
00000000
00010000
00000000
,
00001000
00000000
00010000
00000100
00000000
00000100
00000000
00000100
00001000
00000000
00000010
00000100
00000000
00000100
00000001
00001000
,
00000001
00000000
00000000
00000101
00000000
00000000
00001100
00000000
00000000
00000101
00000000
00000000
00001000
00000000
00000100
00000000
,
00001000
00000100
00000010
00000001
00000010
00000100
00001000
00000100
00000010
00000001
00000010
00000100
,
00001000
00000100
00000010
00000001
00000010
00000100
00002000
00000000
00000000
00003020
00000000
00000000
,
00010030
00001000
00100000
00010000
00100000
00001000
00010000
00001000
00100000
00010000
00100000
00001000
,
00010000
00000000
00000000
00000000
00001000
00000000
00000000
00000000
00100000
00000000
00000000
00000000
00010000
00000000
00000000
00000000
00100000
00000000
00000000
00000000
00010000
00000000
00000000
00000000
01000000
00000000
00000000
00000000
00010000
00000000
00000000
00000000
00100000
00000000
00000000
00000000
00010000
00000000
00000000
00000000
00000000
00000000
01000000
00000000
00000000
00100000
00000000
00000000
,
10000000
00100000
01000000
00010000
01000000
00100000
10000000
00100000
01000000
00010000
00100000
01000000
,
00100000
00010000
00100000
01000000
00100000
00001000
00020000
00000000
00000000
00030200
00000000
00000000
,
00001300
00000100
00000010
00000001
00000010
00000100
00001000
00000100
00000010
00000001
00000010
00000100
,
00002000
00000000
00000000
00003000
,
00001000
00000100
00010000
00000000
00011000
00000000
00100000
00010000
,
00000000
01010000
00000000
11000000
00000000
00100000
00001000
00010000
,
00000100
00001000
00000010
00000000
00000100
00000000
00000001
00002000
,
00000000
00000100
00000000
00003010
00001000
00000100
00000010
00000001
,
00001000
00000100
00010000
00000000
00011000
00000000
00100000
00010000
,
00000000
01010000
00000000
11000000
00000000
00010000
01000000
00100000
,
10000000
01000000
00100000
00000000
00101000
00000000
00010000
00002000
,
00000000
00000000
00013000
00000000
00001000
00000000
00010000
00000000
00001000
00010000
00001000
00010000
00001000
00010000
00001000
00000000
,
00100000
00000000
00010000
01000000
00000000
01000000
00000000
00000000
00100000
00000000
10000000
01000000
00000000
01000000
00000000
00000000
,
00100000
00000000
00001000
00010000
00000000
00010000
00000000
00000000
00000100
00000000
00001000
00000000
00000010
00000000
00001000
00000000
,
00000100
00000000
00000010
00000001
00000000
00000001
00000000
00000000
00001000
00000000
00000100
00010000
00000000
00010000
00000000
00000000
,
00001000
00000000
00100000
00010000
00000000
00010000
00000000
00000000
01000000
00000000
00100000
00000000
10000000
00100000
10000000
00000000
,
00010000
00000000
00100000
01000000
00000000
01000000
00000000
00000000
10000000
00000000
01000000
00100000
00000000
00100000
00000000
00000000
,
00001000
00000000
00010000
00000100
00000000
00000100
00000000
00000000
00001000
00000000
00000100
00000000
00000010
00000001
00000010
00000000
,
00001000
00000000
00000100
00010000
00000000
00010000
00000000
00000000
00001000
00000000
00100000
00010000
00000000
00010000
00000000
00000000
,
01000000
00000000
00100000
01000000
00000000
01000000
00100000
00000000
10000000
00000000
00010000
00000000
10010000
00000000
00000000
00000000
,
00100000
00000000
10000000
00000000
01000000
00000000
00100000
00000000
00010000
00000000
00001000
00010000
00000000
00010000
00001000
00000000
,
00010000
00000000
00000010
00000000
00001000
00000001
00000000
00000001
00000000
00000000
00000100
00000000
00000010
00000000
00000001
00000000
,
00000010
00000000
00000100
00000000
00001000
00000000
00010000
00000000
00001000
00000000
00100000
00010000
00000000
00010000
00100000
00000000
,
00001000
00000000
01000000
00000000
00100000
10000000
00000000
10000000
00000000
00000000
01000000
00000000
00100000
00000000
00010000
00000000
,
00001000
00000000
00010000
00000000
00100000
00000000
00010000
00000000
01000000
00000000
00100000
01000000
00000000
01000000
00100000
00000000
,
10000000
00000000
00010000
00000000
00100000
00001000
00000000
00001000
00000000
00000000
00010000
00000000
00000100
00000000
00001000
00000000
,
00000010
00000100
00000001
00001000
00000100
00010000
00001000
01000000
,
00100000
10000000
00100000
10000000
00000000
00010000
00000000
00100000
00000000
00001000
00010000
00001000
00100000
00010000
10000000
01000000
,
00200000
00000000
00000000
00000000
,
00000000
00000000
00000000
00000000
,
00000000
00000000
00000000
00000000
,
00300000
00000000
00000000
00000000
;

//---------------dance-double - ----------------
#NOTES:
     dance-double:
     :
     Medium:
     10:
     0.487890,0.556502,0.330738,0.309168,0.057520,475.000000,429.000000,46.000000,43.000000,0.000000,0.000000,0.487890,0.556502,0.330738,0.309168,0.057520,475.000000,429.000000,46.000000,43.000000,0.000000,0.000000:
00000000
00000000
00000000
00000000
,
00000000
00000000
00000000
00000000
,
00000000
00000000
00000000
00000000
,
20000000
32000000
03200000
02300000
,
23000000
32000000
03200000
00320000
,
00032000
00023000
00230000
02300000
,
03200000
00320000
00032000
00023000
,
00030020
00002030
00003200
00000302
,
00000203
00002300
00003020
00002030
,
00003200
00002300
00023000
00032000
,
00003200
00000320
00000031
00001001
,
00000011
00000000
00000000
00000000
00000101
00000000
00000000
00000000
00001001
00000000
00000000
00000000
00000100
00000000
00000000
00000100
,
00000000
00010000
00001000
00000000
00011000
00000000
00101000
00000000
,
00110000
00000000
00000000
00000000
01010000
00000000
00000000
00000000
10010000
00000000
00000000
00000000
00100000
00000000
00000000
00100000
,
00000000
00001000
00010000
00000000
00011000
00000000
00010100
00000000
,
00001100
00000000
00000000
00000000
00001010
00000000
00000000
00000000
00001001
00000000
00000000
00000000
00001000
00000000
00000000
00001000
,
00000000
00000100
00010000
00000000
00011000
00000000
00101000
00000000
,
00110000
00000000
00000000
00000000
10010000
00000000
00000000
00000000
01010000
00000000
00000000
00000000
10000000
00000000
00000000
10000000
,
00000000
00010000
00100000
00000000
00110000
00000000
11000000
00000000
,
00100000
00000000
10000000
00000000
00010000
00000000
00000000
00000000
00100000
00000000
00001000
00000000
00010000
00000000
00000000
00011000
,
00000000
00010000
00000100
00000000
00001000
00000100
00000010
00000000
,
00000001
00000000
00000010
00000000
00000100
00000000
00000000
00000000
00001000
00000000
00000100
00000000
00010000
00000000
00000000
00011000
,
00000000
00001000
00100000
00000000
00010000
00100000
01000000
00000000
,
10000000
00000000
01000000
00000000
10000000
00000000
01000000
00000000
00100000
00000000
00010000
00000000
00100000
00000000
00000000
00110000
,
00000000
00010000
01000000
00000000
00001000
00010000
00000100
00000000
,
00001000
00000000
00000100
00000000
00000010
00000000
00000100
00000000
00001000
00000000
00000001
00000000
00000100
00000000
00000000
00000101
,
00000000
00001000
00000100
00000000
00010000
00001000
00011000
00000000
,
00100000
00010000
01000000
00010000
00100000
00010000
01000000
00010000
,
00100000
01000000
10000000
01000000
00100000
01000000
10000000
01000000
,
00100000
00001000
00010000
00001000
00100000
00001000
00010000
00000010
,
00001000
00000001
00001000
00000100
00001000
00000001
00000010
00000100
,
00001000
00000100
00010000
00000100
00001000
00000100
00010000
00001000
,
00100000
00010000
01000000
00010000
00100000
00010000
00100000
01000000
,
10000000
00100000
10000000
01000000
10000000
00100000
01000000
00001000
,
00010000
00000100
00010000
00001000
00010000
00001000
00011000
00000000
,
00100000
00010000
01000000
10000000
01000000
00010000
00100000
00001000
,
00100000
00010000
00100000
00001000
00010000
00001000
00010000
00000100
,
00000010
00000001
00000100
00001000
00000100
00000001
00000010
00000100
,
00001000
00000100
00010000
00001000
00010000
00001000
01000000
00010000
,
10000000
00100000
00010000
00100000
10000000
01000000
00100000
00010000
,
00001000
00010000
00100000
01000000
10000000
00100000
01000000
00010000
,
00100000
00001000
00010000
00000000
00000100
00001000
00000010
00000000
,
00000001
00000010
00000100
00000000
00010000
00001000
01000000
00000000
,
10000000
11000000
00010000
01010000
,
10000000
00000000
00000000
01000000
00000000
00000000
00010000
00000000
00000000
00000100
00000000
00000000
00001000
00000000
00000100
00000000
,
00000010
00000011
00001000
00001100
,
00010000
00000000
00000000
00001000
00000000
00000000
00010000
00000000
00000000
01000000
00000000
00000000
10000000
00000000
01000000
00000000
,
00100000
00110000
00011000
00001100
,
00010000
00000000
00000000
00001000
00000000
00000000
00010000
00000000
00000000
01000000
00000000
00000000
10000000
00000000
01000000
00000000
,
00100000
00110000
00001000
00011000
,
00100000
00000000
00000000
00010000
00000000
00000000
00000100
00000000
00000000
00000010
00000000
00000000
00000001
00000000
00000100
00000000
,
00000020
00000000
00000000
00000000
,
00000000
00000000
00000230
00000302
,
00002000
00000000
00000000
00000000
,
00000000
00000000
00003003
00000000
,
00022000
00000000
00000000
00000000
,
00030000
00000000
00203000
00320000
,
02030000
00000000
00000000
00000000
,
00200000
00000000
03300000
00000000
,
10000000
00000000
00010000
00000000
00100000
00000000
00010000
10000000
,
00000000
00010000
00000000
00100000
00000000
00001000
00010000
00000000
,
00000010
00000000
00001000
00000000
00000100
00000000
00000010
00000002
,
00000000
00001003
00000100
00010000
,
00001000
00000000
01000000
00000000
00100000
00000000
10000000
01000000
,
00000000
00100000
00000000
00001000
00000000
00010000
00001000
00000000
,
00010000
00000000
00000100
00000000
00001000
00000000
00000010
00000100
,
00000000
00000001
00000100
00001000
,
00000001
00000100
00000001
00000100
00001000
00000100
00001000
00000100
,
00000001
00000100
00000001
00001000
00000100
00000000
00010000
00000000
,
00001000
00100000
00001000
00100000
00010000
01000000
00010000
01000000
,
10000000
01000000
10000000
01000000
00010000
00000000
01010000
00000000
,
00100000
00001000
00100000
00001000
00010000
00000000
00001100
00000000
,
00000010
00001000
00000010
00001000
00000100
00000000
00011000
00000000
,
00100000
00010000
00100000
00010000
10000000
01000000
10000000
01000000
,
00100000
00010000
00100000
00010000
01000000
00000000
01010000
00000000
,
10000000
01000000
00100000
00010000
01000000
01000000
01000000
00000000
,
00001000
00010000
00001000
00000000
00010000
00000000
00001100
00000000
,
00000001
00000010
00000100
00001000
00000010
00000010
00000010
00000000
,
00001000
00000100
00001000
00000000
00001100
00000000
00011000
00000000
,
00010000
00100000
01000000
10000000
00100000
00100000
00100000
00000000
,
10000000
01000000
00100000
00010000
01000000
00000000
00101000
00000000
,
00010000
00000100
00001000
00000000
00010000
00001000
00100000
00000000
,
00010000
00100000
01000000
10000000
01000000
00100000
00010000
00000000
,
00022000
00000000
00000000
00000000
,
00000000
00000000
00000000
00000000
,
00000000
00000000
00000000
00000000
,
00033000
00000000
00000000
00000000
;

//---------------dance-single - ----------------
#NOTES:
     dance-single:
     :
     Medium:
     10:
     0.495080,0.556502,0.388257,0.309168,0.057520,482.000000,428.000000,54.000000,43.000000,0.000000,0.000000,0.495080,0.556502,0.388257,0.309168,0.057520,482.000000,428.000000,54.000000,43.000000,0.000000,0.000000:
0000
0000
0000
0000
,
0000
0000
0000
0000
,
0000
0000
0000
0000
,
0002
0023
0230
2300
,
3002
0023
0230
0320
,
0032
2003
3200
0320
,
0032
2003
3020
0230
,
0302
0023
0230
2300
,
3002
0023
0032
2003
,
3200
2300
3020
0230
,
0320
2030
3001
1001
,
0011
0000
0000
0000
0101
0000
0000
0000
1001
0000
0000
0000
0010
0000
0000
0010
,
0000
1000
0001
0000
1001
0000
0110
0000
,
1001
0000
0000
0000
0101
0000
0000
0000
1001
0000
0000
0000
0010
0000
0000
0010
,
0000
1000
0001
0000
0101
0000
1010
0000
,
0110
0000
0000
0000
1001
0000
0000
0000
0011
0000
0000
0000
0010
0000
0000
0010
,
0000
1000
0001
0000
0101
0000
1010
0000
,
0011
0000
0000
0000
1001
0000
0000
0000
0101
0000
0000
0000
1000
0000
0000
1000
,
0000
0001
0010
0000
0011
0000
1100
0000
,
0010
0000
1000
0000
0001
0000
0000
0000
0010
0000
0001
0000
1000
0000
0000
1001
,
0000
0001
0100
0000
0001
0010
0100
1000
,
0100
0000
0010
0000
0001
0000
0000
0000
0100
0000
0001
0000
1000
0000
0000
1001
,
0000
0001
0100
0010
1000
0010
0100
0010
,
1000
0000
0100
0000
1000
0000
0100
0000
0010
0000
0001
0000
0010
0000
0000
0011
,
0000
0001
0100
0001
1000
0010
1000
0100
,
0010
0000
0100
0000
1000
0000
0001
0000
0100
0000
0010
0000
0100
0000
0000
0101
,
0000
1000
0100
0010
0001
1000
1001
0000
,
0010
0001
0100
0001
0010
0001
0100
0001
,
0010
0100
1000
0100
0010
0100
1000
0100
,
0010
0001
0100
0001
0010
0001
0100
0001
,
0010
0100
1000
0100
0010
0010
0100
0001
,
1000
0100
0010
0100
1000
0100
0010
0001
,
0010
0001
0100
0001
0010
0001
0010
0100
,
1000
0010
1000
0100
1000
0010
0100
0010
,
1000
0010
0100
0000
0001
0010
0100
0000
,
0010
0001
0100
1000
0100
0001
0010
0000
,
0010
0001
0010
0000
1001
0000
0110
0000
,
0010
1000
0100
0001
0100
1000
0010
0000
,
1000
0100
0010
0000
0011
0000
1100
0000
,
1000
0010
0001
0000
1000
0100
0001
0000
,
0001
0010
0100
1000
0010
0100
0010
0000
,
0010
0010
0010
0000
0100
0100
0100
0000
,
0001
1000
0100
0010
0001
0000
0110
0000
,
1000
1100
0001
0101
,
1000
0000
0000
0100
0000
0000
0001
0000
0000
0010
0000
0000
1000
0000
0100
0000
,
0010
0011
1000
1100
,
0001
0000
0000
0100
0000
0000
1000
0000
0000
0010
0000
0000
0001
0000
0100
0000
,
0010
0011
1000
1001
,
0010
0000
0000
1000
0000
0000
0100
0000
0000
0001
0000
0000
0010
0000
0100
0000
,
0010
0011
0100
0110
,
0010
0000
0000
0001
0000
0000
0100
0000
0000
1000
0000
0000
0010
0000
0100
0000
,
0002
0000
0000
0000
,
0000
0000
0203
0320
,
2000
0000
0000
0000
,
0000
0000
3030
0000
,
2002
0000
0000
0000
,
0000
3000
0023
0032
,
0203
0000
0000
0000
,
0020
0000
0330
0000
,
1000
0000
0001
0000
0010
0000
0001
1000
,
0000
0001
0000
0010
0000
1000
0001
0000
,
0100
0000
0010
0000
0001
0000
0100
0020
,
0000
0130
1000
0001
,
0010
0000
0100
0000
0010
0000
1000
0100
,
0000
0010
0000
1001
0000
0001
0100
0000
,
1001
0000
0110
0000
1001
0000
0100
0010
,
0000
1100
0011
0110
,
1000
0100
1000
0100
0001
0100
0001
0100
,
1000
0100
1000
0100
0010
0000
1001
0000
,
1000
0010
1000
0010
0100
0001
0100
0001
,
1000
0100
1000
0100
0010
0001
0100
0000
,
0010
0100
0010
0100
0001
1000
0001
1000
,
0010
0100
0010
0100
0010
0010
0010
0000
,
1000
0010
1000
0010
1000
0100
1000
0100
,
0010
0001
0010
0001
0100
0000
0101
0000
,
1000
0100
0010
0001
0100
0100
0100
0000
,
1000
0100
0001
0000
0110
0000
1001
0000
,
0001
0010
0100
1000
0010
0010
0010
0000
,
0001
0010
1000
0000
0010
0000
0110
0000
,
1000
0010
0100
0001
0010
0010
0010
0000
,
1000
0100
0010
0001
0100
0100
0100
0000
,
0001
0010
0100
0010
0001
0010
0100
0000
,
1000
0100
0010
0001
0100
0000
1001
0000
,
0220
0000
0000
0000
,
0000
0000
0000
0000
,
0000
0000
0000
0000
,
0330
0000
0000
0000
;

//---------------dance-double - ----------------
#NOTES:
     dance-double:
     :
     Easy:
     7:
     0.287598,0.556502,0.280408,0.158179,0.000000,280.000000,241.000000,39.000000,22.000000,0.000000,0.000000,0.287598,0.556502,0.280408,0.158179,0.000000,280.000000,241.000000,39.000000,22.000000,0.000000,0.000000:
// measure 0
00000000
00000000
00000000
00000000
,  // measure 1
00000000
00000000
00000000
00000000
,  // measure 2
00000000
00000000
00000000
00000000
,  // measure 3
00020000
00000000
00000000
00000000
,  // measure 4
00230000
00000000
00000000
00000000
,  // measure 5
02300000
00000000
00000000
00000000
,  // measure 6
13000000
00000000
00010000
00000000
,  // measure 7
00200000
00000000
00000000
00000000
,  // measure 8
00302000
00000000
00000000
00000000
,  // measure 9
00023000
00000000
00000000
00000000
,  // measure 10
00030100
00000000
00001000
00000000
,  // measure 11
00000001
00000010
00000100
00000000
,  // measure 12
00010000
00100000
01000000
00000000
,  // measure 13
10000000
01000000
00100000
00000000
,  // measure 14
00001000
00000100
00000010
00000000
,  // measure 15
00000001
00000100
00001000
00000000
,  // measure 16
00010000
01000000
10000000
00000000
,  // measure 17
10000000
00100000
00010000
00000000
,  // measure 18
00001000
00000010
00000001
00000000
,  // measure 19
00001100
00001100
00001100
00001100
,  // measure 20
00000101
00000101
00000101
00000101
,  // measure 21
00000011
00000011
00001010
00001010
,  // measure 22
00001100
00001100
00011000
00011000
,  // measure 23
00110000
00110000
00110000
00110000
,  // measure 24
01010000
01010000
01010000
01010000
,  // measure 25
11000000
11000000
10100000
10100000
,  // measure 26
01100000
01100000
02200000
03300000
,  // measure 27
00100000
00100000
10000000
01000000
,  // measure 28
00100000
00100000
00001000
00010000
,  // measure 29
00000010
00000010
00001000
00000100
,  // measure 30
00000010
00000010
00010000
00001000
,  // measure 31
01000000
01000000
00010000
00100000
,  // measure 32
01000000
01000000
10000000
00100000
,  // measure 33
01000000
00010000
00100000
10000000
,  // measure 34
01000000
00010000
00001000
00011000
,  // measure 35
00010000
00000100
00010000
00000100
,  // measure 36
00001000
00000100
00000010
00000001
,  // measure 37
00000100
00001000
00000100
00000001
,  // measure 38
00001000
00000100
00010000
00001000
,  // measure 39
00100000
00010000
00100000
00010000
,  // measure 40
10000000
01000000
00100000
00010000
,  // measure 41
00100000
00100000
00001000
00001000
,  // measure 42
00010000
00000100
00001000
00000010
,  // measure 43
00000200
00000300
00000020
00000030
,  // measure 44
00000001
00000010
00000100
00001000
,  // measure 45
00000200
00000300
00020000
00030000
,  // measure 46
00001000
00100000
00010000
01000000
,  // measure 47
00200000
00300000
02000000
03000000
,  // measure 48
10000000
01000000
00100000
00010000
,  // measure 49
02000000
03000000
00002000
00003000
,  // measure 50
00010000
00000010
00000100
00001000
,  // measure 51
00000002
00000000
00000000
00000000
,  // measure 52
00000000
00000000
00000003
00000000
,  // measure 53
00002000
00000000
00000000
00000000
,  // measure 54
00000000
00000000
00003000
00000000
,  // measure 55
00020000
00000000
00000000
00000000
,  // measure 56
00000000
00000000
00030000
00000000
,  // measure 57
20000000
00000000
00000000
00000000
,  // measure 58
00000000
00000000
30000000
00000000
,  // measure 59
00100000
00000000
00100000
00000000
,  // measure 60
00100000
00000000
00001000
00010000
,  // measure 61
00000010
00000000
00000010
00000000
,  // measure 62
00000010
00000000
00010000
00001000
,  // measure 63
01000000
00000000
01000000
00000000
,  // measure 64
01000000
00000000
00001000
00010000
,  // measure 65
00000100
00000000
00000100
00000000
,  // measure 66
00000100
00000000
00011000
00000000
,  // measure 67
00100000
00010000
00100000
00010000
,  // measure 68
01000000
10000000
01000000
10000000
,  // measure 69
00100000
00010000
01000000
10000000
,  // measure 70
00100000
00001000
00010000
00000010
,  // measure 71
00000100
00000001
00000100
00000001
,  // measure 72
00000010
00001000
00000010
00001000
,  // measure 73
00000100
00000001
00000010
00001000
,  // measure 74
00000100
00010000
00001000
00011000
,  // measure 75
00001000
00100000
00010000
01000000
,  // measure 76
10000000
10000000
00100000
00010000
,  // measure 77
01000000
00001000
00010000
00000100
,  // measure 78
00001000
00000010
00000001
00000001
,  // measure 79
00001000
00000100
00010000
00001000
,  // measure 80
01000000
00100000
10100000
01010000
,  // measure 81
00100000
00001000
00010000
00000010
,  // measure 82
00000100
00000001
00000101
00001010
,  // measure 83
00002002
00000000
00000000
00000000
,  // measure 84
00000000
00000000
00000000
00000000
,  // measure 85
00000000
00000000
00000000
00000000
,  // measure 86
00003003
00000000
00000000
00000000
;

//---------------dance-single - ----------------
#NOTES:
     dance-single:
     :
     Beginner:
     3:
     0.138663,0.179030,0.028760,0.057520,0.000000,135.000000,131.000000,4.000000,8.000000,0.000000,0.000000,0.138663,0.179030,0.028760,0.057520,0.000000,135.000000,131.000000,4.000000,8.000000,0.000000,0.000000:
0000
0000
0000
0000
,
0000
0000
0000
0000
,
0000
0000
0000
0000
,
0100
0000
0000
0000
,
0100
0000
0000
0000
,
0010
0000
0000
0000
,
0010
0000
0000
0000
,
0100
0000
0000
0000
,
0010
0000
0000
0000
,
0100
0000
0000
0000
,
0010
0000
0000
0000
,
1001
0000
0000
0000
,
0000
0000
0000
0000
,
1001
0000
0000
0000
,
0000
0000
0000
0000
,
1001
0000
0000
0000
,
0001
0000
0000
0000
,
1001
0000
0000
0000
,
1000
0000
0000
0000
,
0001
0000
0001
0000
,
0001
0000
0000
0000
,
1000
0000
1000
0000
,
1000
0000
0000
0000
,
0010
0000
0010
0000
,
0010
0000
0000
0000
,
0100
0000
0100
0000
,
0100
0000
0000
0000
,
0001
0000
0001
0000
,
1000
0000
1000
0000
,
0001
0000
0001
0000
,
1000
0000
1000
0000
,
0010
0000
0010
0000
,
0100
0000
0100
0000
,
0010
0000
0010
0000
,
0100
0000
0100
0000
,
0001
0000
1000
0000
,
0001
0000
1000
0000
,
0010
0000
0100
0000
,
0010
0000
0100
0000
,
0001
0000
1000
0000
,
0001
0000
1000
0000
,
0010
0000
0100
0000
,
0010
0000
0100
0000
,
0200
0000
0300
0000
,
0100
0000
0100
0000
,
0020
0000
0030
0000
,
0010
0000
0010
0000
,
0002
0000
0003
0000
,
0001
0000
0001
0000
,
2000
0000
3000
0000
,
1000
0000
1000
0000
,
0020
0000
0000
0000
,
0030
0000
0000
0000
,
0002
0000
0000
0000
,
0003
0000
0000
0000
,
0200
0000
0000
0000
,
0300
0000
0000
0000
,
2000
0000
0000
0000
,
3000
0000
0000
0000
,
0010
0000
0010
0000
,
0100
0000
0100
0000
,
0001
0000
0001
0000
,
1000
0000
1000
0000
,
0010
0000
0010
0000
,
0100
0000
0100
0000
,
1000
0000
0001
0000
,
1000
0000
0001
0000
,
1000
1000
1000
0000
,
0001
0000
0001
0000
,
1000
1000
1000
0000
,
0001
0000
0001
0000
,
0100
0100
0100
0000
,
0100
0000
0100
0000
,
0010
0010
0010
0000
,
0010
0000
0010
0000
,
0001
0000
1000
0000
,
0001
0001
0001
0000
,
1000
0000
0001
0000
,
1000
1000
1000
0000
,
0010
0000
0100
0000
,
0010
0010
0010
0000
,
0100
0000
0010
0000
,
0100
0100
0100
0000
,
0010
0000
0000
0000
;

//---------------dance-single - ----------------
#NOTES:
     dance-single:
     :
     Easy:
     6:
     0.294788,0.537089,0.323548,0.093469,0.000000,287.000000,242.000000,45.000000,13.000000,0.000000,0.000000,0.294788,0.537089,0.323548,0.093469,0.000000,287.000000,242.000000,45.000000,13.000000,0.000000,0.000000:
0000
0000
0000
0000
,
0000
0000
0000
0000
,
0000
0000
0000
0000
,
0200
0000
0300
0000
,
0020
0000
0030
0000
,
0200
0000
0300
0000
,
0020
0000
0030
0000
,
2000
0000
3000
0000
,
0002
0000
0003
0000
,
2000
0000
3000
0000
,
0002
0000
0003
0000
,
1000
0100
0010
0000
,
0001
0010
0100
0000
,
1000
0100
0010
0000
,
0001
0010
0100
0000
,
1000
0001
1000
0000
,
0010
0100
0010
0000
,
0001
1000
0001
0000
,
0100
0010
0100
0000
,
0110
0110
0110
0110
,
0010
1000
0100
0000
,
1001
1001
1001
1001
,
0100
0010
0100
0000
,
1010
1010
1010
1010
,
0101
0101
0101
0101
,
0110
0110
0110
0110
,
1001
1001
1001
0000
,
0001
0100
0001
0100
,
1000
0100
1000
0100
,
0001
0100
1000
0100
,
0001
1000
1001
0000
,
0010
1000
0010
1000
,
0010
0001
0010
0001
,
0010
1000
0010
0001
,
0100
0010
0110
0000
,
0001
0100
1000
0000
,
0001
0010
1000
0000
,
1000
0100
0001
0000
,
1000
0010
0001
0000
,
0001
0010
1000
0010
,
0001
0100
1000
0100
,
0010
0100
1000
0100
,
0010
0001
0100
0000
,
0110
0000
0110
0000
,
1000
0100
0010
0000
,
0110
0000
0110
0000
,
0001
0010
0100
0000
,
1001
0000
1001
0000
,
1000
0010
0100
0000
,
1001
0000
1001
0000
,
0001
0100
0010
0000
,
0200
0000
0000
0000
,
0300
0000
0001
0000
,
0020
0000
0000
0000
,
0030
0000
0000
0000
,
0020
0000
0000
0000
,
0030
0000
1000
0000
,
0200
0000
0000
0000
,
0020
0000
0330
0000
,
0010
0010
0010
0010
,
0100
0100
0100
0100
,
0001
0001
1000
1000
,
0001
0001
1000
1000
,
0010
0010
0010
1000
,
0100
0100
0100
0001
,
1000
1000
0001
0001
,
1000
0100
0010
0001
,
1000
1000
1000
0010
,
0001
0001
0001
0100
,
1000
1000
0001
0001
,
0100
0100
0010
0010
,
0100
0100
0100
1001
,
0010
0010
0010
1001
,
1000
0100
0010
0001
,
0001
0010
0100
1001
,
0001
0010
1000
0010
,
0001
0001
0001
1001
,
1000
0100
0001
0100
,
1000
1000
1000
1001
,
0010
0001
0100
0110
,
0010
1000
0100
0110
,
1000
1000
0001
0001
,
0110
0110
0110
0110
,
1001
0000
0000
0000
;
