#TITLE:Double Universe;
#SUBTITLE:;
#ARTIST:Hommarju vs P*Light;
#TITLETRANSLIT:;
#SUBTITLETRANSLIT:;
#ARTISTTRANSLIT:;
#GENRE:;
#CREDIT:;
#BANNER:Double Universe.png;
#BACKGROUND:Double Universe-bg.png;
#LYRICSPATH:;
#CDTITLE:;
#MUSIC:Double Universe.ogg;
#OFFSET:0.729000;
#SAMPLESTART:60.579975;
#SAMPLELENGTH:12.000000;
#SELECTABLE:YES;
#DISPLAYBPM:90.000000:180.000000;
#BPMS:0.000000=180.000000
,108.000000=7.000000
,108.333336=78.000000
,108.666664=90.000000
,109.000000=89.000000
,109.500000=93.000000
,110.000000=90.000000
,120.000000=180.000000
;
#STOPS:
;
#BGCHANGES:;
#KEYSOUNDS:;
#ATTACKS:;

//---------------dance-single - ----------------
#NOTES:
     dance-single:
     :
     Hard:
     14:
     0.729330,0.898062,0.278012,0.168492,0.391744,606.000000,573.000000,33.000000,20.000000,0.000000,0.000000,0.729330,0.898062,0.278012,0.168492,0.391744,606.000000,573.000000,33.000000,20.000000,0.000000,0.000000:
0000
0000
0000
0000
,
0000
0000
0000
0000
,
0000
0000
0000
0000
,
1001
0000
1000
0100
0010
0001
0100
0010
,
0100
0001
0100
0010
1000
0001
0010
0001
,
1000
0000
0001
0010
0100
1000
0010
0100
,
0010
0000
1010
0000
0000
0000
0001
0000
1000
0000
0001
0000
0100
0010
0100
0010
,
0100
0000
0001
1000
0100
0010
0000
0001
,
0001
0000
1000
1001
0000
0110
0000
1000
,
1001
0000
1000
1000
0001
1001
0000
0010
,
1000
0000
0000
0100
0000
0000
0001
0000
0100
0000
0010
0000
1000
0001
1000
0000
,
0010
0000
0000
0100
0000
0000
0010
0000
1000
0000
0100
0000
0010
0000
0001
0000
,
1000
0000
0000
0001
0000
0000
1000
0000
0001
0000
0010
0000
0001
0000
0100
0000
,
0010
0000
0000
1000
0000
0000
0100
0000
0010
0000
0001
0000
0100
0000
0010
0000
,
1000
0000
0000
1000
0000
0000
0100
0000
0001
0000
1000
0000
0001
0000
1000
0000
,
0010
0000
0000
0010
0000
0000
1000
0000
0100
0000
0010
0000
0001
0000
1000
0000
,
0010
0000
0000
0010
0000
0000
1000
0000
0001
0000
0010
0000
0100
0000
1000
0000
,
0010
0000
0000
0010
0000
0000
1000
0000
0010
0000
0100
0000
0001
0000
1000
0000
,
0001
0000
0000
0001
0000
0010
0001
0000
1000
0000
0100
0000
1100
0000
0000
0000
,
0010
0000
0000
0010
0000
0100
0010
0000
1000
0000
0100
0000
1000
0000
0100
0000
,
0010
0000
0000
0010
0000
0001
0010
0000
0001
0000
0010
0000
0100
0000
1000
0000
,
0001
0000
0000
0001
0000
1000
0001
0000
1000
0000
0100
0000
0010
0000
0001
0000
,
0100
0000
0000
0100
0000
0010
0100
0000
0001
0000
1000
0000
0001
0000
1000
0000
,
0001
0000
0001
0000
1000
0010
1000
0010
1000
0000
1000
0000
0001
0100
0001
0100
,
0001
0000
1000
0001
0000
1000
0001
0000
1000
0000
0100
0000
0010
0001
0010
0000
,
0100
0001
0100
0000
1000
0010
1000
0000
0001
0010
0001
0010
0001
0010
0001
0000
,
1000
0000
0100
0000
0010
0000
0001
0000
0100
0010
0100
0010
0100
0010
0100
0010
,
0100
0000
0200
0302
,
1003
0000
1000
0200
0000
0000
0000
0000
0000
0000
0000
0000
0300
0000
1000
0100
,
0010
0000
0010
0002
0000
0000
0000
0000
0000
0000
0000
1003
0001
0000
1000
0000
,
2002
0000
0000
3003
,
0220
0000
0000
0330
,
2020
3030
0202
0303
,
0220
0000
0000
0330
,
1000
0000
0000
0001
0000
0000
1000
0000
0000
0001
0000
0000
1000
0100
1000
0100
,
1000
0000
0000
0001
0000
0000
1000
0001
1000
0000
0000
1001
0000
0000
0001
0000
,
0100
0000
0000
0001
0000
0000
0100
0000
0000
0001
0000
0000
0100
0010
0100
0010
,
0100
0000
0000
0010
0000
0000
1000
0000
0000
0010
0000
0000
1000
0001
1000
0001
,
1000
0000
0000
1000
0000
0000
0100
0000
0001
0000
0000
0001
0000
0000
0010
0000
,
1000
0100
1000
0100
0010
0001
0010
0001
,
1000
0000
0100
0000
0010
0000
0001
0000
0100
0010
0100
0010
0100
0010
0100
0000
,
0001
0000
0000
0001
0000
0000
0001
0000
0100
0000
0010
0000
1001
0000
0000
0000
,
0010
1000
0010
0000
0100
0001
0100
0000
0001
0000
0010
0000
0100
0000
1000
0000
,
0010
0100
0010
0000
1000
0010
1000
0000
0001
0000
1000
0000
0100
0000
0010
0000
,
0001
0100
0001
0000
1000
0010
1000
0000
0001
0000
1000
0000
0100
0000
0010
0000
,
0001
0000
0000
0001
0000
0000
0100
0000
0001
0000
0010
0000
0100
0000
1000
0000
,
0010
0100
0010
0000
1000
0010
1000
0000
0001
0000
1000
0000
0100
0000
0010
0000
,
0001
0010
0001
0000
1000
0100
1000
0000
0001
0000
1000
0000
0010
0000
0100
0000
,
0001
0100
0001
0000
1000
0010
1000
0000
0001
0000
0010
0000
0100
0000
1000
0000
,
1001
0000
0000
1001
0000
0000
1001
0000
1000
0000
0100
0000
1001
0000
0000
0000
,
1000
0010
0001
0010
1000
0010
0001
0010
,
1000
0100
0001
0100
1000
0010
1000
0010
,
1000
0100
0010
0100
1000
0100
0010
0100
,
0010
0001
0100
0001
0010
0001
1000
0001
,
1000
0010
0001
0010
1000
0100
0001
0100
,
1000
0010
0001
0010
1000
0100
1000
0100
,
0010
0000
0010
0000
0100
0000
0100
0000
0010
0100
0010
0100
0010
0100
0010
0000
,
1000
0000
0000
1000
0000
0000
1000
0000
0001
0000
0100
0000
0110
0000
0000
0000
,
2002
0000
0000
3000
,
0020
0003
0200
0030
,
0002
0300
2000
0003
,
3010
0100
1001
0110
,
1000
0000
0000
0100
0000
0000
0001
0000
1000
0001
1000
0001
1000
0001
1000
0000
,
0001
0000
0000
0100
0000
0000
1000
0000
0001
1000
0001
1000
0001
1000
0001
0000
,
0100
0100
0100
0100
0010
0010
0010
0010
,
1000
0100
1000
0000
0001
0010
0001
0000
0000
0000
0100
0000
0110
0000
0000
0000
,
0010
1000
0010
0100
0010
1000
0100
0010
,
0001
0100
0001
0100
0001
0000
0001
0010
,
0100
1000
0100
0010
0001
1000
0010
1000
,
0001
0100
0010
1000
0100
0000
1000
0010
,
1000
0100
1000
0100
1000
0001
1000
0001
,
1000
0010
0100
0001
1000
0000
0001
0010
,
0001
0100
0010
1000
0100
0010
0001
1001
,
0000
0000
1100
0000
0000
1100
0000
0000
1000
0000
0100
0000
0010
0000
0001
0000
,
0100
0010
1000
0010
0100
0010
1000
0010
,
0100
0010
1000
0010
0100
0100
0001
0001
,
1000
0010
0100
0010
1000
0010
0100
0010
,
0000
1001
0000
0100
0010
0100
0010
0000
,
1000
1000
1010
0000
0001
0001
0011
0000
,
1000
1000
1010
0000
0001
0001
0101
0000
,
1000
0100
0010
0001
1000
0100
0010
0001
,
1000
0010
1000
0010
1000
0000
0001
0000
0010
0000
0100
0000
1001
0000
0000
0000
,
1001
0000
0000
0000
;

//---------------dance-double - ----------------
#NOTES:
     dance-double:
     :
     Hard:
     14:
     0.661933,0.863521,0.176917,0.117944,0.286436,550.000000,529.000000,21.000000,14.000000,0.000000,0.000000,0.661933,0.863521,0.176917,0.117944,0.286436,550.000000,529.000000,21.000000,14.000000,0.000000,0.000000:
00000000
00000000
00000000
00000000
,
00000000
00000000
00000000
00000000
,
00000000
00000000
00000000
00000000
,
10000000
00000000
00010000
00100000
00001000
00100000
00000000
00001000
,
00000000
00010000
00000000
00000010
00001000
00000100
00000010
00000001
,
00001000
00000100
00010000
00000100
00010000
00001000
00100000
00010000
,
00000000
00000000
01100000
00000000
00000000
00000000
10000000
00000000
00010000
00000000
00000000
00000000
01000000
00100000
01000000
00100000
,
01000000
00000000
10000000
01000000
00100000
00010000
00000000
00101000
,
00000000
00010100
00000000
00001000
00000100
00000000
00000010
00000001
,
00000100
00000000
00000001
00001000
00000001
00001001
00000000
00000010
,
00010000
00000000
00000000
00010000
00000000
00000000
00010000
00000000
00001000
00000000
00100000
00000000
01000000
00000000
00000000
00000000
,
10010000
00000000
00000000
10000000
00000000
00000000
01000000
00000000
10000000
00000000
00100000
00000000
01000000
00000000
00001000
00000000
,
00010000
00000000
00000000
00010000
00000000
00000000
00000100
00000000
00001000
00000000
00000100
00000000
00000010
00000000
00000001
00000000
,
00000100
00000000
00000000
00000100
00000000
00000000
00000001
00000000
00001000
00000000
00000100
00000000
00010000
00000000
00001000
00000000
,
01000000
00000000
00000000
01000000
00000000
00000000
00100000
00000000
10000000
00000000
00100000
00000000
01000000
00000000
00001000
00000000
,
00010000
00000000
00000000
00010000
00000000
00000000
00010000
00000000
00000100
00000000
00001000
00000000
00000010
00000000
00000100
00000000
,
00000001
00000000
00000000
00000001
00000000
00000000
00000001
00000000
00001000
00000000
00000100
00000000
00010000
00000000
00001000
00000000
,
00100000
00000000
00000000
00100000
00000000
00000000
00100000
00000000
00010000
00000000
10000000
00000000
01000000
00000000
00100000
00000000
,
00001000
00000000
00000000
00001000
00000000
00000000
00010000
00000000
00000100
00000000
00001000
00000000
00000001
00000000
00000010
00000000
,
00000100
00000000
00000000
00000100
00000000
00000000
00000001
00000000
00001000
00000000
00000100
00000000
00010000
00001000
00010000
00000000
,
00001000
00000000
00000000
00001000
00000000
00000000
00100000
00000000
00010000
00000000
10000000
00000000
00100000
01000000
00100000
00000000
,
10000000
00000000
00000000
10000000
00000000
00000000
00010000
00000000
00100000
00000000
00001000
00000000
00010000
00001000
00010000
00000000
,
00000010
00000000
00000000
00000010
00000000
00000000
00001000
00000000
00000100
00000000
00000010
00000000
00000001
00000000
00000100
00000000
,
00000110
00000000
00000001
00000010
00000100
00001000
00000000
00010000
,
00011000
00000000
00000000
00011000
00000000
00000000
00001000
00000000
00100000
00000000
00010000
00000000
01000000
00000000
00100000
00000000
,
10000000
01000000
00100000
00001000
00100000
00010000
01000000
00100000
,
10000000
00010000
10000000
00010000
10000000
00010000
10000000
00010000
10000000
00010000
10000000
00010000
10000000
00010000
10000000
00010000
,
10000000
00000000
00200000
00302000
,
00020000
00000000
00000000
00000000
00000000
00000000
00000000
00000000
00033000
00000000
00000000
00000000
00000000
00000000
00001000
00000100
,
00000010
00000000
00000010
00000002
00000000
00000000
00000000
00000000
00000000
00000000
00000003
00001000
00000100
00000000
00010000
00000000
,
00002000
00000000
00000000
00000000
,
02003000
00000000
00000000
00000000
,
03200000
00000000
20300000
00000000
,
00020000
00000000
30030000
00000000
,
10000000
00000000
00000000
10000000
00000000
00000000
01000000
00000000
00000000
00100000
00000000
00000000
00001000
00000000
00010000
00000000
,
00000010
00000000
00000000
00000100
00000000
00000000
00001000
00000000
00000000
00000100
00000000
00000000
00010000
00000000
00001000
00000000
,
01000000
00000000
00000000
00100000
00000000
00000000
00010000
00000000
00000000
10000000
00000000
00000000
00010000
00000000
00100000
00000000
,
00001000
00000000
00000000
00001000
00000000
00000000
00010000
00000000
00000000
00010000
00000000
00000000
00000100
00001000
00000100
00001000
,
00000100
00000000
00000000
00010000
00000000
00000000
00001000
00000000
00010000
00000000
00000000
00000100
00000000
00000000
00001000
00000000
,
00000001
00000000
00000000
00000011
00000000
00000000
00000001
00000000
00001000
00000000
00000000
00001100
00000000
00000000
00001000
00000000
,
00000001
00000000
00000010
00000000
00000100
00000000
00001000
00000000
00000010
00000100
00000010
00000100
00000010
00000100
00000010
00000000
,
00001000
00000000
00000000
00001000
00000000
00000000
00000100
00000000
00010000
00000000
00000000
00000000
00011000
00000000
00000000
00000000
,
00100000
00010000
00100000
00010000
10000000
01000000
00100000
00001000
,
00010000
00000010
00010000
00000010
00001000
00000100
00000010
00000001
,
00001000
00000100
00001000
00000100
00010000
00001000
01000000
00100000
,
10000000
00000000
00100000
10000000
00000000
00100000
10000000
00000000
00010000
00000000
00100000
00000000
01000000
00000000
10000000
00000000
,
00010000
00010000
10000000
10000000
00010000
00100000
00001000
00010000
,
00000100
00000100
00001000
00001000
00000001
00000010
00000100
00001000
,
00000100
00000100
00010000
00010000
00000100
00001000
00000010
00000100
,
00000001
00000000
00001000
00000001
00000000
00001000
00000001
00000000
00001000
00000000
00000100
00000000
00001100
00000000
00000000
00000000
,
00000010
00001000
00000100
00001000
00000010
00001000
00000100
00000010
,
00000001
00000100
00000001
00000010
00000100
00010000
00001000
00000000
,
00100000
00010000
01000000
00010000
00100000
00010000
01000000
00100000
,
10000000
01000000
10000000
00100000
01000000
00001000
00010000
00000000
,
00000100
00001000
00000100
00000010
00000001
00000100
00000110
00000000
,
00000010
00010000
00001000
00010000
00001000
01000000
00100000
00000000
,
10000000
01000000
10000000
01000000
00100000
00010000
00100000
00001000
,
00010000
00000000
00001000
00010000
00000000
00001000
00010000
00000000
00000100
00000000
00001000
00000000
00001001
00000000
00000000
00000000
,
00002002
00000000
00000000
00000003
,
00000200
00003000
00020000
00000300
,
00002000
00000000
00000000
00030000
,
00100000
01000000
00013000
00011000
,
00010000
00000000
00000000
00001000
00000000
00000000
00000100
00000000
00000010
00000001
00000010
00000001
00000010
00000000
00000001
00000000
,
00000100
00000000
00000000
00000010
00000000
00000000
00001000
00000000
00000100
00001000
00000100
00001000
00000100
00000000
00010000
00000000
,
00001000
00000000
00000000
00100000
00000000
00000000
00010000
00000000
10000000
00100000
10000000
00100000
10000000
00000000
00010000
00000000
,
01000000
00100000
01000000
00000000
00100000
01000000
00100000
00000000
10000000
00000000
00010000
00000000
10010000
00000000
00000000
00000000
,
10000000
00100000
10000000
00100000
01000000
00010000
01000000
00010000
,
10000000
01000000
00100000
00010000
00100000
00001000
00010000
00000010
,
00001000
00000100
00000010
00000001
00001000
00000100
00000010
00000001
,
00001000
00000100
00010000
00001000
00100000
00010000
01000000
00100000
,
10000000
00010000
10000000
00010000
10000000
01000000
10000000
01000000
,
10000000
00100000
00010000
00100000
10000000
00000000
01000000
00100000
,
00010000
00000000
00001000
00000000
00010000
00000100
00010000
00001000
,
00000000
00000000
00011000
00000000
00000000
00011000
00000000
00000000
00010000
00000000
00000000
00000000
00010100
00000000
00000000
00000000
,
00001000
00000100
00000010
00000001
00000100
00000000
00010000
00000000
,
00100000
01000000
10000000
01000000
00100000
00000000
00001000
00000000
,
00010000
00001000
00010000
00000100
00001000
00000000
00000001
00001000
,
00000000
00000100
00010000
00001000
00010000
00000000
00001000
00000000
,
01000000
00100000
00010000
00100000
01000000
00100000
00001000
00010000
,
00000100
00001000
00000100
00000010
00000100
00010000
00001000
01000000
,
00100000
00100000
01000000
01000000
00010000
00010000
10000000
10000000
,
00010000
00100000
00010000
00100000
00010000
00000000
01000000
00000000
00001000
00000000
00010000
00000000
00001000
00000000
00000000
00000000
,
00011000
00000000
00000000
00000000
;

//---------------dance-double - ----------------
#NOTES:
     dance-double:
     :
     Medium:
     10:
     0.494644,0.587195,0.261163,0.244313,0.037911,411.000000,380.000000,31.000000,29.000000,0.000000,0.000000,0.494644,0.587195,0.261163,0.244313,0.037911,411.000000,380.000000,31.000000,29.000000,0.000000,0.000000:
00000000
00000000
00000000
00000000
,
00000000
00000000
00000000
00000000
,
00000000
00000000
00000000
00000000
,
01000000
00000000
00010000
00000000
10000000
00010000
00000000
10000000
,
00000000
01000000
00000000
00100000
00001000
00000000
00010000
00000000
,
00000010
00000000
00001000
00000000
00000001
00000100
00000000
00000010
,
00000000
00001001
00000000
00000010
00000100
00000000
00001001
00000000
,
00000010
00000000
00000000
00000000
00000100
00010000
00000000
00001000
,
00100000
00000000
00000000
00010000
00000000
10010000
00000000
10000000
,
01000000
00000000
10000000
01000000
00100000
00010000
00000000
01000000
,
01000000
00000000
00000000
01000000
00000000
00000000
01000000
00000000
00100000
00000000
00000000
00000000
10010000
00000000
00000000
00000000
,
10000000
00000000
00010000
00000000
10000000
01000000
00100000
00000000
,
00001000
00000000
00010000
00000000
00000100
00010000
00001000
00000000
,
00010000
00000000
00000100
00000000
00001000
00000100
00000010
00000000
,
00000001
00001001
00001000
00001001
,
00000001
00000000
00000100
00000000
00000010
00000100
00001000
00000000
,
00010000
00000000
00011000
00000000
00001000
00010000
00100000
00000000
,
00010000
00000000
01010000
00000000
00010000
00100000
01000000
00000000
,
10010000
00000000
00100000
00000000
10000000
01000000
00100000
00000000
,
10000000
01000000
10000000
01000000
10000000
01000000
00100000
00000000
,
00010000
00100000
00010000
00100000
00010000
00100000
01000000
00000000
,
00010000
00100000
00010000
00100000
00001000
00010000
00001000
00000000
,
00010000
00000000
00000100
00000000
00001000
00000100
00000010
00000000
,
00000001
00000010
00000100
00000000
00010000
00001000
00100000
00000000
,
00010000
00100000
01000000
10000000
01000000
00100000
00010000
00000000
,
00110000
00011000
00001100
00000110
,
00002002
00000000
00000000
00003003
,
00000110
00000000
00002000
00203000
,
00320000
00000000
20030000
00000000
,
30200000
00000000
02000000
03300000
,
20020000
00000000
00000000
30030000
,
00011000
00000000
00001000
00000000
,
00001100
00000000
00000011
00000000
,
00000220
00000000
00000000
00000330
,
00000000
00000001
00000000
00000100
00000000
00001000
00000000
00010000
,
00001000
00000000
00000000
00000000
00000000
00000000
00100000
00000000
00010000
00000000
00000000
00010000
00000000
00000000
10000000
00000000
,
01000000
00000000
00000000
01000000
00000000
00000000
01000000
00000000
00000000
01000000
00000000
00000000
01000000
00000000
00000000
00000000
,
00001000
00000000
00000000
00001000
00000000
00000000
00001000
00000000
00000000
00001000
00000000
00000000
00001000
00000000
00000000
00000000
,
00010000
00000000
00001000
00010000
00000010
00000000
00001000
00000100
,
00000010
00000000
00010000
00010000
00001000
00000000
00100000
00010000
,
01000000
00000000
01000000
00000000
01000000
01000000
01000000
00000000
,
00100000
00000000
00000000
00100000
00000000
00000000
00100000
00000000
00100000
00000000
00000000
00000000
10010000
00000000
00000000
00000000
,
10000000
01000000
10000000
01000000
10000000
00000000
00010000
00000000
,
00100000
00001000
00100000
00001000
00010000
00000000
00000010
00000000
,
00000100
00000001
00000100
00000001
00000010
00000000
00001000
00000000
,
00000100
00000000
00000000
00000100
00000000
00000000
00000100
00000000
00010000
00000000
00000000
00000000
00011000
00000000
00000000
00000000
,
00100000
00010000
00100000
00010000
01000000
00000000
10010000
00000000
,
00100000
10000000
00100000
10000000
01000000
00000000
10010000
00000000
,
00100000
00001000
00100000
00001000
00010000
00000000
00011000
00000000
,
00010000
00000000
00000100
00000000
00001000
00000100
00000010
00000000
,
00000002
00000100
00001000
00000100
,
00001000
00000000
00000103
00000000
00001000
00000100
00010000
00000000
,
00002000
01000000
00100000
01000000
,
00010000
00000000
00103000
00000000
00100000
00010000
01000000
00000000
,
00200000
00000000
10300000
00000000
01000000
00001000
00010000
00000000
,
00020000
00000000
00030010
00000000
00001000
00000001
00000100
00000000
,
00000001
00000010
00000001
00000010
00000100
00001000
00000100
00001000
,
00000100
00000000
00000000
00000100
00000000
00000000
00000100
00000000
00000100
00000000
00000000
00000000
00011000
00000000
00000000
00000000
,
00220000
00000000
00000000
00300000
,
02000000
00000000
00000000
03000000
,
20000000
00000000
00000000
30000000
,
00200000
00030000
00002000
00303000
,
00011000
00000000
00010000
00000000
00010000
00000100
00010000
00000100
,
00001000
00000000
00001000
00000000
00000001
00000010
00000001
00000010
,
00000100
00000000
00000100
00000000
00010000
00001000
00010000
00001000
,
00200000
00320000
02030000
13000000
,
00100000
10000000
00100000
10000000
00100000
01000000
00100000
01000000
,
00010000
01000000
00010000
01000000
00010000
00000000
00100000
00000000
,
00001000
00010000
00001000
00010000
00000100
00010000
00000100
00010000
,
00001000
00010000
00000010
00000100
,
00000001
00000100
00000001
00000100
00000010
00001000
00000010
00001000
,
00000100
00010000
00000100
00010000
00001000
00000000
01000000
00000000
,
00100000
10000000
00100000
10000000
00100000
10000000
00000000
00010000
,
00000000
00100000
00000000
00100000
01000000
00000000
10010000
00000000
,
20000000
00100000
00010000
30100000
,
00020000
00100000
01030000
00001000
,
00020000
00001000
00000100
00031000
,
00000020
00000100
00001030
00001001
,
00000010
00000001
00000010
00000000
00000100
00001000
00000100
00000000
,
00010000
00001000
00010000
00000000
00100000
00010000
00100000
00000000
,
10000000
01000000
00100000
00000000
00100000
00001000
00010000
00000000
,
00000100
00010000
00000000
00001000
00010000
00001000
00010000
00000000
,
00011000
00000000
00000000
00000000
;

//---------------dance-single - ----------------
#NOTES:
     dance-single:
     :
     Medium:
     10:
     0.513901,0.587195,0.311710,0.244313,0.042123,427.000000,390.000000,37.000000,29.000000,0.000000,0.000000,0.513901,0.587195,0.311710,0.244313,0.042123,427.000000,390.000000,37.000000,29.000000,0.000000,0.000000:
// measure 0
0000
0000
0000
0000
,  // measure 1
0000
0000
0000
0000
,  // measure 2
0000
0000
0000
0000
,  // measure 3
0100
0000
0001
0000
1000
0001
0000
1000
,  // measure 4
0000
0100
0000
0010
0001
0000
0100
0000
,  // measure 5
0010
0000
1000
0000
0001
0100
0000
0010
,  // measure 6
0000
1001
0000
0010
0100
0000
1001
0000
,  // measure 7
0010
0000
0000
0000
1000
0001
0000
1000
,  // measure 8
0010
0000
0000
0001
0000
1001
0000
1000
,  // measure 9
0100
0000
1000
0100
0010
0001
0000
0100
,  // measure 10
0100
0000
0000
0100
0000
0000
0100
0000
0010
0000
0000
0000
1001
0000
0000
0000
,  // measure 11
1000
0001
1000
0001
1000
0100
0010
0000
,  // measure 12
0001
1000
0001
1000
0010
0100
0010
0000
,  // measure 13
0001
0000
0010
0000
0100
0010
0100
0000
,  // measure 14
0001
1001
1000
1001
,  // measure 15
1000
0000
0100
0000
0010
0001
0100
0000
,  // measure 16
0001
0000
1001
0000
1000
0001
0010
0000
,  // measure 17
0001
0000
0101
0000
0001
0010
0100
0000
,  // measure 18
1001
0000
0010
0000
1000
0100
0010
0000
,  // measure 19
1000
0100
1000
0100
1000
0100
0010
0000
,  // measure 20
0001
0010
0001
0010
0001
0010
0100
0000
,  // measure 21
0001
0010
0001
0010
0100
1000
0100
0000
,  // measure 22
0010
0000
0001
0000
1000
0100
0010
0000
,  // measure 23
0001
0010
0100
0000
0010
0100
1000
0000
,  // measure 24
0001
0010
0100
1000
0100
0010
0001
0000
,  // measure 25
0011
0101
1100
1010
,  // measure 26
0220
0000
0000
0330
,  // measure 27
1001
0000
2000
3020
,  // measure 28
0032
0000
2003
0000
,  // measure 29
3020
0000
0200
0330
,  // measure 30
2002
0000
0000
3003
,  // measure 31
0110
0000
1001
0000
,  // measure 32
0110
0000
1001
0000
,  // measure 33
0220
0000
0000
0330
,  // measure 34
0001
1000
0000
1000
0000
1000
0000
0001
,  // measure 35
0100
0000
0000
0000
0000
0000
0010
0000
0001
0000
0000
0001
0000
0000
1000
0000
,  // measure 36
0100
0000
0000
0100
0000
0000
0100
0000
0000
0100
0000
0000
0100
0000
0000
0000
,  // measure 37
0010
0000
0000
0010
0000
0000
0010
0000
0000
0010
0000
0000
0010
0000
0100
0000
,  // measure 38
0001
0000
1000
0001
1000
0000
1000
0100
,  // measure 39
0010
0000
0100
0010
0001
0000
0001
0010
,  // measure 40
0100
0010
0100
0010
0100
0100
0100
0000
,  // measure 41
0010
0000
0000
0010
0000
0000
0010
0000
0010
0000
0000
0000
1001
0000
0000
0000
,  // measure 42
1000
1000
0001
0001
1000
0000
0001
0000
,  // measure 43
0010
0010
0100
0100
0010
0000
0100
0000
,  // measure 44
0001
0001
1000
1000
0001
0000
1000
0000
,  // measure 45
0010
0000
0000
0010
0000
0000
0010
0000
0100
0000
0000
0000
1001
0000
0000
0000
,  // measure 46
0010
0001
0010
0001
0100
0000
1001
0000
,  // measure 47
0010
1000
0010
1000
0100
0000
1001
0000
,  // measure 48
0010
0001
0010
0001
0100
0000
1001
0000
,  // measure 49
0010
0000
0000
0010
0000
0000
1000
0000
0001
0000
0000
0000
1001
0000
0000
0000
,  // measure 50
0020
1000
0100
1000
,  // measure 51
0100
0000
1030
0000
0001
1000
0001
0000
,  // measure 52
2000
0100
0010
0100
,  // measure 53
0001
0000
3010
0000
1000
0001
0100
0000
,  // measure 54
0020
0000
1030
0000
0001
0010
0100
1000
,  // measure 55
0002
0000
0103
0000
1000
0100
0010
0001
,  // measure 56
0100
0010
0100
0010
0001
1000
0001
1000
,  // measure 57
0010
0000
0000
0010
0000
0000
0010
0000
0010
0000
0000
0000
1001
0000
0000
0000
,  // measure 58
0022
0000
0000
0030
,  // measure 59
0200
0000
0000
0300
,  // measure 60
2000
0000
0000
3000
,  // measure 61
0020
0003
0200
0330
,  // measure 62
1001
0000
0001
0000
0001
0100
0001
0100
,  // measure 63
0010
0000
0010
0000
1000
0100
1000
0100
,  // measure 64
0010
0000
0010
0000
0001
1000
0001
1000
,  // measure 65
0020
2030
3200
0301
,  // measure 66
0010
1000
0010
1000
0010
0100
0010
0100
,  // measure 67
0001
0100
0001
0100
0001
0000
0010
0000
,  // measure 68
0001
1000
0001
1000
0001
1000
0001
1000
,  // measure 69
0010
1001
0100
1001
,  // measure 70
0010
0100
0010
0100
0001
1000
0001
1000
,  // measure 71
0001
0010
0100
1000
0001
0000
0100
0000
,  // measure 72
0010
1000
0010
1000
0010
1000
0000
1001
,  // measure 73
0000
0010
0000
0010
0100
0000
1001
0000
,  // measure 74
2000
0010
0001
3010
,  // measure 75
0002
0010
0103
1001
,  // measure 76
0002
0010
0100
1003
,  // measure 77
2000
0001
3010
1001
,  // measure 78
0010
0001
0010
0000
0100
1000
0100
0000
,  // measure 79
0010
0001
0100
0000
1000
0010
0001
0000
,  // measure 80
1000
0100
0001
0000
0010
0001
0100
0000
,  // measure 81
0001
0010
0000
1000
0001
1000
0001
0000
,  // measure 82
1001
0000
0000
0000
;

//---------------dance-single - ----------------
#NOTES:
     dance-single:
     :
     Beginner:
     5:
     0.205801,0.276327,0.025274,0.016849,0.000000,171.000000,168.000000,3.000000,2.000000,0.000000,0.000000,0.205801,0.276327,0.025274,0.016849,0.000000,171.000000,168.000000,3.000000,2.000000,0.000000,0.000000:
0000
0000
0000
0000
,
0000
0000
0000
0000
,
0000
0000
0000
0000
,
0001
0000
1000
0000
,
0001
0000
0000
0000
,
1000
0000
0001
0000
,
1000
0000
0000
0000
,
0001
0000
1000
0000
,
0001
0000
0000
0000
,
1000
0000
1000
0000
,
1000
1000
1000
0000
,
1000
0000
1000
0000
,
0001
0000
0001
0000
,
1000
0000
0001
0000
,
1000
1000
1000
1000
,
1000
0000
0001
0000
,
1000
0000
0001
0000
,
0100
0100
0100
0000
,
0010
0010
0010
0000
,
1000
0000
1000
0000
,
0001
0000
0001
0000
,
0100
0000
0100
0000
,
0010
0010
0010
0010
,
0010
0000
0100
0000
,
1000
0000
0001
0000
,
0001
0001
0001
0001
,
0002
0000
0003
0000
,
1001
0000
0000
0000
,
0001
0000
1000
0000
,
0010
0000
0100
0000
,
1001
0000
0000
0000
,
0010
0000
0010
0000
,
0010
0000
0010
0000
,
0010
0000
0000
0000
,
0001
0000
0000
0000
,
0100
0000
0001
0000
,
0100
0000
0000
0000
,
0010
0000
1000
0000
,
0010
0000
0010
0000
,
0100
0000
0100
0000
,
0100
0100
0100
0100
,
0200
0000
0300
0000
,
1000
1000
0000
0000
,
0001
0001
0000
0000
,
0100
0100
0000
0000
,
0010
0000
0100
0000
,
0010
0010
0000
0000
,
0100
0100
0000
0000
,
0010
0010
0000
0000
,
0010
0000
0100
0000
,
0010
0000
0100
0000
,
0100
0000
0000
0000
,
1000
0000
0010
0000
,
0010
0000
0000
0000
,
0001
0000
1000
0000
,
1000
0000
1000
0000
,
0001
0000
0001
0000
,
0001
0001
0001
0000
,
1001
0000
0000
0000
,
0000
0000
0000
0000
,
0000
0000
0000
0000
,
0000
0000
0000
0000
,
0001
0001
0001
0000
,
0010
0010
0010
0000
,
1000
1000
1000
0000
,
0100
0100
0100
0000
,
0010
0010
0010
0000
,
0001
0001
0001
0000
,
0100
0100
0100
0000
,
1000
1000
1000
0000
,
0010
0000
0001
0000
,
0100
0000
1000
0000
,
0010
0010
0010
0000
,
0100
0100
0100
0000
,
1000
0000
1000
0000
,
0001
0000
0001
0000
,
1000
0000
1000
0000
,
0001
0001
0001
0000
,
0010
0010
0010
0000
,
0100
0100
0100
0000
,
0001
0001
0001
0000
,
1000
1000
1000
1000
,
1000
0000
0000
0000
;

//---------------dance-double - ----------------
#NOTES:
     dance-double:
     :
     Easy:
     6:
     0.334577,0.414490,0.126369,0.126369,0.000000,278.000000,263.000000,15.000000,15.000000,0.000000,0.000000,0.334577,0.414490,0.126369,0.126369,0.000000,278.000000,263.000000,15.000000,15.000000,0.000000,0.000000:
00000000
00000000
00000000
00000000
,
00000000
00000000
00000000
00000000
,
00000000
00000000
00000000
00000000
,
10000000
01000000
10000000
01000000
,
00010000
01000000
10000000
01000000
,
00010000
00001000
00010000
00001000
,
00010000
00000100
00001000
00000010
,
00000001
00000100
00000001
00000100
,
00001000
00000100
00000001
00000100
,
00001000
00010000
01000000
00000000
,
10000000
01000000
00010000
00000000
,
10000000
10000000
00010000
00100000
,
00010000
00010000
10000000
00100000
,
01000000
01000000
00001000
00001000
,
00010000
00010000
00000100
00000100
,
00001000
00000100
00000010
00000001
,
00000100
00000100
00000010
00000010
,
00010000
00001000
01000000
00100000
,
10000000
00000000
00010000
00000000
,
10000000
01000000
00100000
00001000
,
00010000
00000100
00000010
00000001
,
00000100
00000100
00010000
00010000
,
00001000
00001000
01000000
01000000
,
10010000
00000000
00110000
00000000
,
00011000
00000000
00001100
00000000
,
00000010
00000100
00001000
00001000
,
00020000
00000000
00000000
00030000
,
00011000
00000000
00000000
00000000
,
00200000
00000000
00000000
00300000
,
00002000
00000000
00000000
00003000
,
00022000
00000000
00000000
00000000
,
00000000
00000000
00033000
00000000
,
00010000
00000000
00000100
00000000
,
00001000
00001000
00001000
00000000
,
00000001
00000010
00000100
00000000
,
00010000
00001000
01000000
00000000
,
10000000
01000000
00100000
00000000
,
00001000
00010000
00000100
00000000
,
00000010
00000010
00000001
00000001
,
00000100
00000100
00001000
00001000
,
00010000
00010000
00020000
00000000
,
00031000
00000000
00100000
00010000
,
10000000
01000000
00100000
00001000
,
00010000
00000100
00000010
00000001
,
00000001
00000010
00000100
00010000
,
00001000
00100000
01000000
10000000
,
00100000
10000000
00100000
00010000
,
00001000
00000010
00001000
00000010
,
00000001
00000100
00000001
00000100
,
00001000
00010000
00001000
00011000
,
00100000
00010000
00100000
00010000
,
00100000
00010000
01000000
10000000
,
00100000
00010000
00100000
00001000
,
00010000
00001000
00000100
00000010
,
00000001
00000100
00000001
00000100
,
00001000
00000100
00000001
00000010
,
00001000
00001000
00000100
00000100
,
00020000
00000000
00031000
00011000
,
00002000
00000000
00000000
00000000
,
00203000
00000000
00000000
00000000
,
02300000
00000000
00000000
00000000
,
23000000
00000000
00000000
00000000
,
30010000
00100000
00001000
00001000
,
00010000
00000100
00001000
00001000
,
00000001
00000010
00000100
00001000
,
00022000
00000000
00000000
00033000
,
00100000
00010000
01000000
01000000
,
00100000
10000000
01000000
01000000
,
00010000
00001000
00000100
00000100
,
00000001
00000100
00001000
00001000
,
00010000
00001000
00010000
00000100
,
00001000
00000001
00000010
00000100
,
00001000
00000100
00010000
00000100
,
00001000
00100000
01000000
10000000
,
00100000
00100000
01000000
10010000
,
00100000
00001000
00011000
00011000
,
00010000
00000100
00001000
00000001
,
00001000
00000100
00001001
00001001
,
00000010
00001000
00000200
00000300
,
00010000
00001000
02000000
03000000
,
00010000
00100000
01000000
10000000
,
00100000
00010000
00001000
00010000
,
00011000
00000000
00000000
00000000
;

//---------------dance-single - ----------------
#NOTES:
     dance-single:
     :
     Easy:
     7:
     0.352630,0.483572,0.235889,0.261163,0.021062,293.000000,265.000000,28.000000,31.000000,0.000000,0.000000,0.352630,0.483572,0.235889,0.261163,0.021062,293.000000,265.000000,28.000000,31.000000,0.000000,0.000000:
// measure 0
0000
0000
0000
0000
,  // measure 1
0000
0000
0000
0000
,  // measure 2
0000
0000
0000
0000
,  // measure 3
0100
0001
1000
0001
,  // measure 4
1000
0100
0010
0001
,  // measure 5
0010
0100
1000
0100
,  // measure 6
0010
1001
0100
1001
,  // measure 7
0010
1000
0001
1000
,  // measure 8
0010
0100
0001
1001
,  // measure 9
0100
0000
0010
0000
,  // measure 10
0100
0000
0000
0100
0000
0000
0100
0000
0100
0000
0000
0000
0000
0000
0000
0000
,  // measure 11
1000
1000
0001
1001
,  // measure 12
0001
0001
1000
1001
,  // measure 13
0001
0010
0100
0110
,  // measure 14
1000
0100
0010
0110
,  // measure 15
1000
0100
0010
0100
,  // measure 16
0001
0010
0100
0010
,  // measure 17
0001
0100
0001
0100
,  // measure 18
1000
0010
1000
0010
,  // measure 19
1000
0100
1000
0100
,  // measure 20
0001
0010
0001
0010
,  // measure 21
0001
0001
0100
0100
,  // measure 22
0010
0010
1000
1000
,  // measure 23
0001
0100
0010
1000
,  // measure 24
0001
0100
1000
0010
,  // measure 25
0001
0100
1000
0010
,  // measure 26
0220
0000
0000
0330
,  // measure 27
1001
0000
0000
0000
,  // measure 28
0002
0000
0000
0000
,  // measure 29
0023
0000
0000
0030
,  // measure 30
2002
0000
0000
3003
,  // measure 31
0010
0000
0010
0000
,  // measure 32
0010
0000
0010
0000
,  // measure 33
0220
0000
0000
0330
,  // measure 34
2002
0000
3003
0000
,  // measure 35
2200
3300
0022
0033
,  // measure 36
0010
0000
0000
0010
0000
0000
0010
0000
0000
0010
0000
0000
0000
0000
0000
0000
,  // measure 37
0100
0000
0000
0100
0000
0000
0100
0000
0000
0100
0000
0000
0000
0000
0000
0000
,  // measure 38
0001
0100
1000
0100
,  // measure 39
0001
0010
0100
1000
,  // measure 40
0010
0010
0020
0000
,  // measure 41
0030
0000
0010
1001
,  // measure 42
1000
0001
1000
0001
,  // measure 43
0010
0100
0010
0100
,  // measure 44
0001
1000
0001
1000
,  // measure 45
0010
0010
0100
1001
,  // measure 46
0010
0100
0010
0100
,  // measure 47
0001
1000
0001
1000
,  // measure 48
0010
0010
0100
0100
,  // measure 49
0001
0010
0100
1000
,  // measure 50
0020
1000
0000
1000
,  // measure 51
0000
1030
0001
0001
,  // measure 52
2000
0100
0000
0100
,  // measure 53
0000
3100
1000
0100
,  // measure 54
0020
1000
0000
0130
,  // measure 55
0002
0100
0000
0013
,  // measure 56
0100
0100
0001
0001
,  // measure 57
0010
0000
0010
1001
,  // measure 58
0022
0000
0000
0030
,  // measure 59
0200
0000
0000
0300
,  // measure 60
2000
0000
0000
3000
,  // measure 61
0020
0000
0000
0033
,  // measure 62
1001
0001
0001
0001
,  // measure 63
0010
0010
1000
1000
,  // measure 64
0010
0001
0100
1000
,  // measure 65
0020
0230
0302
1003
,  // measure 66
0010
0000
1000
0000
0100
1000
0000
0100
,  // measure 67
0000
0010
0000
0001
0100
0000
0001
0000
,  // measure 68
1000
1000
0001
0001
,  // measure 69
0100
0010
1001
0001
,  // measure 70
0010
0000
0100
0000
1000
0100
0000
0010
,  // measure 71
0000
0001
0000
1000
0100
0000
0001
0000
,  // measure 72
1000
0000
0010
0000
0001
0100
0000
0220
,  // measure 73
0000
0330
1001
0110
,  // measure 74
2000
0001
0000
0001
,  // measure 75
0000
3001
0100
0010
,  // measure 76
0002
1000
0000
1000
,  // measure 77
0000
1003
0010
0100
,  // measure 78
0001
1001
1000
1001
,  // measure 79
0010
0110
0100
0110
,  // measure 80
0001
0001
0001
0000
1000
1000
1000
0000
,  // measure 81
1000
0100
0010
0001
,  // measure 82
1001
0000
0000
0000
;
