#TITLE:Desaparecer;
#SUBTITLE:;
#ARTIST:Applesoda vs. MAX;
#TITLETRANSLIT:;
#SUBTITLETRANSLIT:;
#ARTISTTRANSLIT:;
#GENRE:;
#CREDIT:;
#BANNER:Desaparecer.png;
#BACKGROUND:Desaparecer-bg.png;
#LYRICSPATH:;
#CDTITLE:;
#MUSIC:Desaparecer.ogg;
#OFFSET:-0.081000;
#SAMPLESTART:71.093201;
#SAMPLELENGTH:12.000000;
#SELECTABLE:YES;
#DISPLAYBPM:174.000000;
#BPMS:0.000000=174.000000
,69.000000=86.000000
,70.000000=174.000000
,100.000000=86.800003
,101.000000=174.000000
,267.000000=348.000000
,268.000000=174.000000
,274.000000=348.000000
,275.000000=174.000000
,281.000000=348.000000
,282.000000=174.000000
,286.000000=87.000000
,287.000000=87.099998
,288.000000=174.000000
;
#STOPS:40.000000=1.724000,
231.000000=0.345000,
231.500000=0.345000,
267.000000=0.129000,
267.250000=0.129000,
267.500000=0.129000,
267.750000=0.129000,
274.000000=0.129000,
274.250000=0.129000,
274.500000=0.129000,
274.750000=0.129000,
281.000000=0.129000,
281.250000=0.129000,
281.500000=0.129000,
281.750000=0.129000
;
#BGCHANGES:0.000=Desaparecer.avi=1.000=0=0=0=StretchNoLoop====,
99999=-nosongbg-=1.000=0=0=0 // don't automatically add -songbackground-
;
#KEYSOUNDS:;
#ATTACKS:;

//---------------dance-single - ----------------
#NOTES:
     dance-single:
     :
     Hard:
     16:
     0.840561,1.108894,0.466325,0.267451,0.870931,858.000000,790.000000,68.000000,39.000000,0.000000,0.000000,0.840561,1.108894,0.466325,0.267451,0.870931,858.000000,790.000000,68.000000,39.000000,0.000000,0.000000:
0000
0000
0000
0000
,
0000
0000
0000
0000
,
0000
0000
0000
0000
,
0000
0000
0000
0000
,
0000
0000
0000
0000
,
0000
0000
0000
0000
,
0000
0000
0000
0000
,
0000
0000
0000
0000
,
0000
0000
0000
0000
,
0000
0000
0000
0000
,
0000
0000
0000
0000
0101
0000
0000
0001
0100
0000
0000
0100
0010
0000
0000
0010
,
1000
0000
0000
1000
0100
0000
0000
0100
0010
0000
0000
0010
1000
0000
1001
0000
,
1001
0000
0101
0000
0101
0000
0000
0001
1000
0000
0000
1000
0010
0000
0000
0010
,
0100
0000
0000
0100
0001
0000
0000
0001
1000
0000
0000
1000
0010
0000
0010
0000
,
0110
0000
0110
0000
0100
0000
0000
0100
0001
0000
0000
0001
1000
0000
0000
1000
,
0001
0000
0000
0001
0010
0000
0000
0010
0100
0000
0000
0100
1000
0000
1000
0000
,
1010
0000
1010
0000
1001
0000
0000
0001
0010
0000
0000
0010
0100
0000
0000
0100
,
1000
0000
0000
1000
0002
0000
0000
0000
1003
0010
1000
0010
0100
0001
0100
0001
,
1000
0000
0101
1000
0000
1000
0110
0000
,
0001
0000
1000
0000
0010
0000
1000
0100
1000
0000
0010
0000
0100
0000
0001
0000
,
1000
0100
0010
0001
0100
0110
0000
1001
,
0100
0000
0000
0000
1001
0000
0010
0000
0000
0000
1010
0000
1000
0010
1000
0010
,
1000
0000
0011
0100
0000
1001
0100
0000
,
0011
1000
0000
1001
0100
0000
1001
0010
,
0000
0011
0100
0000
1010
0100
0000
0010
,
0200
0000
0000
0000
0301
0100
0001
0100
0010
1000
0010
1000
0001
0000
0000
0001
,
0010
0000
0000
0020
1000
0000
0000
1030
0010
0000
0000
0010
1000
0000
0000
1000
,
0100
0000
0000
0200
0001
0000
0000
0301
0100
0000
0000
0100
0010
0000
0000
0000
,
1000
0000
0001
0000
0100
0000
0001
0000
1000
0000
0000
0000
1010
0000
0000
0010
,
0100
0000
0000
0200
0001
0000
0000
0301
1000
0000
0010
0000
0100
0000
0000
0100
,
0010
0000
0000
0020
1000
0000
0000
1000
0031
0000
0000
0001
0100
0000
0000
0100
,
0001
0000
0000
0002
1000
0000
0000
1000
0103
0000
0000
0100
0010
0000
0000
0000
,
0001
0100
1000
0100
0001
0000
0010
1000
,
0001
0000
0010
0000
1000
0100
0010
0001
0100
0000
0010
0000
0110
0000
0010
0000
,
0000
1001
1001
1100
0000
0011
0011
0110
,
0000
1010
1010
0101
0000
0101
0101
0110
,
0000
1010
1010
1100
0000
0101
0101
1001
,
0000
0110
0110
1000
0001
1000
1100
0100
,
0010
0000
0001
0000
0100
0010
0100
0001
0100
0010
0100
0000
0001
0000
0100
0000
,
0010
0000
1000
0000
0100
0000
0010
0001
0100
0001
0010
0000
0001
0000
0001
0000
,
0001
0000
0001
0010
0100
0000
0100
0000
0100
0000
0100
1000
0010
1000
0010
1000
,
0010
1000
0010
1000
0010
1000
0100
0010
0001
0010
0100
1000
0002
0000
0010
0000
,
0010
0010
0000
0100
0100
0103
0001
1000
,
0100
0010
0100
1000
0001
0100
0020
1000
,
1000
1000
0000
0100
0100
0130
0010
1000
,
0100
0010
0001
0010
0100
1000
0002
0100
,
0100
0100
0000
1000
1000
1003
0001
1000
,
0100
0010
0001
0100
0010
0100
0002
0000
,
0100
1000
0013
0200
,
0310
0000
0000
0000
0001
0010
0100
0010
0001
1000
0100
0010
0001
0000
1000
0100
,
0000
0001
0010
0100
1000
0000
0010
0100
0000
0010
0100
0000
0001
0000
1000
0010
,
0000
0100
0001
1000
0000
0010
0000
1000
0001
0000
1000
0001
0100
0000
0001
0010
,
0000
1000
0100
0010
0001
0000
0100
0000
0001
0010
0100
0010
0001
0000
1000
0100
,
0000
0010
0001
0010
0000
0001
0000
1000
0100
0000
1000
0100
0010
0000
0001
0010
,
0000
1000
0100
0010
0001
0000
0100
0010
0000
1000
0001
0000
1000
0000
0010
1000
,
0000
0001
0010
0100
0000
1000
0000
0010
0100
0010
1000
0010
1000
0000
0001
0010
,
0000
1000
0100
0010
0001
0000
1000
0010
0000
0100
0001
0000
1000
0000
0001
0010
,
0000
1000
0100
0010
0000
0001
0000
1000
0001
0000
0100
0000
0110
0000
1001
0000
,
0110
0000
0000
0000
0001
0000
1000
0001
0000
1000
0001
0000
1000
0100
0000
0010
,
0001
0000
0100
0000
0010
0000
1000
0001
0000
1000
0010
0000
1000
0000
0001
0000
,
0100
0010
0100
0010
0100
0000
0000
0011
0000
0000
0101
0000
0000
1001
0000
0000
,
1010
0000
0001
0000
1000
0000
0100
0010
0000
0001
0010
0100
1000
0000
0010
0100
,
0000
0010
0100
0000
0001
0000
1000
0100
0000
0001
0010
0100
0000
1000
0000
0010
,
0100
0010
1010
1010
0101
0101
1001
0000
,
0110
0000
0000
0000
2001
0000
0001
0000
0001
0000
3001
0000
0001
1000
0100
0010
,
0001
0010
0100
1000
0010
0000
1000
0100
1000
0000
1000
0010
1000
0000
1000
0001
,
1000
0000
1000
0010
1000
0000
1000
0100
1000
0000
0100
0000
0002
2003
3002
2003
,
3001
0000
0100
0010
0100
0000
0001
0010
0001
0000
1000
0100
1000
0000
0001
0010
,
0100
0000
1000
0100
0010
0000
1000
0000
2000
3002
2003
3002
1003
0000
1000
0100
,
0010
0000
0001
0010
0001
0000
0100
0010
1000
0000
0001
0010
0001
0000
1000
0010
,
0100
0000
0001
0000
0200
0320
0230
0320
1030
0000
0001
0010
0100
0000
0010
0100
,
1000
0000
0100
0010
0001
0000
1000
0000
0220
0000
0000
0030
0301
0010
0100
1000
,
1001
0000
0000
0001
0010
0000
0000
0010
0100
0000
0000
0100
1000
0000
0000
2000
,
0100
0000
0000
0100
3010
0000
0000
0020
0001
0000
0000
0001
0130
0000
0000
0100
,
0010
0000
0000
0010
0100
0000
0000
0100
0001
0000
0000
0001
1000
0000
0000
2000
,
0100
0000
0000
0100
3010
0000
0000
0020
0100
0000
0000
0100
1030
0000
0000
1000
,
0001
0000
0100
0000
0010
0000
1000
0001
1000
0000
0000
1000
0100
0000
0000
0200
,
0010
0000
0000
0010
0301
0000
0000
0002
0100
0000
0000
0100
0013
0000
0000
0010
,
1000
0000
1000
0100
0010
0000
0100
0000
0001
0000
0001
0010
0100
0000
0010
0000
,
1000
0001
1000
0001
0100
0010
0100
0010
1000
0100
0010
0001
0010
0100
1000
0010
,
0100
0000
0000
0001
1001
0000
0000
0000
0010
0000
0000
1000
1001
0000
0000
0000
,
0010
0000
0000
0010
1000
0000
0000
1000
0100
0000
0000
0100
0010
0000
0000
0010
,
0001
0000
0000
0001
0100
0000
0000
0100
0010
0000
1000
0000
0100
0000
0001
0000
,
0010
0000
0000
0010
1000
0000
0000
0000
0010
0000
0001
0000
0100
0000
1000
0000
,
0010
0000
0000
0010
1000
0000
0001
0000
0010
0000
0000
0010
0001
0000
1000
0000
,
0100
0000
0000
0100
1000
0000
0010
0000
0100
0000
0000
0100
0001
0000
0010
0000
,
0001
0001
0100
0100
1000
1000
1000
1000
,
0010
0000
0010
0000
0100
0000
0100
0000
0001
0010
0100
0010
0100
1000
0100
0010
,
0001
0000
1000
0000
0010
0000
1000
0000
0100
0010
0100
0010
1000
0001
1000
0001
,
0100
0000
0010
0000
1000
0000
0100
0000
0010
0001
0010
0001
1000
0100
1000
0100
,
0010
0000
0001
0000
0100
0000
1000
0000
0001
0010
0001
0010
0100
1000
0100
1000
,
0010
0000
1000
0000
0100
0000
0001
0000
1000
0010
1000
0010
0100
0001
0100
0001
,
1000
0000
0110
0000
1001
0000
0000
0000
0001
0000
0110
0000
1001
0000
1000
0010
,
2000
0000
3100
0010
0002
0000
0013
0100
2000
0000
3010
0100
0002
0000
0103
0010
,
1000
0100
1000
0100
0010
0001
0010
0001
1000
0010
0100
0001
0100
1000
0100
0001
,
1000
0100
1000
0100
0010
0001
0010
0001
1000
0100
0010
0100
0010
0001
0010
0200
,
2000
0000
0000
0000
,
0000
0000
0000
0000
,
3300
0000
0000
0000
;

//---------------dance-double - ----------------
#NOTES:
     dance-double:
     :
     Hard:
     16:
     0.726919,0.873674,0.418321,0.246878,0.702917,742.000000,681.000000,61.000000,36.000000,0.000000,0.000000,0.726919,0.873674,0.418321,0.246878,0.702917,742.000000,681.000000,61.000000,36.000000,0.000000,0.000000:
00000000
00000000
00000000
00000000
,
00000000
00000000
00000000
00000000
,
00000000
00000000
00000000
00000000
,
00000000
00000000
00000000
00000000
,
00000000
00000000
00000000
00000000
,
00000000
00000000
00000000
00000000
,
00000000
00000000
00000000
00000000
,
00000000
00000000
00000000
00000000
,
00000000
00000000
00000000
00000000
,
00000000
00000000
00000000
00000000
,
00000000
00000000
00000000
00000000
10010000
00000000
00000000
10000000
01000000
00000000
00000000
01000000
00100000
00000000
00000000
00100000
,
00010000
00000000
00000000
00010000
00001000
00000000
00000000
00001000
00000100
00000000
00000000
00000100
00000010
00000000
00000001
00000000
,
00000100
00000000
00001000
00000000
00000010
00000000
00000000
00000010
00001000
00000000
00000000
00001000
00010000
00000000
00000000
00010000
,
00100000
00000000
00000000
00100000
01000000
00000000
00000000
01000000
10000000
00000000
00000000
10000000
00100000
00000000
10000000
00000000
,
01000000
00000000
00010000
00000000
00100000
00000000
00000000
00100000
00010000
00000000
00000000
00010000
00001000
00000000
00000000
00001000
,
00000010
00000000
00000000
00000010
00000100
00000000
00000000
00000100
00000001
00000000
00000000
00000001
00000010
00000000
00000001
00000000
,
00000100
00000000
00001000
00000000
00000010
00000000
00000000
00000010
00001000
00000000
00000000
00001000
00010000
00000000
00000000
00010000
,
01000000
00000000
00000000
01000000
00200000
00000000
00000000
00000000
10300000
00000000
01000000
00000000
00010000
00000000
00100000
00000000
,
00010000
00000000
01010000
10000000
00000000
10000000
01100000
00000000
,
10100000
00010000
00000000
00010000
01100000
00000000
00010000
00100000
,
00000000
00001000
00011000
00000000
00010100
00000100
00000000
00001010
,
00000100
00000000
00000011
00000100
00000000
00001000
00000100
00000010
,
00000001
00000000
00000110
00001000
00000000
00001000
00001100
00000000
,
00011000
00010000
00000000
00001000
00101000
00000000
00010000
01100000
,
00000000
10000000
01010000
00000000
10000000
00100000
01000000
00010000
,
00200000
00000000
00000000
00000000
10300000
01000000
10000000
01000000
00100000
00000000
00010000
00000000
01000000
00000000
00000000
01000000
,
00100000
00000000
00000000
00100000
10000000
00000000
00000000
10000000
01000000
00000000
00100000
00000000
00010000
00000000
00000000
00010000
,
00001000
00000000
00000000
00001000
00000100
00000000
00000000
00000100
00000010
00000000
00000001
00000000
00000100
00000000
00000000
00000100
,
00000010
00000000
00000000
00000010
00001000
00000000
00000000
00001000
00000100
00000000
00010000
00000000
00001000
00000000
00000000
00001000
,
01000000
00000000
00000000
01000000
00010000
00000000
00000000
00010000
10000000
00000000
00100000
00000000
01000000
00000000
00000000
01000000
,
00100000
00000000
00000000
00100000
00010000
00000000
00000000
00010000
00001000
00000000
00010000
00000000
00000100
00000000
00000000
00000100
,
00001000
00000000
00000000
00001000
00000001
00000000
00000000
00000001
00000010
00000000
00000001
00000000
00000100
00000000
00000000
00000000
,
00000010
00001000
00000100
00000000
00001001
00000000
00001100
00000000
,
00000100
00000000
00010000
00000000
00001000
00010000
00001000
00010000
00001000
00000000
00100000
00000000
00010000
00000000
01010000
00000000
,
00000000
10010000
10010000
01010000
00000000
00110000
00110000
00011000
,
00000000
00001010
00001010
00000101
00000000
00001001
00001001
00001100
,
00000000
00011000
00011000
00101000
00000000
01010000
01010000
10010000
,
00000000
10100000
10100000
10000000
00010000
00100000
00002000
00000000
,
00013000
00000100
00001000
00000001
00000100
00000010
00000200
00000000
,
00000310
00001000
00000100
00010000
00001000
01000000
00010000
00010000
,
00010000
00000000
00010000
00100000
01000000
00000000
01000000
00000000
01000000
00000000
01000000
10000000
00100000
01000000
00100000
01000000
,
00100000
01000000
00100000
01000000
00010000
00000000
00000000
01000000
00000000
00000000
10000000
00000000
00100000
00000000
02000000
00000000
,
00000000
00010000
00000000
00001000
00000000
03010000
00000000
00001000
,
00010000
00000000
00000100
00000000
00001000
00000000
00000000
00000010
00000000
00000000
00000001
00000000
00000000
00000000
00000200
00000000
,
00000000
00000010
00000000
00001000
00000000
00000310
00000000
00001000
,
00000100
00000000
00010000
00000000
00001000
00000000
00000000
00100000
00000000
00000000
00010000
00000000
00000000
00000000
02000000
00000000
,
00000000
10000000
00000000
00100000
00000000
13000000
00020000
00000000
,
00130000
00000000
00011000
00000000
00001100
00000000
00000020
00000100
,
00000100
00000100
00000100
00000100
00000100
00000130
00000001
00000010
,
00000100
00000000
00010000
00000000
00001000
00010000
00001000
00010000
00001000
00010000
00001000
00010000
00001000
00000000
00000000
00001000
,
00000000
00000000
00100000
00010000
00100000
00000000
00000000
00010000
00000000
00000000
01000000
00000000
00100000
00000000
10000000
00100000
,
00000000
10000000
00100000
00000000
01000000
00010000
00000000
01000000
00010000
00000000
00100000
00000000
00001000
00000000
00010000
00001000
,
00000000
00000000
00010000
00000000
00000100
00000000
00001000
00000000
00000001
00000010
00000100
00000010
00000001
00000000
00001000
00000100
,
00000000
00001000
00000100
00000000
00010000
00001000
00000000
00010000
00001000
00000000
01000000
00000000
00010000
00000000
10000000
00100000
,
00000000
10000000
01000000
00100000
00010000
00000000
00100000
00001000
00000000
00000000
00100000
00000000
00001000
00000000
00010000
00000100
,
00000000
00001000
00000100
00000010
00000001
00000000
00000100
00000010
00000000
00000000
00001000
00000000
00000010
00000000
00001000
00000100
,
00000000
00000010
00000001
00000000
00000100
00000000
00000001
00000010
00000000
00000100
00001000
00000000
00002002
00000000
00000000
00000000
,
00000000
00000000
00000000
00000000
00003003
00000000
00011000
01100000
,
11000000
00000000
00000000
00000000
00100000
00000000
00010000
00100000
00000000
00010000
00100000
00000000
00001000
00010000
00000000
00001000
,
00010000
00000000
00000100
00000000
00001000
00000000
00000001
00000010
00000000
00000100
00001000
00000000
00000010
00000000
00001000
00000100
,
00000010
00000100
00001000
00000100
00001000
00000000
00000000
00011000
00000000
00000000
00110000
00000000
00000000
01100000
00000000
00000000
,
10000000
00000000
01000000
00100000
00010000
00000000
00100000
00010000
00000000
00100000
00001000
00010000
00001000
00000000
00010000
00000100
,
00000000
00000000
00001000
00000000
00000001
00000000
00000010
00000001
00000000
00000100
00000010
00001000
00000010
00000000
00001000
00000100
,
00000000
00010000
00011000
00011000
00101000
00101000
01010000
00000000
,
11000000
00000000
00000000
00000000
00200000
00000000
00010000
00000000
00010000
00000000
00310000
00000000
10000000
01000000
00100000
00010000
,
10000000
01000000
00100000
00010000
01000000
00000000
00000000
01000000
00100000
00000000
00000000
00100000
00010000
00000000
00000000
00010000
,
00001000
00000000
00000000
00001000
00000100
00000000
00000000
00000100
00001000
00000000
00000000
00000000
00002000
00023000
02030000
03020000
,
10030000
00000000
00000000
10000000
00100000
00000000
00000000
00100000
01000000
00000000
00000000
01000000
00010000
00000000
00000000
00010000
,
00001000
00000000
00000000
00001000
00010000
00000000
00000000
00000000
00002000
00003200
00000320
00000230
00000301
00000000
00000000
00001000
,
00000100
00000000
00000000
00000100
00000010
00000000
00000000
00000010
00000100
00000000
00000000
00000100
00001000
00000000
00000000
00001000
,
00010000
00000000
00000000
00000000
00002000
00023000
00230000
00320000
01030000
00000000
00000000
01000000
00100000
00000000
00000000
00100000
,
10000000
00000000
00000000
10000000
01000000
00000000
00000000
01000000
00200000
00000000
00000000
00000000
10300000
01000000
00100000
00010000
,
01000000
00000000
00000000
01000000
00100000
00000000
00000000
00100000
10000000
00000000
00000000
10000000
01000000
00000000
00000000
02000000
,
00100000
00000000
00000000
00100000
03010000
00000000
00000000
00020000
01000000
00000000
00000000
01000000
00130000
00000000
00000000
00100000
,
01000000
00000000
00000000
01000000
00010000
00000000
00000000
00000000
00010000
00000000
00000000
00010000
00001000
00000000
00000000
00000000
,
00001000
00000000
00000000
00002000
00000010
00000000
00000000
00003020
00000100
00000000
00000000
00000100
00000031
00000000
00000000
00000000
,
00001001
00000000
00000000
00000000
00001000
00000100
00000010
00000100
00001000
00000000
00000000
00001000
00000100
00000000
00000000
00000100
,
00010000
00000000
00000000
00000000
00001000
00100000
00010000
00100000
00001000
00000000
00000000
00000000
00110000
00000000
00000000
00000000
,
00010000
00000000
00000000
00000000
10000000
01000000
00100000
01000000
10000000
00000000
00000000
00000000
00010000
00100000
01000000
00100000
,
00010000
00000000
00010000
00000000
10000000
00000000
10000000
00000000
00100000
01000000
00100000
01000000
00010000
00000000
00100000
00000000
,
00001000
00000000
00000000
00001000
00010000
00000000
00000000
00010000
00000100
00000000
00000000
00000100
00001000
00000000
00000100
00000000
,
00000010
00000000
00000000
00000010
00000001
00000000
00000000
00000001
00000100
00000000
00000000
00000100
00001000
00000000
00000100
00000000
,
00010000
00000000
00000000
00010000
00001000
00000000
00000000
00001000
00100000
00000000
00000000
00100000
00010000
00000000
01000000
00000000
,
10000000
00000000
00000000
10000000
01000000
00000000
00000000
01000000
00100000
00000000
00010000
00000000
00100000
00001000
00010000
00001000
,
00010000
00000000
00000000
00000000
00000100
00000000
00000000
00000000
00001000
00000100
00000010
00000100
00001000
00000001
00000010
00000100
,
00000010
00000000
00000000
00000010
00000100
00000000
00000000
00000000
00001000
00000100
00010000
00000100
00001000
00000000
00000000
00000000
,
00010000
00000000
00000000
00010000
00001000
00000000
00000000
00002000
00100000
00000000
00000000
00100000
00013000
00000000
00000000
00020000
,
01000000
00000000
00000000
01000000
00130000
00000000
00000000
00200000
10000000
00000000
00000000
10000000
01300000
00000000
00000000
00000000
,
00010000
00100000
00010000
00100000
01000000
10000000
01000000
10000000
00100000
00000000
01000000
00000000
00001000
00000000
00010000
00000000
,
00000100
00001000
00000100
00001000
00000001
00000010
00000001
00000010
00000001
00000000
00001000
00000000
00000100
00000000
00010000
00000000
,
00001000
00010000
00001000
00010000
00000100
00001000
00000100
00001000
00000001
00000000
00001000
00000000
00000100
00000000
00010000
00000000
,
00001000
00100000
00001000
00100000
00010000
01000000
00010000
01000000
00100000
00000000
10000000
00000000
01000000
00000000
00010000
00000000
,
00100000
01100000
10010000
00000000
00010000
00110000
01010000
00000000
,
10000000
01000000
00010000
00100000
00001000
00010000
00000100
00001000
,
00000010
00000000
00000010
00000000
00000010
00000000
00000010
00000000
00000100
00000010
00000100
00000010
00000100
00000010
00000100
00000000
,
00002002
00000000
00000000
00003003
,
00022000
00000000
00000000
00000000
,
00000000
00000000
00000000
00000000
,
00033000
00000000
00000000
00000000
;

//---------------dance-double - ----------------
#NOTES:
     dance-double:
     :
     Medium:
     13:
     0.594663,0.705660,0.521187,0.123439,0.356602,607.000000,531.000000,76.000000,18.000000,0.000000,0.000000,0.594663,0.705660,0.521187,0.123439,0.356602,607.000000,531.000000,76.000000,18.000000,0.000000,0.000000:
00000000
00000000
00000000
00000000
,
00000000
00000000
00000000
00000000
,
00000000
00000000
00000000
00000000
,
00000000
00000000
00000000
00000000
,
00000000
00000000
00000000
00000000
,
00000000
00000000
00000000
00000000
,
00000000
00000000
00000000
00000000
,
00000000
00000000
00000000
00000000
,
00000000
00000000
00000000
00000000
,
00000000
00000000
00000000
00000000
,
00000000
10010000
00110000
00011000
,
00001100
00000000
00001010
00000000
00001001
00000000
00000001
00000010
,
00000100
00001000
00000010
00000000
00001001
00000000
00001100
00000000
,
00011000
00000000
01010000
00000000
10010000
00000000
10000000
01000000
,
00100000
00010000
01000000
00000000
00101000
00000000
00011000
00000000
,
00001010
00000000
00000101
00000000
00001010
00000000
00000010
00001000
,
00000100
00010000
00001000
00000000
00110000
00000000
01100000
00000000
,
10100000
00000000
20020000
30030000
00100000
10000000
01000000
00000000
,
00100000
00001000
00010000
00001000
00000000
00000100
00001000
00000000
,
00000001
00000010
00000000
00000100
00001000
00000000
00010000
00100000
,
00000000
01000000
10000000
00000000
00100000
00010000
00000000
00001000
,
00000100
00000000
00010000
00001000
00000000
00100000
00010000
01000000
,
00100000
00000000
10000000
00010000
00000000
00010000
00100000
00000000
,
00001000
00010000
00000000
00010000
00000010
00000000
00001000
00000100
,
00000000
00000010
00000001
00000000
00001000
00000100
00000000
00010000
,
00011000
00000000
00000000
00000000
00100000
00000000
00010000
00000000
01000000
00000000
10000000
00000000
00100000
00000000
00000000
00100000
,
10000000
00000000
00000000
10000000
01000000
00000000
00000000
01000000
00100000
00000000
00000000
00100000
00010000
00000000
00000000
00010000
,
00001000
00000000
00000000
00001000
00010000
00000000
00000000
00010000
00100000
00000000
00000000
00100000
01000000
00000000
00000000
00000000
,
10000000
00000000
00010000
00000000
00000000
00000000
00100000
00000000
01000000
00000000
00000000
00000000
00010000
00000000
00000000
00010000
,
00100000
00000000
00000000
00100000
01000000
00000000
00000000
01000000
00100000
00000000
00000000
00100000
00001000
00000000
00000000
00001000
,
00010000
00000000
00000000
00010000
00001000
00000000
00000000
00001000
00000100
00000000
00000000
00000100
00000010
00000000
00000000
00000010
,
00000001
00000000
00000000
00000001
00000100
00000000
00000000
00000100
00000010
00000000
00000000
00000010
00001000
00000000
00000000
00000000
,
00000001
00000100
00000000
00001000
00000100
00000000
00000110
00000000
,
00001001
00000000
00000001
00000010
00000100
00001000
00000100
00000100
,
00000000
00010000
00011000
00001000
00000000
00100000
00110000
00010000
,
00000000
01000000
01100000
00100000
00000000
10000000
10010000
00010000
,
00000000
00100000
00010000
01000000
10000000
00000000
10010000
00000000
,
01100000
00000000
00000000
00000000
10000000
00000000
01000000
00000000
00100000
00000000
00010000
00000000
01000000
00000000
00000000
01000000
,
00100000
00000000
00000000
00100000
10000000
00000000
00000000
00000000
00010000
00000000
00100000
00000000
00001000
00000000
00000000
00000000
,
00001000
00010000
00000100
00000000
00001100
00000000
00000010
00000010
,
00000010
00000010
00000001
00000001
00000001
00000001
00000100
00000100
,
00000100
00000100
00000110
00000000
00001001
00000000
00000001
00000010
,
00000100
00000000
00010000
00001000
01000000
00000000
10000000
01000000
,
00100000
00000000
00001000
00010000
00000010
00000000
00001000
00000100
,
00000010
00000000
00010000
00001000
01000000
00000000
10000000
00010000
,
00100000
00000000
00001000
00010000
00000010
00000000
00001000
00000100
,
00000001
00000000
00000010
00000000
00001000
00000000
00010000
00100000
,
10000000
00000000
01000000
00000000
00010000
00000000
00002000
00010000
,
00013000
00000000
00020000
00001000
00031000
00000000
00100000
00100000
,
00100000
00000000
00100000
00000000
00100000
00000000
00100000
00000000
00100000
00000000
00000000
00000000
00010000
00000000
00000000
00010000
,
00000000
00000000
00010000
10000000
00010000
00000000
00000000
00100000
00000000
00000000
00001000
00000000
00010000
00000000
00000000
00010000
,
00000000
00000000
00010000
00000000
00000000
00010000
00000000
00000000
00000100
00000000
00001000
00000100
00001000
00000000
00000000
00001000
,
00000000
00000000
00000001
00001000
00000001
00000000
00000000
00000001
00000000
00000000
00000100
00000000
00000010
00000000
00000100
00000010
,
00000000
00000100
00000010
00000000
00000000
00000010
00000000
00000000
00001000
00000000
00000100
00000000
00010000
00000000
00001000
00010000
,
00000000
00000000
00001000
00010000
00001000
00000000
00000000
00001000
00000000
00000000
00100000
00000000
00010000
00000000
01000000
00010000
,
00000000
00000000
01000000
00010000
01000000
00000000
00000000
01000000
00000000
00000000
00100000
00000000
10000000
00000000
00010000
10000000
,
00000000
00000000
00100000
00000000
10000000
00000000
00000000
01000000
00000000
00000000
00100000
00000000
00002000
00000000
00000000
00010000
,
00000000
00000000
00010000
00000000
00000000
00010000
00000000
00000000
00013000
00000000
00000000
00000000
00022000
00000000
00033000
00000000
,
00011000
00000000
00000000
00000000
00010000
00000000
00000000
00001000
00000000
00000000
00000100
00000000
00000000
00000010
00000000
00000000
,
00000001
00000000
00001000
00000000
00000100
00000000
00001000
00000100
00000000
00000000
00010000
00000000
00001000
00000000
00000000
00010000
,
00000000
00000000
00100000
00000000
01000000
00000000
00100000
01000000
00000000
00100000
01000000
00000000
00100000
01000000
00000000
00000000
,
00010000
00000000
10000000
00000000
00100000
00000000
01000000
00100000
00000000
00000000
10000000
00010000
10000000
00000000
10000000
01000000
,
00000000
01000000
00100000
00000000
00010000
00000000
00000000
01000000
00000000
00000000
00001000
00000000
00000000
00010000
00000000
00000000
,
00000100
00001000
00000010
00000010
00000100
00000100
00000110
00000000
,
00001001
00000000
00000000
00000000
00000100
00000000
00000100
00000000
00000100
00000000
00000100
00000000
00000001
00000010
00000100
00001000
,
00000001
00000010
00000100
00001000
00000001
00000000
00000000
00000000
00000101
00000000
00000000
00000000
00001100
00000000
00000000
00000000
,
00011000
01010000
11000000
20000000
,
30010000
11000000
01010000
00011000
,
00001100
00000101
00000020
00000130
,
00000101
00001010
00011000
01010000
,
10100000
00200000
00310000
01010000
,
00011000
00001100
00002002
00003003
,
00000011
00000000
00000000
00000001
00001000
00000000
00000000
00000000
00001100
00000000
00000000
00000100
00010000
00000000
00000000
00000000
,
00011000
00000000
00000000
00001000
00010000
00000000
00000000
00010000
00100000
00000000
00000000
00100000
01000000
00000000
00000000
01000000
,
10000000
00000000
00000000
10000000
01000000
00000000
00000000
00000000
01010000
00000000
00000000
00010000
01000000
00000000
00000000
00000000
,
00110000
00000000
00000000
00010000
01000000
00000000
00000000
01000000
00010000
00000000
00000000
00010000
00001000
00000000
00000000
00000000
,
00010100
00000000
00000000
00000100
00001000
00000000
00000000
00001000
00000010
00000000
00000000
00000000
00001001
00000000
00000000
00000000
,
00000110
00000000
00000000
00000010
00001000
00000000
00000000
00001000
00000100
00000000
00000000
00000000
00011000
00000000
00000000
00000000
,
00001000
00000100
00000001
00000000
00001000
00000010
00000001
00000000
,
00001000
00000100
00000010
00000100
00001000
00000000
00011000
00000000
,
00010000
00000000
01000000
00010000
01000000
00000000
00000000
00000000
00100000
00000000
10000000
00100000
10000000
00000000
00000000
00000000
,
00100000
00000000
00000000
00100000
10000000
00000000
00000000
10000000
01000000
00000000
00000000
01000000
00100000
00000000
00000000
00100000
,
00010000
00000000
00000000
00010000
00001000
00000000
00000000
00001000
00000010
00000000
00000000
00000010
00000001
00000000
00000000
00000001
,
00000100
00000000
00000000
00000100
00001000
00000000
00000000
00001000
00010000
00000000
00000000
00010000
00001000
00000000
00000000
00001000
,
01000000
00000000
00100000
01000000
00100000
00000000
00000000
00000000
10010000
00000000
00000000
10000000
00100000
00000000
00000000
00100000
,
00010000
00000000
00000000
00010000
00001000
00000000
00000000
00001000
00000010
00000000
00000000
00000010
00000001
00000000
00000000
00000001
,
00000100
00000000
00000000
00000100
00000010
00000000
00000000
00000000
00002002
00000000
00000000
00000000
00003003
00000000
00000000
00000000
,
00000010
00000000
00000010
00000000
00000010
00000000
00000010
00000000
00001000
00000100
00001000
00000000
00000001
00000010
00000001
00000000
,
00001000
00000000
00000010
00001000
00000000
00010000
00100000
00000000
,
10000000
01000000
00000000
01000000
00010000
00000000
10010000
00000000
,
01010000
00000000
01000000
00010000
00000000
00010000
00001000
00000000
,
00001000
00000100
00000000
00000100
00000010
00000000
00001001
00000000
,
00001000
00000000
00000000
00001010
00000000
00000000
00000001
00000000
00000000
00000011
00000000
00000000
00001000
00000000
00000000
00001100
,
00000000
00000000
00010000
00000000
00000000
00011000
00000000
00000000
00100000
00000000
00010000
00000000
01000000
00000000
10000000
00000000
,
00100000
00100000
00100000
00100000
00001000
00001000
00001000
00001000
,
00022000
00000000
00000000
00033000
,
00022000
00000000
00000000
00000000
,
00000000
00000000
00000000
00000000
,
00033000
00000000
00000000
00000000
;

//---------------dance-single - ----------------
#NOTES:
     dance-single:
     :
     Medium:
     13:
     0.602500,0.672057,0.246878,0.144012,0.507472,615.000000,579.000000,36.000000,21.000000,0.000000,0.000000,0.602500,0.672057,0.246878,0.144012,0.507472,615.000000,579.000000,36.000000,21.000000,0.000000,0.000000:
0000
0000
0000
0000
,
0000
0000
0000
0000
,
0000
0000
0000
0000
,
0000
0000
0000
0000
,
0000
0000
0000
0000
,
0000
0000
0000
0000
,
0000
0000
0000
0000
,
0000
0000
0000
0000
,
0000
0000
0000
0000
,
0000
0000
0000
0000
,
0000
0000
0000
0000
1001
0000
0000
0001
0010
0000
0000
0010
0001
0000
0000
0001
,
0100
0000
0000
0100
0010
0000
0000
0010
1000
0000
0000
1000
0001
0000
0010
0000
,
0100
0000
1000
0000
0010
0000
0000
0010
1000
0000
0000
1000
0100
0000
0000
0100
,
0010
0000
0000
0010
0001
0000
0000
0001
1000
0000
0000
1000
0001
0000
0100
0000
,
0010
0000
1000
0000
0100
0000
0000
0100
0010
0000
0000
0010
0001
0000
0000
0001
,
1000
0000
0000
1000
0100
0000
0000
0100
0010
0000
0000
0010
0001
0000
1000
0000
,
0010
0000
1000
0000
0001
0000
0000
0001
0010
0000
0000
0010
0100
0000
0000
0100
,
1000
0000
2002
3003
0010
1000
0100
0000
,
0010
0001
1000
0001
0000
1000
0100
0000
,
0010
0001
0000
0010
0100
0000
0001
0010
,
0000
0100
1000
0000
0010
0001
0000
1000
,
0100
0000
0001
1000
0000
0010
0001
0100
,
0010
0000
1000
0001
0000
0001
0010
0000
,
0100
0001
0000
1000
0010
0000
1000
0100
,
0000
0010
0001
0000
1000
0100
0000
0001
,
1001
0000
0000
0000
0010
0000
0001
0000
0100
0000
1000
0000
0010
0000
0000
0010
,
1000
0000
0000
1000
0100
0000
0000
0100
0010
0000
0000
0010
0001
0000
0000
0001
,
1000
0000
0000
1000
0001
0000
0000
0001
0010
0000
0000
0010
0100
0000
0000
0000
,
1000
0000
0001
0000
0000
0000
0010
0000
0100
0000
0000
0000
0001
0000
0000
0001
,
0010
0000
0000
0010
0100
0000
0000
0100
0010
0000
0000
0010
0001
0000
0000
0001
,
0100
0000
0000
0100
0010
0000
0000
0010
1000
0000
0000
1000
0100
0000
0000
0100
,
0010
0000
0000
0010
0001
0000
0000
0001
0100
0000
0000
0100
0010
0000
0000
0000
,
1000
0100
0000
0010
0001
0000
0110
0000
,
1001
0000
0001
0010
0100
1000
0100
0100
,
0000
1000
1001
0001
0000
0010
0011
0001
,
0000
0100
0110
0010
0000
0001
1001
1000
,
0000
0010
1000
0100
0001
0000
1001
0000
,
0110
0000
0000
0000
1000
0000
0100
0000
0010
0000
0001
0000
0100
0000
0000
0100
,
0010
0000
0000
0010
1000
0000
0000
0000
0001
0000
0010
0000
0001
0000
0000
0000
,
0001
0100
0010
0000
0110
0000
1000
1000
,
1000
1000
0100
0100
0100
0100
0010
0010
,
0010
0010
0110
0000
1001
0000
1000
0100
,
0010
0000
0001
0010
0100
0000
1000
0100
,
0010
0000
0001
0100
1000
0000
0001
0010
,
0100
0000
1000
0010
0100
0000
1000
0001
,
0010
0000
0001
0100
1000
0000
0010
0010
,
0010
0000
1000
0100
0001
0000
0001
0010
,
1000
0000
0100
0000
1001
0000
0200
0001
,
0301
0000
2000
0010
3010
0000
0100
0100
,
0100
0000
0100
0000
0100
0000
0100
0000
0100
0000
0000
0000
0001
0000
0000
0001
,
0000
0000
0001
1000
0001
0000
0000
0010
0000
0000
0001
0000
1000
0000
0000
1000
,
0000
0000
1000
0000
0000
1000
0000
0000
0010
0000
0100
0010
0100
0000
0000
0100
,
0000
0000
0010
1000
0010
0000
0000
0010
0000
0000
0100
0000
0001
0000
1000
0001
,
0000
1000
0001
0000
0000
0001
0000
0000
1000
0000
0100
0000
0010
0000
0000
0010
,
0000
0000
0001
0100
0001
0000
0000
0100
0000
0000
0010
0000
1000
0000
0001
1000
,
0000
0000
0001
1000
0001
0000
0000
0100
0000
0000
0010
0000
1000
0000
0000
0100
,
0000
0000
0010
0000
0001
0000
0000
0100
0000
0000
0010
0000
2000
0000
0000
0001
,
0000
0000
0001
0000
0000
0001
0000
0000
3001
0000
0000
0000
2002
0000
3003
0000
,
1001
0000
0000
0000
0001
0000
0000
0010
0000
0000
0100
0000
0000
1000
0000
0000
,
0010
0000
0100
0000
0010
0000
0100
0010
0000
0000
1000
0000
0100
0000
0000
0010
,
0000
0000
0001
0000
0100
0000
0010
0100
0000
0010
0100
0000
0010
0100
0000
0000
,
0001
0000
1000
0000
0010
0000
0100
0010
0000
0000
1000
0001
1000
0000
1000
0100
,
0000
0100
0010
0000
0001
0000
0000
0100
0000
0000
0010
0000
0000
1000
0000
0000
,
0010
1000
0100
0010
0001
0001
1001
0000
,
0110
0000
0000
0000
0010
0000
0010
0000
0010
0000
0010
0000
0100
0010
0100
0010
,
0100
0010
0100
0000
0001
0000
0000
0000
0101
0000
0000
0100
0001
0000
0000
0001
,
1000
0000
0000
1000
0100
0000
0000
0100
0010
0000
0000
0010
2000
0000
3002
0000
,
0103
0000
0000
0100
1000
0000
0000
1000
0010
0000
0000
0010
0001
0000
0000
0001
,
0010
0000
0000
0010
0100
0000
0000
0100
0002
0000
2003
0000
3010
0000
0000
0010
,
1000
0000
0000
1000
0100
0000
0000
0100
0010
0000
0000
0010
0001
0000
0000
0001
,
1000
0000
0000
1000
0020
0000
0230
0000
0301
0000
0000
0001
0100
0000
0000
0100
,
0001
0000
0000
0001
1000
0000
0000
0000
2002
0000
3003
0000
0001
0010
0100
1000
,
0010
0000
0000
0010
1000
0000
0000
1000
0100
0000
0000
0100
0001
0000
0000
0001
,
1000
0000
0000
1000
0001
0000
0000
0001
0010
0000
0000
0010
0100
0000
0000
0100
,
1000
0000
0000
1000
0100
0000
0000
0100
0001
0000
0000
0001
0100
0000
0000
0100
,
0001
0000
0000
0001
1000
0000
0000
1000
0010
0000
0000
0010
1000
0000
0000
1000
,
0100
0000
0000
0100
0010
0000
0000
0010
0001
0000
0000
0000
1001
0000
0000
0000
,
0110
0000
0000
0010
1000
0000
0000
1000
0100
0000
0000
0000
1001
0000
0000
0000
,
1000
0010
0001
0000
0001
0010
0100
0000
,
1000
0100
0010
0100
1000
0000
1001
0000
,
0001
0000
0100
0001
0100
0000
0000
0000
0010
0000
1000
0010
1000
0000
0000
0000
,
0010
0000
0000
0010
1000
0000
0000
1000
0100
0000
0000
0100
0010
0000
0000
0010
,
0001
0000
0000
0001
0010
0000
0000
0010
0100
0000
0000
0100
0010
0000
0000
0010
,
1000
0000
0000
1000
0100
0000
0000
0100
0001
0000
0000
0001
0100
0000
0000
0000
,
0100
0000
0010
0100
0010
0000
0000
0000
1001
0000
0000
1000
0010
0000
0000
0010
,
0001
0000
0000
0001
0010
0000
0000
0010
0100
0000
0000
0100
1000
0000
0000
1000
,
0100
0000
0000
0100
0001
0000
0000
0000
2002
0000
0000
0000
3003
0000
0000
0000
,
0010
0010
0010
0010
1000
0100
0010
0001
,
1000
0000
0010
1000
0000
0001
0010
0000
,
1000
0100
0000
0100
0001
0000
1001
0000
,
0101
0000
0100
0001
0000
0001
1000
0000
,
0001
0010
0000
0010
0100
0000
1001
0000
,
1000
0000
0000
1010
0000
0000
0010
0000
0000
0110
0000
0000
0100
0000
0000
0101
,
0000
0000
0001
0000
0000
1001
0000
0000
0010
0000
0100
0000
0001
0000
1000
0000
,
0010
0010
0010
0010
0100
0100
0100
0100
,
2002
0000
0000
3003
,
2002
0000
0000
0000
,
0000
0000
0000
0000
,
3003
0000
0000
0000
;

//---------------dance-double - ----------------
#NOTES:
     dance-double:
     :
     Easy:
     7:
     0.342886,0.436837,0.240020,0.260593,0.000000,350.000000,315.000000,35.000000,38.000000,0.000000,0.000000,0.342886,0.436837,0.240020,0.260593,0.000000,350.000000,315.000000,35.000000,38.000000,0.000000,0.000000:
00000000
00000000
00000000
00000000
,
00000000
00000000
00000000
00000000
,
00000000
00000000
00000000
00000000
,
00000000
00000000
00000000
00000000
,
00000000
00000000
00000000
00000000
,
00000000
00000000
00000000
00000000
,
00000000
00000000
00000000
00000000
,
00000000
00000000
00000000
00000000
,
00000000
00000000
00000000
00000000
,
00000000
00000000
00000000
00000000
,
00000000
10010000
10000000
01000000
,
00010000
00000000
00001000
00000000
00000100
00000000
00000001
00001000
,
00000001
00001001
00000001
00000100
,
00001000
00000000
00010000
00000000
00100000
00000000
01000000
00100000
,
01000000
10010000
10000000
00100000
,
00010000
00000000
00001000
00000000
00000010
00000000
00000100
00000010
,
00000100
00001001
00000100
00010000
,
00001000
00022000
00033000
00011000
,
00100000
00000000
00010000
00000000
00000000
10000000
00010000
00000000
,
10000000
01000000
00100000
00001000
,
00010000
00000000
00000010
00000000
00000000
00000100
00000010
00000000
,
00000001
00000010
00001000
00000100
,
00010000
00000000
00001000
00000000
00000000
01000000
00010000
00000000
,
10000000
00100000
00010000
00001000
,
00000100
00000000
00000010
00000000
00000001
00000100
00000001
00000000
,
00002002
00003003
00001001
00000010
,
00000100
00001000
00010000
01000000
,
10000000
01000000
00100000
00010000
,
00000000
10000000
00000000
00000000
00010000
00000000
10000000
00000000
,
01000000
00100000
00001000
00010000
,
00000010
00001000
00000001
00000100
,
00001000
00000100
00000010
00000001
,
00000000
00001000
00000000
00000000
00000100
00000000
00020000
00000000
,
00030000
00002000
00003000
00100000
,
00010000
01000000
10000000
01000000
,
00100000
00010000
01000000
00001000
,
00000000
00010000
00000000
00000000
00001000
00000000
00010000
00000000
,
00000100
00001000
00000001
00000020
,
00000000
00000130
00000000
00000000
00000001
00000000
00002000
00000000
,
00000000
00003100
00000000
00000000
00000010
00000000
00002002
00000000
,
00003003
00000220
00000330
00002002
,
00003003
00000110
00001001
00002000
,
00000100
00000100
00003100
00010000
,
00001000
01000000
00010000
20000000
,
01000000
01000000
31000000
00100000
,
00001000
00010000
00000010
00000200
,
00000001
00000001
00000301
00002000
,
00003100
00000010
00000001
00000200
,
00000010
00000010
00000310
00002002
,
00000000
00000000
00003003
00000001
,
00000101
00001000
00000100
00010000
,
00011000
01000000
00010000
10000000
,
10100000
01000000
00001000
00010000
,
00010100
00001000
00001010
00000001
,
00000101
00001000
00000100
00010000
,
00011000
01000000
00010000
10000000
,
10100000
01000000
00001000
00022000
,
00033000
00000100
00001000
00002002
,
00003003
00000010
00001000
00010000
,
00001000
01000000
00010000
00001000
,
00010000
01000000
10000000
01000000
,
00010000
00100000
00100000
00001000
,
00000100
00000010
00000010
00000100
,
00010000
00001000
00001000
00010000
,
00001000
00022000
00000000
00000000
,
00033000
00000000
00100000
00010000
,
01000000
10000000
00100000
00000000
,
00000000
00010000
00000100
00001000
,
00000010
00000001
00000000
00000000
,
00000001
00000100
00001000
00010000
,
01000000
00000000
00000000
10000000
,
01000000
00010000
00022000
00000000
,
00033000
00100000
00010000
01000000
,
00100000
00100000
10000000
01000000
,
00100000
00001000
00010000
00000010
,
00001000
00000100
00000010
00000001
,
00000100
00000100
00000010
00001001
,
00000010
00000010
00000100
00001001
,
00000100
00010000
00001000
01000000
,
00200000
10000000
10300000
10010000
,
10000000
00100000
01000000
00001000
,
00010000
00100000
01000000
10000000
,
00010000
00100000
00001000
00010000
,
00000010
00001000
00000100
00000010
,
00000001
00000100
00001000
00000100
,
00010000
00001000
01000000
00010000
,
20000000
30000000
00020000
00030000
,
00002000
00003000
00000002
00000003
,
00000001
00000000
00000101
00000000
00000000
00001000
00000100
00000000
,
00001000
00000000
00001100
00000000
00000000
00010000
00001000
00000000
,
00100000
00000000
00110000
00000000
00000000
10000000
00010000
00000000
,
01000000
00000000
01001000
00000000
00000000
00001000
00010000
00000000
,
00000100
00001000
00000010
00000001
,
00000100
00001000
00010000
01000000
,
10000000
00010000
10000000
00010000
10000000
00010000
10000000
00000000
,
20020000
00000000
00000000
30030000
,
00022000
00000000
00000000
00000000
,
00000000
00000000
00000000
00000000
,
00033000
00000000
00000000
00000000
;

//---------------dance-single - ----------------
#NOTES:
     dance-single:
     :
     Easy:
     7:
     0.356602,0.436837,0.288024,0.301740,0.000000,364.000000,322.000000,42.000000,44.000000,0.000000,0.000000,0.356602,0.436837,0.288024,0.301740,0.000000,364.000000,322.000000,42.000000,44.000000,0.000000,0.000000:
0000
0000
0000
0000
,
0000
0000
0000
0000
,
0000
0000
0000
0000
,
0000
0000
0000
0000
,
0000
0000
0000
0000
,
0000
0000
0000
0000
,
0000
0000
0000
0000
,
0000
0000
0000
0000
,
0000
0000
0000
0000
,
0000
0000
0000
0000
,
0000
1001
1000
0100
,
0001
0000
0010
0000
1000
0000
0001
1000
,
0001
1001
0001
0100
,
1000
0000
0010
0000
0001
0000
0100
0010
,
0100
1001
1000
0010
,
0001
0000
0100
0000
1000
0000
0010
0100
,
0010
1001
0100
0010
,
0001
2002
3003
1001
,
0010
0000
0001
0000
0000
1000
0001
0000
,
1000
0100
0010
0001
,
0010
0000
0100
0000
0000
0100
0010
0000
,
0001
0010
0100
1000
,
0010
0000
0100
0000
0000
1000
0001
0000
,
1000
0010
0001
0100
,
1000
0000
0001
0000
1000
0001
1000
0000
,
2002
3003
1001
1000
,
0100
0010
0001
0100
,
1000
0100
0010
0001
,
0000
1000
0000
0000
0001
0000
1000
0000
,
0100
0010
0001
0010
,
0100
1000
0001
0010
,
1000
0100
0001
0010
,
0000
1000
0000
0000
0100
0000
0002
0000
,
0003
2000
3000
0010
,
0001
0100
1000
0100
,
0010
0001
0100
1000
,
0000
0001
0000
0000
0100
0000
1001
0000
,
0010
0100
1000
0002
,
0000
0013
0000
0000
1000
0000
0200
0000
,
0000
0301
0000
0000
0010
0000
2002
0000
,
3003
0220
0330
2002
,
3003
0110
1001
0002
,
0100
0100
0103
1000
,
0100
0010
0001
2000
,
0100
0100
3100
0010
,
0001
0100
1000
0020
,
0100
0100
0130
0002
,
0013
0100
1000
0020
,
0100
0100
0130
2002
,
0000
0000
3003
1000
,
1100
0010
0001
0100
,
0101
1000
0001
1000
,
1010
0100
0001
1000
,
1001
0010
0110
1000
,
1100
0010
0001
0100
,
0110
1000
0001
1000
,
1010
0100
0001
2002
,
3003
0010
0100
2002
,
3003
0010
0001
0100
,
0001
0010
1000
0100
,
1000
0010
1000
0100
,
0001
0010
0010
0001
,
0101
0010
0010
1000
,
1100
0000
0001
1000
0001
1000
0001
0000
,
0100
2002
0000
0000
,
3003
0000
0010
0001
,
0100
1000
0010
2002
,
3003
0001
0100
1000
,
0010
0001
2002
3003
,
0001
0100
1000
0010
,
0001
2002
3003
1000
,
0100
0001
0220
0000
,
0330
0010
0001
0100
,
0010
0010
1000
0100
,
0010
0001
0001
0100
,
0001
0010
0100
1000
,
0010
0010
0100
1001
,
0010
0010
1001
1001
,
0100
0001
0010
1000
,
0020
1000
1030
1001
,
1000
0010
0100
0001
,
1000
0010
0100
0001
,
0001
0010
0100
1000
,
0010
1000
0100
0010
,
0001
0100
1000
0100
,
0001
0010
0100
1000
,
0002
0003
2000
3000
,
0020
0030
0200
0300
,
0001
0000
0101
0000
0000
1000
0100
0000
,
0001
0000
0110
0000
0001
1000
0001
0000
,
1000
0000
1001
0000
0000
1000
0001
0000
,
0100
0000
0101
0000
0001
1000
0001
0000
,
0010
1000
0100
0001
,
0010
0100
0001
1000
,
0001
1000
0001
1000
0001
1000
0001
0000
,
0220
0000
0000
0330
,
2002
0000
0000
0000
,
0000
0000
0000
0000
,
3003
0000
0000
0000
;

//---------------dance-single - ----------------
#NOTES:
     dance-single:
     :
     Beginner:
     4:
     0.164585,0.235220,0.034289,0.082293,0.000000,168.000000,163.000000,5.000000,12.000000,0.000000,0.000000,0.164585,0.235220,0.034289,0.082293,0.000000,168.000000,163.000000,5.000000,12.000000,0.000000,0.000000:
// measure 0
0000
0000
0000
0000
,  // measure 1
0000
0000
0000
0000
,  // measure 2
0000
0000
0000
0000
,  // measure 3
0000
0000
0000
0000
,  // measure 4
0000
0000
0000
0000
,  // measure 5
0000
0000
0000
0000
,  // measure 6
0000
0000
0000
0000
,  // measure 7
0000
0000
0000
0000
,  // measure 8
0000
0000
0000
0000
,  // measure 9
0000
0000
0000
0000
,  // measure 10
0000
0000
1000
0000
,  // measure 11
1000
0000
0001
0001
,  // measure 12
0001
0000
1000
0000
,  // measure 13
1000
0000
0100
0100
,  // measure 14
0100
0000
1000
0000
,  // measure 15
1000
0000
0001
0001
,  // measure 16
0001
0000
0100
0000
,  // measure 17
0100
0100
0000
0000
,  // measure 18
0000
0010
0000
0010
,  // measure 19
0000
0001
0000
0001
,  // measure 20
0000
0100
0000
0100
,  // measure 21
0000
1000
0000
1000
,  // measure 22
0000
0100
0000
0100
,  // measure 23
0000
0001
0000
0001
,  // measure 24
0000
1000
0000
1000
,  // measure 25
1000
0000
0000
0001
,  // measure 26
0000
0000
0000
1000
,  // measure 27
0000
1000
0000
1000
,  // measure 28
0000
0000
0000
0001
,  // measure 29
0000
0000
0000
0100
,  // measure 30
0000
0000
0000
0010
,  // measure 31
0000
0010
0000
0010
,  // measure 32
0000
0000
0000
0100
,  // measure 33
0000
0000
1000
1000
,  // measure 34
0000
0000
0000
0001
,  // measure 35
0000
0001
0000
1000
,  // measure 36
0000
1000
0000
0010
,  // measure 37
0000
0010
0000
0100
,  // measure 38
0000
0000
0000
0010
,  // measure 39
0000
0000
0000
0010
,  // measure 40
0000
0010
0000
0010
,  // measure 41
0000
0010
0000
2002
,  // measure 42
0000
0000
3003
0000
,  // measure 43
0000
0000
0000
2002
,  // measure 44
0000
0000
3003
0000
,  // measure 45
0000
0000
0000
2002
,  // measure 46
0000
3003
0000
0001
,  // measure 47
0000
0001
0000
0002
,  // measure 48
0000
0003
0000
2000
,  // measure 49
0000
3000
0000
0001
,  // measure 50
0000
0001
0001
0001
,  // measure 51
0000
0000
0000
1000
,  // measure 52
0000
1000
1000
1000
,  // measure 53
0000
0000
0000
0010
,  // measure 54
0000
0010
0010
0010
,  // measure 55
0000
0000
0000
0100
,  // measure 56
0000
0100
0100
0100
,  // measure 57
0000
0000
0000
1001
,  // measure 58
0000
0010
0000
0000
,  // measure 59
0000
0100
0000
0100
,  // measure 60
0100
0100
0000
0000
,  // measure 61
0000
0010
0000
0010
,  // measure 62
0010
0010
0000
1000
,  // measure 63
0000
0100
0100
0100
,  // measure 64
0100
0200
0000
0300
,  // measure 65
0000
0000
0010
0000
,  // measure 66
0010
0000
0010
0000
,  // measure 67
0000
0100
0000
0100
,  // measure 68
0000
0100
0000
0000
,  // measure 69
0010
0000
0010
0000
,  // measure 70
0010
0000
0000
1000
,  // measure 71
0000
1000
1000
0000
,  // measure 72
0001
0000
0001
0000
,  // measure 73
1000
0000
1000
0000
,  // measure 74
0001
0000
0001
0000
,  // measure 75
0100
0000
0100
0000
,  // measure 76
0010
0000
0010
0000
,  // measure 77
0100
0000
0001
0000
,  // measure 78
0010
0000
1000
0000
,  // measure 79
0020
0000
0030
0000
,  // measure 80
1000
0000
0001
0000
,  // measure 81
1000
1000
1000
0000
,  // measure 82
0001
0001
0001
0000
,  // measure 83
0010
0010
0010
0000
,  // measure 84
1000
0000
0001
0000
,  // measure 85
0010
0000
0100
0000
,  // measure 86
1000
0000
0010
0000
,  // measure 87
0100
0000
0001
0000
,  // measure 88
0001
0001
0000
0100
,  // measure 89
0000
0010
0010
0010
,  // measure 90
0000
0001
0000
1000
,  // measure 91
0000
0010
0010
0010
,  // measure 92
0000
1000
0000
0001
,  // measure 93
0000
1000
1000
1000
,  // measure 94
0000
0010
0010
0010
,  // measure 95
0010
0000
0000
0000
,  // measure 96
2002
0000
0000
0000
,  // measure 97
0000
0000
0000
0000
,  // measure 98
3003
0000
0000
0000
;
