#TITLE:DREAM A DREAM;
#SUBTITLE:(CHEEKY TRAX UK REMIX);
#ARTIST:CAPTAIN JACK;
#TITLETRANSLIT:;
#SUBTITLETRANSLIT:;
#ARTISTTRANSLIT:;
#GENRE:;
#CREDIT:;
#BANNER:DREAM A DREAM (CHEEKY TRAX UK REMIX).png;
#BACKGROUND:DREAM A DREAM (CHEEKY TRAX UK REMIX)-bg.png;
#LYRICSPATH:;
#CDTITLE:;
#MUSIC:DREAM A DREAM (CHEEKY TRAX UK REMIX).ogg;
#OFFSET:-0.012000;
#SAMPLESTART:19.471458;
#SAMPLELENGTH:12.972973;
#SELECTABLE:YES;
#BPMS:0.000000=148.000000
;
#STOPS:
;
#BGCHANGES:;
#KEYSOUNDS:;
#ATTACKS:;

//---------------dance-single - ----------------
#NOTES:
     dance-single:
     :
     Hard:
     10:
     0.479883,0.552826,0.249539,0.355114,0.019195,350.000000,324.000000,26.000000,37.000000,0.000000,0.000000,0.479883,0.552826,0.249539,0.355114,0.019195,350.000000,324.000000,26.000000,37.000000,0.000000,0.000000:
0000
0000
0000
0000
,
0000
0000
0000
0000
,
0000
0000
0000
0000
,
0000
0000
0000
0000
,
1001
0000
1100
0000
0001
0100
0001
0000
,
0010
0100
0010
0000
0001
1000
0100
0000
,
1001
0000
0101
0000
1000
0100
1000
0000
,
0010
0100
0001
0010
0200
0000
0300
0000
,
1001
0000
1100
0000
0001
0100
0001
0000
,
0010
0100
0010
0000
0001
1000
0100
0000
,
1001
0000
0101
0000
1000
0100
1000
0000
,
0010
0100
0001
0010
0200
0000
0300
0000
,
1000
0100
1000
0100
1000
0001
2000
0000
,
3010
1000
0020
0000
0130
0001
0200
0000
,
0310
0100
0010
0100
0010
0100
0001
1000
,
0001
1000
0100
1000
2000
0000
3000
0000
,
1000
0100
1000
0100
1000
0001
2000
0000
,
3010
1000
0020
0000
0130
0001
0200
0000
,
0310
0100
0010
0100
0010
0100
0001
1000
,
0001
1000
0100
1000
2000
0000
3000
0000
,
1000
0100
1000
0001
0001
0100
0002
0000
,
1003
0100
0020
0000
0031
0100
0020
0000
,
1030
0001
0100
0010
1000
0010
1000
0010
,
1000
0001
1000
0001
0002
0000
0000
0013
,
1000
0010
1000
0001
0100
0001
0100
0010
,
0220
0000
0000
0330
,
1000
0001
1000
0001
0100
0100
0110
0000
,
0010
0010
0110
0000
0100
0100
0110
0000
,
0001
1000
0001
1000
0010
0010
0010
0100
,
0100
0100
0001
1000
2002
0000
3003
0000
,
1000
0001
1000
0001
0100
0100
0110
0000
,
0010
0010
0110
0000
0100
0100
0110
0000
,
0001
1000
0001
1000
0020
0000
0130
0100
,
0000
1000
0100
0010
0001
0000
0000
0000
,
0020
0000
0000
0030
,
0200
0000
0000
0300
,
2000
0000
0000
3000
,
0002
0000
0000
0003
,
0100
0000
0010
0000
0100
0000
1000
0001
,
1000
0100
1000
0010
1000
0000
0001
0010
,
0001
0100
0001
0100
0001
0000
1000
0100
,
0010
0001
0010
0001
0000
0000
0000
0200
,
0000
0310
1000
0010
0000
1000
1000
2000
,
0000
3001
2000
3001
,
0000
0010
0100
1000
0001
0100
0010
2000
,
0002
0000
3003
1001
,
1000
0100
1000
0100
0000
0001
0010
0001
,
0000
0001
0100
0000
0000
0100
0010
0000
0000
0000
0001
0000
0100
0000
0001
0000
,
1000
0100
1000
0100
1000
0000
0100
1000
,
0001
0010
0001
0010
0000
1001
0000
0100
,
0010
0100
0010
0100
0000
0001
1000
0001
,
0000
0001
0100
0000
0000
0100
0010
0000
0000
0000
1000
0000
0001
0000
0010
0000
,
0001
0100
0001
0100
0001
1000
0100
0010
,
0002
0000
0023
0000
2030
0000
3000
0020
,
0000
0130
0001
0100
0000
0001
0001
0001
,
0000
0110
0000
1001
0000
0001
1000
0100
,
1000
0010
1000
0010
1000
0000
0001
0100
,
0010
0100
0010
0110
0000
1001
0000
0020
,
0000
1030
0100
1000
0000
0001
0001
0001
,
0000
1001
0000
0110
0000
1000
0001
1000
,
0000
0010
0100
1000
0001
0100
0010
2000
,
0002
0000
3003
0110
,
2002
0000
0000
0000
,
0000
0000
0000
0000
,
3003
0000
0000
0000
;

//---------------dance-single - ----------------
#NOTES:
     dance-single:
     :
     Medium:
     8:
     0.344145,0.399263,0.105574,0.047988,0.000000,251.000000,240.000000,11.000000,5.000000,0.000000,0.000000,0.344145,0.399263,0.105574,0.047988,0.000000,251.000000,240.000000,11.000000,5.000000,0.000000,0.000000:
0000
0000
0000
0000
,
0000
0000
0000
0000
,
0000
0000
0000
0000
,
0000
0000
0000
0000
,
1001
0000
0010
1001
,
0000
0000
0010
0000
1000
0010
1000
0010
,
0000
1000
0000
0000
0010
0000
0010
0000
,
0000
0000
1001
0000
0010
0100
0010
0000
,
0001
0000
0000
0000
1000
0100
1000
0000
,
0000
0010
0000
0000
0100
0010
0100
0000
,
0001
0000
0000
0000
0010
0100
0010
0000
,
0000
0100
1001
0000
,
1000
0010
1000
0010
1000
0000
0000
0000
,
0001
1000
0001
0000
,
0010
0100
0010
0100
0010
0000
0000
0000
,
0001
1000
0001
0000
,
0100
0001
0100
0001
0100
0000
0000
0000
,
0010
0100
0010
0000
,
0001
1000
0001
1000
0001
0000
0000
0000
,
0100
0000
0110
0000
,
0001
0010
0001
0000
1000
0000
1000
0000
,
0001
0000
0100
0000
1000
0001
1000
0000
,
0001
1000
0001
0000
1000
0001
1000
0000
,
0001
1000
1001
0000
,
0010
0001
0100
1000
,
2002
0000
0000
3003
,
0001
0000
1000
0000
0010
1000
0010
0000
,
0100
0010
0100
0000
0001
0010
0001
0000
,
0100
0000
0001
0000
1000
0001
1000
0000
,
0001
1000
0001
1000
0001
0000
0000
0000
,
1000
0000
0100
0000
1000
0100
1000
0000
,
0001
0010
0001
0000
1000
0001
1000
0000
,
0002
0000
0000
0000
,
0003
0000
0000
0000
,
1000
0010
0100
0000
,
0100
0010
0001
0000
,
0100
0001
1000
0000
,
0010
1000
0010
1000
0000
0000
0000
0000
,
0001
0010
0100
0000
,
0100
0001
1000
0000
,
0100
1000
0001
0000
,
1000
0001
1000
0001
0000
0000
0000
0000
,
1000
0100
1000
0000
0001
0100
0001
0000
,
1000
0001
0100
0010
,
0000
0010
0001
0100
,
1000
0000
0010
1001
,
0100
0000
0100
0000
1000
0001
1000
0000
,
0010
0000
0010
0000
1000
0001
1000
0000
,
0001
0010
0001
0000
1000
0000
0001
0000
,
1000
0100
1000
0000
0010
0000
0100
0000
,
0001
0000
1000
0000
0010
0100
0010
0000
,
1000
0000
0001
0000
0100
0010
0100
0000
,
0001
0010
0001
0000
1000
0000
0100
0000
,
0010
0001
0010
0001
0000
1000
0000
0001
,
0010
0001
0010
0001
0000
1000
0010
1000
,
0000
0010
0000
0100
0000
0001
1000
0001
,
1000
0010
0100
0000
,
0010
0100
0010
0100
0000
1000
0000
0010
,
1000
0010
1000
0010
0000
1000
0001
1000
,
0000
0100
0000
0010
0000
1000
0010
1000
,
0000
0010
0001
0100
,
1000
0000
1001
0110
,
2002
0000
0000
0000
,
0000
0000
0000
0000
,
3003
0000
0000
0000
;

//---------------dance-single - ----------------
#NOTES:
     dance-single:
     :
     Easy:
     5:
     0.257766,0.307125,0.105574,0.095977,0.000000,188.000000,177.000000,11.000000,10.000000,0.000000,0.000000,0.257766,0.307125,0.105574,0.095977,0.000000,188.000000,177.000000,11.000000,10.000000,0.000000,0.000000:
// measure 0
0000
0000
0000
0000
,  // measure 1
0000
0000
0000
0000
,  // measure 2
0000
0000
0000
0000
,  // measure 3
0000
0000
0000
0000
,  // measure 4
0010
0010
0100
0100
,  // measure 5
0001
0001
1000
1000
,  // measure 6
0010
0100
0001
1000
,  // measure 7
0100
0100
0100
0000
,  // measure 8
0010
0010
0001
0001
,  // measure 9
1000
1000
0100
0100
,  // measure 10
0010
0001
0100
0010
,  // measure 11
1000
1000
1000
0000
,  // measure 12
1001
0000
0010
0100
,  // measure 13
0001
0100
1000
0100
,  // measure 14
0001
0010
0100
0100
,  // measure 15
1000
1000
1000
0000
,  // measure 16
1001
0000
0100
0010
,  // measure 17
0001
1000
0100
0010
,  // measure 18
0001
0001
0100
0100
,  // measure 19
0010
1001
0100
0000
,  // measure 20
0010
0001
0010
0001
,  // measure 21
1000
0100
1000
0100
,  // measure 22
0010
0001
1000
0100
,  // measure 23
0010
0001
0001
0000
,  // measure 24
1000
0100
0010
0001
,  // measure 25
2002
0000
0000
3003
,  // measure 26
0010
0100
0001
0001
,  // measure 27
1000
1000
0001
0001
,  // measure 28
0100
0010
1000
0001
,  // measure 29
1000
1000
1001
0000
,  // measure 30
0100
0010
1000
0001
,  // measure 31
1000
1000
0001
0001
,  // measure 32
2002
0000
0000
0000
,  // measure 33
3003
0000
0000
0000
,  // measure 34
0200
0000
0000
0000
,  // measure 35
0302
0000
0000
0000
,  // measure 36
0023
0000
0000
0000
,  // measure 37
2030
0000
0000
0000
,  // measure 38
3001
0000
1000
0000
,  // measure 39
0001
0010
0100
0000
,  // measure 40
1000
0010
0100
0000
,  // measure 41
0001
0001
0001
0000
,  // measure 42
1000
0000
0100
0000
,  // measure 43
0010
0000
0001
0000
,  // measure 44
0001
0010
0100
1000
,  // measure 45
1001
0000
0000
0000
,  // measure 46
0010
0010
0001
0100
,  // measure 47
0010
0010
1000
0100
,  // measure 48
0001
0001
1000
0000
,  // measure 49
1000
1000
0001
0000
,  // measure 50
0010
0010
0001
0100
,  // measure 51
0010
0010
1000
0100
,  // measure 52
0001
0001
1000
0000
,  // measure 53
1000
1000
0001
0000
,  // measure 54
1001
0000
0110
0000
,  // measure 55
1000
1000
0100
0000
,  // measure 56
0010
0010
0001
0000
,  // measure 57
0100
0100
0010
0000
,  // measure 58
1000
0000
0100
0000
,  // measure 59
0010
0000
0001
0000
,  // measure 60
0001
0100
0010
1000
,  // measure 61
1001
0000
0010
0010
,  // measure 62
2002
0000
0000
0000
,  // measure 63
0000
0000
0000
0000
,  // measure 64
3003
0000
0000
0000
;

//---------------dance-single - ----------------
#NOTES:
     dance-single:
     :
     Beginner:
     4:
     0.150820,0.245700,0.028793,0.047988,0.000000,110.000000,107.000000,3.000000,5.000000,0.000000,0.000000,0.150820,0.245700,0.028793,0.047988,0.000000,110.000000,107.000000,3.000000,5.000000,0.000000,0.000000:
// measure 0
0000
0000
0000
0000
,  // measure 1
0000
0000
0000
0000
,  // measure 2
0000
0000
0000
0000
,  // measure 3
0000
0000
0000
0000
,  // measure 4
0010
0000
0000
0000
,  // measure 5
0001
0000
0000
0000
,  // measure 6
0100
0000
0000
0000
,  // measure 7
1000
0000
0000
0000
,  // measure 8
0010
0000
0010
0000
,  // measure 9
0100
0000
0100
0000
,  // measure 10
0010
0000
0010
0000
,  // measure 11
0100
0100
0100
0000
,  // measure 12
0001
0000
0001
0000
,  // measure 13
1000
0000
1000
0000
,  // measure 14
0001
0000
0001
0000
,  // measure 15
1000
1000
1000
0000
,  // measure 16
0010
0000
0010
0000
,  // measure 17
0100
0000
0100
0000
,  // measure 18
0010
0000
0010
0000
,  // measure 19
0020
0000
0030
0000
,  // measure 20
0010
0000
0010
0000
,  // measure 21
0100
0000
0100
0000
,  // measure 22
0010
0000
0100
0000
,  // measure 23
0010
0010
0010
0000
,  // measure 24
0100
0100
0100
0000
,  // measure 25
1001
0000
0000
0000
,  // measure 26
0010
0000
0001
0000
,  // measure 27
0100
0000
1000
0000
,  // measure 28
0001
0000
1000
0000
,  // measure 29
0001
0001
0001
0000
,  // measure 30
0010
0000
1000
0000
,  // measure 31
0100
0000
0001
0000
,  // measure 32
2002
0000
0000
0000
,  // measure 33
3003
0000
0000
0000
,  // measure 34
0100
0000
0000
0000
,  // measure 35
0010
0000
0000
0000
,  // measure 36
1000
0000
0000
0000
,  // measure 37
0001
0000
0000
0000
,  // measure 38
1000
0000
0000
0000
,  // measure 39
0010
0000
0000
0000
,  // measure 40
0100
0000
0000
0000
,  // measure 41
0001
0000
0000
0000
,  // measure 42
1000
0000
0100
0000
,  // measure 43
0010
0000
0001
0000
,  // measure 44
0010
0000
0100
0000
,  // measure 45
1000
0000
0000
0000
,  // measure 46
0010
0000
0001
0000
,  // measure 47
0100
0000
1000
0000
,  // measure 48
0001
0000
1000
0000
,  // measure 49
1000
1000
1000
0000
,  // measure 50
0010
0000
1000
0000
,  // measure 51
0100
0000
0001
0000
,  // measure 52
0001
0000
1000
0000
,  // measure 53
0001
0001
0001
0000
,  // measure 54
1000
0000
0010
0000
,  // measure 55
0001
0000
0100
0000
,  // measure 56
0010
0010
0010
0000
,  // measure 57
0100
0100
0100
0000
,  // measure 58
1000
0000
0100
0000
,  // measure 59
0010
0000
0001
0000
,  // measure 60
0010
0000
0100
0000
,  // measure 61
1000
0000
0000
0000
,  // measure 62
2002
0000
0000
0000
,  // measure 63
0000
0000
0000
0000
,  // measure 64
3003
0000
0000
0000
;
