#VERSION:0.83;
#TITLE:DANCERUSH STARDOM ANTHEM;
#SUBTITLE:;
#ARTIST:kors k feat. 福島蘭世;
#TITLETRANSLIT:;
#SUBTITLETRANSLIT:;
#ARTISTTRANSLIT:kors k feat. Ranze Fukushima;
#GENRE:;
#ORIGIN:;
#CREDIT:;
#BANNER:DANCERUSH STARDOM ANTHEM.png;
#BACKGROUND:DANCERUSH STARDOM ANTHEM-bg.png;
#PREVIEWVID:;
#JACKET:DANCERUSH STARDOM ANTHEM-jacket.png;
#CDIMAGE:;
#DISCIMAGE:;
#LYRICSPATH:;
#CDTITLE:;
#MUSIC:DANCERUSH STARDOM ANTHEM.ogg;
#OFFSET:0.883000;
#SAMPLESTART:54.042934;
#SAMPLELENGTH:12.000000;
#SELECTABLE:YES;
#BPMS:0.000=130.000;
#STOPS:;
#DELAYS:;
#WARPS:;
#TIMESIGNATURES:0.000=4=4;
#TICKCOUNTS:0.000=4;
#COMBOS:0.000=1;
#SPEEDS:0.000=1.000=0.000=0;
#SCROLLS:0.000=1.000;
#FAKES:;
#LABELS:0.000=Song Start;
#BGCHANGES:2.000=DANCERUSH STARDOM ANTHEM.avi=1.000=0=0=0=StretchNoLoop====,
99999=-nosongbg-=1.000=0=0=0 // don't automatically add -songbackground-
;
#KEYSOUNDS:;
#ATTACKS:
;

//---------------dance-single - ----------------
#NOTEDATA:;
#CHARTNAME:;
#STEPSTYPE:dance-single;
#DESCRIPTION:;
#CHARTSTYLE:;
#DIFFICULTY:Hard;
#METER:12;
#RADARVALUES:0.471251,0.525300,0.562821,0.320495,0.211058,422.000000,350.000000,72.000000,41.000000,0.000000,0.000000,0.000000,0.000000,0.000000,0.471251,0.525300,0.562821,0.320495,0.211058,422.000000,350.000000,72.000000,41.000000,0.000000,0.000000,0.000000,0.000000,0.000000;
#CREDIT:;
#NOTES:
// measure 0
0000
0000
0000
0000
,  // measure 1
0000
0000
0000
0000
,  // measure 2
0000
0000
0000
0000
,  // measure 3
0000
0000
0000
0000
,  // measure 4
0000
0000
0000
0000
0000
0000
0001
1000
,  // measure 5
0020
0000
0000
0000
0130
0000
0000
0100
0000
0000
0000
0000
1000
0000
0001
0000
,  // measure 6
0200
0000
0000
0000
0010
0000
0000
0310
0000
0000
1000
0000
0100
0000
0010
0000
,  // measure 7
0002
0000
0000
0000
1000
0000
0000
1003
0000
0000
0000
0000
1001
0000
0000
0000
,  // measure 8
0010
0000
0100
0000
0010
0000
0000
0010
0000
0000
1000
0000
0100
0000
0010
0000
,  // measure 9
0002
0000
0000
0000
0100
0000
0000
0103
0000
0000
0000
0000
0010
0000
1000
0000
,  // measure 10
0200
0000
0000
0000
0010
0000
0000
0310
0000
0000
1000
0000
0001
0000
0100
0000
,  // measure 11
0020
0000
0000
0000
1000
0000
0000
1030
0000
0000
0000
0000
1001
0000
0000
0000
,  // measure 12
0010
0000
0001
0000
0100
0000
0000
0220
0000
0000
0000
0000
0330
0000
0000
0000
,  // measure 13
1001
0000
0000
0001
0010
0000
0100
0000
1000
0000
0100
0010
0001
0000
0000
0000
,  // measure 14
1000
0000
0000
0000
0101
0000
0001
0000
0000
1000
0010
0000
0110
0000
0010
0000
,  // measure 15
0000
0000
0000
1000
0000
0000
0001
0000
0000
0000
0000
0000
0101
0000
0000
0000
0000
0000
0001
0000
0000
0000
0000
0000
0000
0000
0000
0000
1000
0000
0100
0000
0000
0000
0010
0000
0001
0000
0000
0000
0000
0000
0000
0000
0000
0000
0000
0000
,  // measure 16
0110
0000
0000
0000
0011
0000
0000
0110
0000
0000
1100
0000
0000
0110
0000
0000
,  // measure 17
1000
0000
0000
0000
1010
0000
0000
0110
0000
0000
0101
0000
0000
0000
0000
0000
,  // measure 18
0110
0000
0000
0000
0011
0000
0001
0000
0000
1000
0010
0000
0110
0000
0010
0000
,  // measure 19
0000
0001
0100
0000
0110
0000
0100
0000
0001
0000
0100
0000
1001
0000
0000
0000
,  // measure 20
0101
0000
0000
0000
1100
0000
0000
0110
0000
0000
0011
0000
0000
0110
0000
0000
,  // measure 21
1000
0000
0001
0000
1001
0000
0000
0110
0000
0000
1000
0000
1001
0000
0000
0000
,  // measure 22
0002
0000
0103
0010
2000
0001
0001
3001
,  // measure 23
1000
1000
0010
0010
0100
0100
0110
0000
,  // measure 24
0011
0000
0000
0000
1010
0000
0000
0101
0000
0000
1010
0000
0000
0101
0000
0000
,  // measure 25
1000
0000
0100
0000
0011
0000
0000
0110
0000
0000
1000
0000
1001
0000
0000
0000
,  // measure 26
0020
0000
0031
0001
1000
0100
0010
0010
,  // measure 27
0001
0001
0100
0100
0010
0100
1001
0000
,  // measure 28
0020
0000
1030
0002
0000
0100
0103
0000
,  // measure 29
0001
0000
0010
0000
0100
0000
0000
0110
0000
0000
1000
0000
0001
0000
0100
0000
,  // measure 30
0020
0000
0000
0000
2030
0000
0000
0001
0000
0000
3001
0000
1000
0000
0010
0000
,  // measure 31
0200
0000
0000
0000
0302
0000
0000
1000
0000
0000
1003
0000
0001
0000
0100
0000
,  // measure 32
0020
0000
0000
0000
2030
0000
0000
0100
0000
0000
0100
0000
0000
0000
3001
0000
,  // measure 33
0200
0000
0000
0000
0010
0000
0000
0310
0000
0000
0000
0000
1001
0000
0000
0000
,  // measure 34
0110
0000
0000
0000
2000
0000
0000
0010
0000
0000
3010
0000
0100
0000
0010
0000
,  // measure 35
2000
0000
0000
0000
3002
0000
0000
0100
0000
0000
0103
0000
0010
0000
0100
0000
,  // measure 36
0002
0000
0000
0000
2003
0000
0000
0010
0000
0000
0010
0000
0000
0000
3001
0000
,  // measure 37
0100
0000
0101
0000
1000
0001
0110
0000
,  // measure 38
0001
0000
0100
0000
1000
0000
0000
1001
0000
0000
1000
0000
0100
0000
0010
0000
,  // measure 39
0001
0000
0010
0000
0100
0000
0000
1010
0000
0000
0001
0000
0010
0000
1000
0000
,  // measure 40
0010
0000
0100
0000
0001
0000
0000
1010
0000
0000
0001
0000
0000
0000
1000
0000
,  // measure 41
0110
0000
0000
0000
1010
0000
0000
0202
0000
0000
0303
0000
1001
0000
0000
0000
,  // measure 42
2020
3030
0022
0033
,  // measure 43
0202
0303
2200
3300
,  // measure 44
0001
0100
1000
0100
,  // measure 45
0001
0000
0100
0000
0010
0010
0110
0000
,  // measure 46
1001
0000
0000
0000
0010
0000
0010
0000
0001
0100
0001
0000
1000
0000
1000
0000
,  // measure 47
0000
0000
0000
0001
0000
0000
0001
0000
0000
0001
0000
0000
1000
0000
0010
1000
0000
0010
1000
0000
0000
0000
0000
0000
,  // measure 48
0001
0000
1000
0100
0000
0000
0001
0010
0000
0000
1000
0010
0000
0000
0001
0100
,  // measure 49
0000
0000
1000
0100
0000
0000
0001
0010
0000
0000
0100
0000
0020
0000
1030
0001
,  // measure 50
1000
0000
0000
0000
0001
0000
0001
0000
0000
1000
0100
0000
0001
0000
0001
0000
,  // measure 51
0000
1000
0010
0000
0001
0000
0001
0000
0000
0000
0200
0000
0020
0000
0330
0000
,  // measure 52
1001
0000
0011
0001
0101
0100
0110
0000
,  // measure 53
1000
0000
1000
0000
1001
0000
0000
0120
0000
0000
0000
0000
1030
0000
0000
0000
,  // measure 54
0010
0100
0001
0001
1000
1000
0101
0010
,  // measure 55
0010
0010
0110
1000
1000
1000
0101
0000
,  // measure 56
0011
1100
0011
1100
,  // measure 57
0001
0100
1000
0100
0001
0100
1000
0100
,  // measure 58
0110
0000
0001
0100
0100
0010
1000
0100
,  // measure 59
0010
0001
0100
0010
0010
0010
1000
0001
,  // measure 60
0100
0000
0100
0000
0100
0000
0000
0010
0000
0000
1000
0000
0100
0000
0010
0000
,  // measure 61
0001
0000
0001
0000
0001
0000
0000
1020
0000
0000
0000
0000
0130
0000
0000
0000
,  // measure 62
0101
0000
0000
0000
0010
0000
0000
0010
0000
0000
0000
0000
0000
0000
1000
0000
,  // measure 63
0100
0000
0100
0000
0001
0000
0000
0020
0000
0000
0000
0000
0000
0000
0000
0000
,  // measure 64
0030
0000
0000
0000
;

//---------------dance-single - ----------------
#NOTEDATA:;
#CHARTNAME:;
#STEPSTYPE:dance-single;
#DESCRIPTION:;
#CHARTSTYLE:;
#DIFFICULTY:Beginner;
#METER:3;
#RADARVALUES:0.111671,0.198551,0.007817,0.015634,0.000000,100.000000,99.000000,1.000000,2.000000,0.000000,0.000000,0.000000,0.000000,0.000000,0.111671,0.198551,0.007817,0.015634,0.000000,100.000000,99.000000,1.000000,2.000000,0.000000,0.000000,0.000000,0.000000,0.000000;
#CREDIT:;
#NOTES:
0000
0000
0000
0000
,
0000
0000
0000
0000
,
0000
0000
0000
0000
,
0000
0000
0000
0000
,
0000
0000
0000
0000
,
0001
0000
0000
0000
,
1000
0000
0000
0000
,
0010
0000
0000
0000
,
0000
0000
0000
0000
,
1000
0000
0000
0000
,
0001
0000
0000
0000
,
0100
0000
0000
0000
,
0000
0000
0000
0000
,
0010
0000
0010
0000
,
0010
0000
0010
0000
,
0100
0000
0100
0000
,
0010
0000
0000
0000
,
0010
0000
0000
0000
,
1000
0000
1000
0000
,
0001
0000
0001
0000
,
1000
0000
0000
0000
,
0001
0000
0000
0000
,
0100
0000
0010
0000
,
0100
0000
0100
0000
,
0100
0000
0000
0000
,
0001
0000
0000
0000
,
1000
0000
0001
0000
,
0001
0000
1000
0000
,
1000
0000
0000
0000
,
0010
0000
0000
0000
,
0100
0000
0000
0000
,
0100
0000
0000
0000
,
0100
0000
0000
0000
,
0001
0000
1000
0000
,
0010
0000
0000
0000
,
0010
0000
0000
0000
,
1000
0000
0000
0000
,
0001
0000
0000
0000
,
0010
0000
0010
0000
,
0010
0000
0010
0000
,
0100
0000
0100
0000
,
0100
0000
0100
0000
,
0001
0000
1000
0000
,
0001
0000
1000
0000
,
0001
0001
0001
0001
,
0001
0001
0000
1001
,
0000
0100
0000
0100
,
0000
0010
0010
0000
,
1000
0000
0001
0000
,
1000
0000
0001
0000
,
0000
0100
0100
0000
,
0100
0000
0100
0100
,
0000
0000
0001
0000
,
1000
1000
1000
0000
,
0010
0010
0010
0000
,
0100
0100
0100
0000
,
0001
0000
1000
0000
,
0010
0010
0010
0000
,
0001
0000
1000
0000
,
0001
0001
0001
0000
,
1000
0000
0001
0000
,
0100
0000
0010
0000
,
2000
0000
3000
0000
,
0002
0000
0003
0000
;

//---------------dance-single - ----------------
#NOTEDATA:;
#CHARTNAME:;
#STEPSTYPE:dance-single;
#DESCRIPTION:;
#CHARTSTYLE:;
#DIFFICULTY:Easy;
#METER:6;
#RADARVALUES:0.230042,0.297826,0.054719,0.085987,0.000000,206.000000,199.000000,7.000000,11.000000,0.000000,0.000000,0.000000,0.000000,0.000000,0.230042,0.297826,0.054719,0.085987,0.000000,206.000000,199.000000,7.000000,11.000000,0.000000,0.000000,0.000000,0.000000,0.000000;
#CREDIT:;
#NOTES:
0000
0000
0000
0000
,
0000
0000
0000
0000
,
0000
0000
0000
0000
,
0000
0000
0000
0000
,
0000
0000
0000
0000
,
0010
0001
0100
0000
,
0010
1000
0100
0000
,
0010
0010
0010
0000
,
0100
0100
0100
0000
,
0100
0001
0010
0000
,
0100
1000
0010
0000
,
0100
0100
0100
0100
,
0010
0010
0020
0030
,
1000
0001
2000
3000
,
0001
0001
1000
1000
,
0001
1000
0001
1000
,
0010
0010
0010
0000
,
0100
0100
0100
0000
,
1000
0001
1000
0001
,
1000
1000
0001
0001
,
0010
0010
0010
0000
,
0100
0100
0100
0000
,
0001
0001
1000
1000
,
0001
1000
0001
1000
,
0010
0010
0010
0010
,
0100
0100
0100
0100
,
0001
0100
1000
0100
,
0001
0010
1000
0100
,
0001
0001
2000
3000
,
1000
1000
0002
0003
,
0010
0100
0000
0100
,
0010
0100
0000
0001
,
0100
1000
0000
0000
,
0001
0010
1000
0000
,
1000
0002
0003
1000
,
0010
0002
0003
1000
,
0100
0020
0000
0030
,
0001
0100
1000
0010
,
0001
0001
0001
1001
,
1000
1000
1000
1001
,
0001
0001
0001
1001
,
1000
1000
1000
0110
,
0010
0000
0100
0000
,
0001
0000
1000
0000
,
0010
0001
0100
1000
,
0010
0100
0000
1001
,
0001
0001
1000
1000
,
0000
0010
0010
0010
,
1000
0100
0001
0100
,
1000
0010
0001
0010
,
1000
0001
0001
0001
,
0000
0001
0001
0001
,
1000
0100
0010
0001
,
0100
0100
1001
0000
,
0010
1000
0010
1000
,
0100
0001
0100
0001
,
0010
0001
0100
1000
,
0010
0010
0010
1001
,
0000
0100
0100
0100
,
0001
0010
0100
1000
,
0010
0010
0020
0030
,
0100
0100
0200
0300
,
0002
0003
2000
3000
,
0010
0010
0010
0000
;

//---------------dance-single - ----------------
#NOTEDATA:;
#CHARTNAME:;
#STEPSTYPE:dance-single;
#DESCRIPTION:;
#CHARTSTYLE:;
#DIFFICULTY:Medium;
#METER:8;
#RADARVALUES:0.352880,0.421920,0.422116,0.265777,0.031268,316.000000,262.000000,54.000000,34.000000,0.000000,0.000000,0.000000,0.000000,0.000000,0.352880,0.421920,0.422116,0.265777,0.031268,316.000000,262.000000,54.000000,34.000000,0.000000,0.000000,0.000000,0.000000,0.000000;
#CREDIT:;
#NOTES:
// measure 0
0000
0000
0000
0000
,  // measure 1
0000
0000
0000
0000
,  // measure 2
0000
0000
0000
0000
,  // measure 3
0000
0000
0000
0000
,  // measure 4
0000
0000
0000
0000
0000
0000
0001
1000
,  // measure 5
0020
0000
0200
0000
0330
0000
1000
0001
,  // measure 6
0200
0000
0020
0000
0330
0001
1000
0001
,  // measure 7
0200
0020
0330
0000
,  // measure 8
0001
0000
0000
0000
1000
0000
0000
1001
0000
0000
0000
0000
0010
0000
0100
0000
,  // measure 9
0002
0000
2000
0000
3003
0000
0100
0010
,  // measure 10
2000
0000
0002
0000
3003
0000
0010
0100
,  // measure 11
0002
0000
0020
0000
0000
0033
0000
0000
,  // measure 12
1100
0110
0011
1001
,  // measure 13
0010
0000
0010
0000
0100
0010
1001
0000
,  // measure 14
0110
0000
0001
1000
0000
0001
1000
0001
,  // measure 15
0000
1000
0100
0010
0000
0100
0110
0000
,  // measure 16
0001
0000
0000
0000
1000
0000
0000
1000
0000
0000
1000
0000
0000
0000
0000
0000
,  // measure 17
0100
0000
0000
0000
0010
0000
0000
0010
0000
0000
0010
0000
0000
0000
0000
0000
,  // measure 18
0101
0000
1000
0001
0000
0010
0100
0010
,  // measure 19
0000
0100
0010
0100
0000
0001
1001
0000
,  // measure 20
0001
0000
0000
0000
0010
0000
0000
0010
0000
0000
0010
0000
0000
0000
0000
0000
,  // measure 21
0100
0010
1000
1001
,  // measure 22
0010
0001
0200
0300
,  // measure 23
0010
1000
0010
1000
0001
0100
0001
0000
,  // measure 24
1001
0000
0000
0000
0010
0000
0000
0010
0000
0000
0010
0000
0000
0000
0000
0000
,  // measure 25
1000
0000
0001
0000
1001
0000
0000
1000
0000
0000
1000
0000
0000
0000
0001
0000
,  // measure 26
0100
0000
0001
0010
0001
0010
1000
0100
,  // measure 27
1000
0101
0011
1010
,  // measure 28
0010
0000
0000
0000
0110
0000
0000
0110
0000
0000
0110
0000
0000
0000
0001
0000
,  // measure 29
1000
0000
0100
0000
0010
0000
0000
0010
0000
0000
0000
0000
1000
0000
0001
0000
,  // measure 30
0200
0000
2000
0000
3300
0000
0010
0100
,  // measure 31
0002
0000
0020
0000
0033
0000
0001
0100
,  // measure 32
0020
0200
0000
0330
,  // measure 33
1010
0000
0101
0000
1001
0000
0010
0100
,  // measure 34
0002
0000
2000
0000
3003
0000
0100
0100
,  // measure 35
0020
0000
2000
0000
3030
0000
0010
0100
,  // measure 36
0002
2000
0000
3003
,  // measure 37
1010
0000
1100
0000
0101
0000
0010
0001
,  // measure 38
0200
0000
0010
0000
0010
0000
0310
1000
,  // measure 39
0200
0000
1000
0000
1000
0000
1300
0001
,  // measure 40
0200
0001
0010
0301
,  // measure 41
0110
1001
0220
0330
,  // measure 42
0101
0000
1000
0000
,  // measure 43
0110
0000
0001
0000
,  // measure 44
1010
0011
0110
1001
,  // measure 45
0110
0000
1001
0000
0000
0010
0010
0000
,  // measure 46
1000
0101
1000
0101
,  // measure 47
0000
0001
1010
0100
,  // measure 48
0001
0100
0001
0100
0001
1000
0001
1000
,  // measure 49
0001
0010
0001
0010
0100
0000
1001
0000
,  // measure 50
1000
0101
0000
1001
,  // measure 51
0000
0010
0110
1001
,  // measure 52
0001
0100
0010
0100
0001
0100
0010
0100
,  // measure 53
0001
1000
0100
0010
0001
0000
1001
0000
,  // measure 54
0010
0000
1001
0000
1000
0100
1000
0100
,  // measure 55
1000
0010
1000
0010
1000
0001
1000
0000
,  // measure 56
0010
0101
0010
0101
,  // measure 57
0001
0000
0100
1000
0100
0000
1001
0000
,  // measure 58
0010
0000
2000
0000
3001
0010
1000
0000
,  // measure 59
0100
0000
0002
0000
1003
0100
0001
0000
,  // measure 60
0010
1010
0011
0110
,  // measure 61
2000
0000
0002
3003
,  // measure 62
0010
0100
1001
0000
,  // measure 63
0100
0010
0100
0000
1001
0000
0000
0000
;
