#TITLE:CROSS†OVER;
#SUBTITLE:;
#ARTIST:HyuN feat. LyuU;
#TITLETRANSLIT:CROSS+OVER;
#SUBTITLETRANSLIT:;
#ARTISTTRANSLIT:;
#GENRE:;
#CREDIT:;
#BANNER:CROSS+OVER.png;
#BACKGROUND:CROSS+OVER-bg.png;
#LYRICSPATH:;
#CDTITLE:;
#MUSIC:CROSS+OVER.ogg;
#OFFSET:0.768000;
#SAMPLESTART:62.832169;
#SAMPLELENGTH:19.199997;
#SELECTABLE:YES;
#DISPLAYBPM:100.000000:200.000000;
#BPMS:0.000000=200.000000
,52.750000=150.000000
,53.000000=120.000000
,53.250000=100.000000
,53.500000=200.000000
,83.500000=100.000000
,113.000000=120.000000
,113.666664=145.000000
,114.333336=170.000000
,114.666664=179.000000
,116.750000=200.000000
,245.750000=150.000000
,246.000000=115.000000
,246.500000=100.000000
,253.000000=200.000000
,270.000000=100.000000
,284.000000=200.000000
,286.000000=777.000000
,288.000000=200.000000
;
#STOPS:286.000000=0.226000,
287.000000=0.225006
;
#BGCHANGES:3.000=CROSS+OVER.avi=1.000=0=0=0=StretchNoLoop====,
99999=-nosongbg-=1.000=0=0=0 // don't automatically add -songbackground-
;
#KEYSOUNDS:;
#ATTACKS:;

//---------------dance-single - ----------------
#NOTES:
     dance-single:
     :
     Hard:
     14:
     0.675539,0.847370,0.261828,0.856891,0.245960,596.000000,563.000000,33.000000,108.000000,0.000000,0.000000,0.675539,0.847370,0.261828,0.856891,0.245960,596.000000,563.000000,33.000000,108.000000,0.000000,0.000000:
0000
0000
0000
0000
,
0000
0000
0000
0000
,
0000
0000
0000
0000
,
0000
0000
0000
0000
,
0000
0000
0000
0000
,
0002
0000
0103
0000
0001
1000
0010
1000
,
0200
0000
1300
0000
0100
0010
0001
1000
,
0200
0000
0301
0000
1000
0010
0100
0010
,
2000
0000
0000
0000
3001
0000
0100
0010
0100
0000
0001
0000
1000
0000
0010
0000
,
2000
0000
3100
0000
0010
0001
0100
0001
,
2000
0000
3001
0000
0010
0001
1000
0100
,
0020
0000
0031
0000
1000
0010
0100
0010
,
2000
0000
0000
0000
3001
0000
0100
0010
0100
0000
0001
0000
1000
0000
0100
0000
,
0010
0001
0010
0002
0000
0000
1003
0000
0010
0000
0200
0000
0000
0000
0301
0000
,
0010
1000
0000
0010
0100
0002
0000
1003
,
0010
0002
0000
0103
0010
1000
0001
0020
,
0000
0000
0031
0000
1000
0010
1000
0000
0001
0000
0010
0000
0000
0000
2001
0000
,
0000
3010
0000
0001
0100
0010
0010
1020
,
0000
0130
0000
1000
0001
0010
0001
1000
,
0100
1000
0100
0010
0001
0010
0001
1000
,
0010
1000
0001
1000
0000
0010
0001
2000
,
0000
0000
3000
0000
0001
0010
0200
0000
0000
0310
0000
0000
1000
0001
2000
0000
,
0000
3010
0000
0000
0002
0000
0000
0000
0000
0000
0003
0000
1000
0010
0200
0000
,
0000
0301
0000
0000
0010
0001
0200
0000
0000
0310
0000
0000
1000
0100
0020
0000
,
0000
0031
0000
0000
2002
0000
0000
0000
0000
0000
3003
0000
0010
1000
0002
0000
,
0000
0100
0000
0000
1003
0001
1000
0001
0000
0000
0100
0000
0010
0100
0002
0000
,
0000
0010
0000
0000
0100
0000
0000
1003
0000
0000
1001
0000
1000
0001
0200
0000
,
0000
0310
0000
0000
1000
0010
1000
0002
0000
0000
0103
0000
0010
0000
1010
0000
,
0000
2002
0000
0000
0000
0000
0000
0000
0000
0000
0000
0000
3003
0000
0000
0000
,
0001
0100
1001
0000
0100
0000
0010
1000
,
0100
1000
0010
0100
0001
0100
0001
1000
,
0010
0100
0002
0000
0203
0000
0320
0000
,
2030
0000
3010
0100
0010
1000
0001
0100
,
0010
0100
0002
0000
0203
0000
0310
0100
,
0010
0100
0001
0010
0100
1000
0100
0010
,
0001
1000
0010
0100
0002
0100
0103
0000
,
1001
0000
1000
0100
1000
0100
0010
0001
,
0010
0001
0200
0000
0320
0000
0130
0001
,
0010
0001
0100
0010
1000
0010
1000
0001
,
0100
0010
0200
0000
0320
0000
2030
0000
,
3002
0000
0103
0010
0100
0001
1000
0010
,
0100
0010
2000
0000
3020
0000
0130
0001
,
0100
0010
0100
0010
0100
0001
1000
0010
,
0100
0000
0000
0000
0001
0010
0001
0000
1000
0000
0010
0000
0100
0010
0100
0000
,
0010
0000
1000
0000
0001
0000
1000
0010
1000
0000
0001
0010
0001
0000
1000
0010
,
1000
0010
1000
0010
0200
0000
0000
0000
0310
0000
1000
0000
0010
0000
0100
0000
,
0002
0000
2003
0000
3010
1000
0100
0010
,
0002
0000
0203
0000
0310
2000
0000
3001
,
0020
0000
0031
0100
0010
1000
0001
0010
,
0001
1000
0002
0000
1003
0200
0000
1300
,
0010
1000
0002
0000
0013
0002
0000
1003
,
0100
0010
0002
0000
0103
0020
0000
1030
,
0001
1000
0002
0010
0013
0000
2000
0100
,
3100
0000
1002
0000
0013
0002
0000
1003
,
0100
0010
0002
0000
1003
0200
0000
1300
,
0010
0100
0020
0000
1030
0002
0000
1003
,
0100
0010
0001
0010
0100
0010
0001
1000
,
0100
0010
1001
0000
0010
0100
0000
0001
,
0011
0000
1001
0000
0100
0010
0000
1000
,
1100
2002
3003
0220
,
0330
0000
0000
0000
1000
0001
1000
0000
0001
1000
0001
0000
1000
0000
0100
0000
,
0010
0000
0001
0000
0100
0010
0100
0020
0000
0000
1030
0001
0100
0000
2002
0000
,
3003
0000
1000
0001
0010
0000
2002
0000
3003
0000
1000
0100
0010
0000
0022
0000
,
0033
1000
0100
0010
0001
0000
0000
0000
1000
0000
0000
0000
0011
0000
0000
0000
,
0100
0000
0010
0000
1010
0000
0010
0000
0200
0000
0000
0000
0301
0000
0010
0001
,
0010
0000
0001
0000
1000
0000
0100
0000
1100
0000
0000
0000
0001
0000
1000
0010
,
1000
0000
0001
0000
0100
0000
0001
0010
0001
0000
1000
0100
1000
0000
0010
0100
,
0010
0100
0010
0000
1000
0001
1000
0001
2000
0000
0000
3010
0000
0000
0001
0000
,
0200
0000
0000
1300
0000
0000
0010
0000
2000
0000
0000
3100
0000
0000
0010
0000
,
0002
0000
0000
0000
2003
0000
0010
0000
3020
0000
0000
1030
0000
0000
0100
0000
,
0020
0000
0000
0031
0000
0000
0100
0000
0110
0000
0000
0000
1001
0000
0000
0001
,
2002
0000
0000
3003
0220
0000
0000
0330
2000
0000
0000
0000
3002
0000
0000
0000
,
0103
0010
1000
0002
0010
0013
0011
0000
,
1000
0010
0100
0002
1000
1003
1001
0000
,
2000
0100
3100
0020
0001
0031
0200
0010
,
0010
0310
1000
0010
0100
0001
1000
0001
,
0020
0001
0031
2000
0100
3100
1000
0001
,
0020
0001
0031
0200
0010
0310
1000
0001
,
0020
0001
0031
0200
0010
0310
0100
0001
,
1000
0000
0100
0000
0010
0000
0000
0000
1000
0100
1000
0100
1000
0000
0000
0000
,
0001
0100
1000
0001
0010
1000
0001
0000
,
1000
0100
0001
1000
0010
0001
1000
0000
,
0001
0010
0100
1000
0100
0010
0001
0000
,
0200
0001
1000
0301
,
2000
0000
3010
2000
0000
3001
1001
0000
,
0002
0000
0013
0002
0000
1003
1001
0000
,
0110
0000
0000
0000
1001
0000
0000
0001
,
0101
0000
0000
0000
1100
0000
0000
0000
0010
0001
0010
0000
1000
0100
1000
0100
,
2000
0000
0000
0000
,
3000
0000
0000
0000
;

//---------------dance-single - ----------------
#NOTES:
     dance-single:
     :
     Medium:
     9:
     0.434113,0.529606,0.468116,0.761681,0.031737,383.000000,324.000000,59.000000,96.000000,0.000000,0.000000,0.434113,0.529606,0.468116,0.761681,0.031737,383.000000,324.000000,59.000000,96.000000,0.000000,0.000000:
0000
0000
0000
0000
,
0000
0000
0000
0000
,
0000
0000
0000
0000
,
0000
0000
0000
0000
,
0000
0000
0000
0000
,
2000
0000
3000
0000
0001
0100
0001
0000
,
2000
0000
3000
0000
0001
0010
0001
0000
,
2000
0000
3000
0000
0010
0100
0010
0000
,
2002
0000
3003
0000
0001
0010
0001
0000
,
0200
0000
0300
0000
0010
1000
0001
0000
,
0200
0000
0300
0000
0010
1000
0001
0000
,
0200
0000
0300
0000
0001
0010
0001
0000
,
2000
0000
3000
0000
0001
0100
0010
0000
,
2000
0000
0000
3001
0100
0001
0000
2000
,
0000
3000
0000
0001
0010
0001
0000
2000
,
0000
3000
0000
0010
0100
0010
0000
2000
,
0000
3000
0000
0001
0010
0001
0000
2000
,
0000
3001
0000
0010
0001
0100
0000
0002
,
0000
1003
0000
0010
1000
0100
0000
2002
,
0000
3003
0000
0220
0000
0330
0000
1100
,
0000
0110
0000
0011
0000
0110
0000
2002
,
0000
0000
3003
0000
0000
0000
0010
0000
0000
0010
0000
0000
1000
0000
0001
0000
,
0000
0001
0000
0000
2000
0000
0000
0000
0000
0000
3000
0000
0010
0000
0200
0000
,
0000
0000
0300
0000
0001
0000
0100
0000
0000
0100
0000
0000
0001
0000
1000
0000
,
0000
1000
0000
0000
0002
0000
0000
0000
0000
0000
0003
0000
0100
0000
0020
0000
,
0000
0000
1030
0000
0001
0000
1000
0000
0000
1000
0000
0000
1000
0000
0001
0000
,
0000
0001
0000
0000
0002
0000
0000
0000
0000
0000
0103
0000
0010
0000
0200
0000
,
0000
0000
0300
0000
0010
0000
1000
0000
0000
1000
0000
0000
1000
0000
0001
0000
,
0000
0001
0000
0000
0200
0000
0000
0000
0000
0000
0000
0000
0300
0000
0000
0000
,
0000
2000
0001
3100
,
0001
1000
0100
0000
0000
0001
0000
0000
,
1000
0000
0010
0000
1000
0010
0000
1000
,
0001
1000
0100
0001
,
1000
0100
0020
0000
0001
0000
0031
0000
,
0100
0010
1000
0000
0000
0001
0000
0000
,
0100
0000
1000
0000
0010
1000
0000
0001
,
1000
0001
0010
0100
,
0010
0001
2000
0000
0010
0000
3001
0000
,
0100
0010
1000
0000
0000
0001
0000
0000
,
0100
0000
0001
0000
1000
0010
0000
1000
,
0001
1000
0100
0010
,
0001
0100
0002
0000
1000
0000
1003
0000
,
0010
0100
0001
0000
1000
0100
0000
0010
,
0001
0000
0110
0000
0000
2002
0000
0000
,
3003
1100
0110
0011
,
0110
0000
2000
0000
0010
3010
0000
0000
,
1001
0000
0002
0000
0010
0013
0000
0000
,
1001
0000
0200
0000
0010
0310
0000
0000
,
1000
2002
3003
0220
,
0330
0000
0002
0000
1000
1003
0000
0000
,
0110
0000
2000
0000
0001
3001
0000
0000
,
0110
0000
0002
0000
1000
1003
0000
0000
,
1000
0011
0110
1100
,
0110
0000
0011
0000
0001
2000
0000
0000
,
3001
0000
1010
0000
1000
0002
0000
0000
,
1003
0000
0010
0000
0100
0020
0000
0000
,
0130
0002
0100
1000
,
0013
0000
2010
0000
0000
3001
0000
0000
,
0100
0000
1002
0000
0000
0013
0000
0000
,
0100
2002
3003
0220
,
0330
1100
0110
0011
,
0110
0000
2002
0000
3003
0010
1000
0002
,
0000
1003
0100
0020
0000
0031
0100
0020
,
0000
0130
0000
0000
2002
0000
3003
0000
,
1000
0100
0010
0000
2002
0000
3003
0000
,
0001
0010
0100
0000
2002
0000
3003
0000
,
0220
0330
0011
1010
,
1100
0101
2002
3003
,
2000
3000
0002
0003
,
0200
0300
0020
2030
,
3200
0302
0023
0230
,
0020
0330
0000
0000
,
0000
0000
0001
2000
0000
0000
3001
0000
,
1000
0000
0001
2000
0000
0000
3001
0000
,
1000
0000
1000
0100
0000
0010
0001
0000
,
0200
0010
0001
0310
,
0002
0000
0000
0103
0000
0000
1000
0000
,
0002
0000
0000
0013
0000
0000
1000
0000
,
0001
0000
0010
0001
0000
1000
0100
0000
,
0010
0101
1010
0101
,
2000
0000
0100
3100
0000
0000
1001
0000
,
0002
0000
0010
0013
0000
0000
1001
0000
,
0200
0000
0010
0310
0000
0000
1001
0000
,
2000
0100
0010
3001
,
0012
0000
0000
0100
0000
0000
1003
0000
,
2100
0000
0000
0010
0000
0000
3001
0000
,
0220
0330
2002
3003
,
0011
0101
1100
0110
,
2002
0000
0000
0000
,
3003
0000
0000
0000
;

//---------------dance-single - ----------------
#NOTES:
     dance-single:
     :
     Easy:
     6:
     0.298098,0.388378,0.317367,0.642668,0.000000,263.000000,223.000000,40.000000,81.000000,0.000000,0.000000,0.298098,0.388378,0.317367,0.642668,0.000000,263.000000,223.000000,40.000000,81.000000,0.000000,0.000000:
0000
0000
0000
0000
,
0000
0000
0000
0000
,
0000
0000
0000
0000
,
0000
0000
0000
0000
,
0000
0000
0000
0000
,
2000
3000
0001
1000
,
0002
0003
1000
0001
,
2000
3000
0010
0100
,
2002
3003
1001
0000
,
0200
0300
0010
1000
,
0002
0003
1000
0010
,
0200
0300
0001
1000
,
0002
0003
1001
0000
,
2000
0000
0000
3100
0000
0000
0000
0020
,
0000
0000
0000
0130
0000
0000
0000
0002
,
0000
0000
0000
1003
0000
0000
0000
2000
,
0000
0000
0000
3010
0000
0000
0000
0002
,
0000
0000
0000
0103
0000
0000
0000
2000
,
0000
0000
0000
3100
0000
0000
0000
1001
,
0000
0000
0000
0110
0000
0000
0000
1001
,
0000
1001
0000
1001
0000
0000
0000
0020
,
0000
0030
0000
2000
0000
3000
0000
0200
,
0000
0300
0000
0002
0000
0003
0000
0020
,
0000
0030
0000
0002
0000
0003
0000
0200
,
0000
0300
0000
2000
0000
3000
0000
0010
,
0000
1000
0000
0100
0000
0001
0000
0010
,
0000
0100
0000
1000
0000
1001
0000
0010
,
0000
0001
0000
0100
0000
1000
0000
0002
,
0000
2000
0000
0000
0000
0000
3003
0000
,
0000
1000
0001
0100
,
0000
0100
0000
1001
,
0000
0010
1000
0001
,
0000
0010
0000
1001
,
0000
0010
0001
1000
,
0000
0100
0000
1001
,
0000
1000
0010
0100
,
0000
0001
0010
0100
,
0000
1000
0010
0001
,
0000
1000
0000
1001
,
0000
0001
0010
1000
,
0000
0100
0000
1001
,
0000
0002
1000
1003
,
0000
2000
0001
3001
,
0000
0110
0000
1001
,
0000
1001
1001
1001
,
0000
0000
2000
0000
0000
3010
0000
0000
,
0000
0000
0002
0000
0000
0013
0000
0000
,
0000
0000
0200
0000
0000
0310
0000
0000
,
0000
2002
3003
0000
,
0000
0000
0002
0000
0000
1003
0000
0000
,
0000
0000
2000
0000
0000
3001
0000
0000
,
0000
0000
0002
0000
0000
1003
0000
0000
,
0001
0010
0100
1000
,
0100
0000
0010
0000
0000
1001
0000
0000
,
0000
0000
0010
0000
0000
1001
0000
0000
,
0000
0010
0100
0001
,
1000
2002
0000
0000
,
3003
0220
0330
1000
,
0001
2002
3003
0100
,
0010
0220
0330
2002
,
3003
0010
0010
0010
,
0000
0000
2002
0000
3003
1001
0000
1000
,
0000
0001
0000
1000
0000
0001
0000
1000
,
0000
1000
0000
0000
2002
0000
3003
0000
,
1000
0010
2002
3003
,
0001
0100
2002
3003
,
0220
0330
0010
0010
,
0100
0100
2002
3003
,
2000
3000
0002
0003
,
0200
0300
0020
0032
,
0203
2300
3020
0230
,
0020
0330
0000
0000
,
0000
0000
0001
0100
,
1000
0000
0001
0010
,
1000
0000
1000
0100
,
0002
0000
2000
3003
,
0001
0100
1000
0100
,
0001
0010
1000
0010
,
0001
0010
0100
1000
,
0010
0001
0100
1000
,
0100
0001
1000
0010
,
0001
0100
1000
0001
,
0010
1000
0100
0010
,
2002
0000
3003
0001
,
0022
0000
0030
1003
,
2200
0000
0300
3001
,
0220
0330
2002
3003
,
0010
0001
0100
1000
,
2002
0000
0000
0000
,
3003
0000
0000
0000
;

//---------------dance-single - ----------------
#NOTES:
     dance-single:
     :
     Beginner:
     4:
     0.172285,0.247150,0.079342,0.412577,0.000000,152.000000,142.000000,10.000000,52.000000,0.000000,0.000000,0.172285,0.247150,0.079342,0.412577,0.000000,152.000000,142.000000,10.000000,52.000000,0.000000,0.000000:
// measure 0
0000
0000
0000
0000
,  // measure 1
0000
0000
0000
0000
,  // measure 2
0000
0000
0000
0000
,  // measure 3
0000
0000
0000
0000
,  // measure 4
0000
0000
0000
0000
,  // measure 5
2000
3000
1000
0000
,  // measure 6
0002
0003
0001
0000
,  // measure 7
2000
3000
1000
0000
,  // measure 8
0002
0003
0001
0000
,  // measure 9
0200
0300
0100
0000
,  // measure 10
0020
0030
0010
0000
,  // measure 11
0200
0300
0100
0000
,  // measure 12
0020
0030
0010
0000
,  // measure 13
0020
0000
0030
0010
0000
0000
0000
0200
,  // measure 14
0000
0300
0000
0100
0000
0000
0000
0002
,  // measure 15
0000
0003
0000
0001
0000
0000
0000
2000
,  // measure 16
0000
3000
0000
1000
0000
0000
0000
0001
,  // measure 17
0000
0000
0000
0000
0000
0000
0000
1000
,  // measure 18
0000
0000
0000
0000
0000
0000
0000
0010
,  // measure 19
0000
0000
0000
0100
0000
0000
0000
0010
,  // measure 20
0000
0010
0000
0010
0000
0000
0000
0010
,  // measure 21
0000
0000
0000
1000
0000
0000
0000
0100
,  // measure 22
0000
0000
0000
0001
0000
0000
0000
0010
,  // measure 23
0000
0000
0000
0001
0000
0000
0000
0100
,  // measure 24
0000
0000
0000
1000
0000
0000
0000
0010
,  // measure 25
0000
0000
0000
1000
0000
0000
0000
0010
,  // measure 26
0000
0000
0000
0001
0000
0000
0000
0010
,  // measure 27
0000
0000
0000
0100
0000
0000
0000
2002
,  // measure 28
0000
0000
0000
3003
,  // measure 29
0000
1000
0000
1000
,  // measure 30
0000
1000
0000
0000
,  // measure 31
0000
0001
0000
0001
,  // measure 32
0000
0001
0000
0000
,  // measure 33
0000
0010
0000
0000
,  // measure 34
0000
0100
0000
0000
,  // measure 35
0000
0010
0000
0010
,  // measure 36
0000
0100
0000
0100
,  // measure 37
0000
1000
0000
0000
,  // measure 38
0000
0001
0000
0000
,  // measure 39
0000
1000
0000
0001
,  // measure 40
0000
1000
0000
0001
,  // measure 41
0000
2002
0000
3003
,  // measure 42
0000
2002
0000
3003
,  // measure 43
0000
1000
0000
1000
,  // measure 44
0000
1000
1000
1000
,  // measure 45
0000
2000
0000
3000
,  // measure 46
0000
0002
0000
0003
,  // measure 47
0000
0200
0000
0300
,  // measure 48
0000
0020
0000
0030
,  // measure 49
0000
0002
0000
0003
,  // measure 50
0000
2000
0000
3000
,  // measure 51
0000
0020
0000
0030
,  // measure 52
0000
0010
0000
0100
,  // measure 53
0000
0020
0000
0030
,  // measure 54
0000
0200
0000
0300
,  // measure 55
0000
0010
0000
0100
,  // measure 56
0000
0220
0000
0330
,  // measure 57
0000
0020
0030
0010
,  // measure 58
0000
0200
0300
0100
,  // measure 59
0000
0010
0000
0100
,  // measure 60
0000
0010
0010
0010
,  // measure 61
0000
0000
2002
0000
3003
0000
0000
1000
,  // measure 62
0000
0000
0000
0001
0000
0000
0000
1000
,  // measure 63
0000
0000
2002
3003
,  // measure 64
0000
0000
2002
3003
,  // measure 65
0000
0000
2002
3003
,  // measure 66
0000
0000
0010
0010
,  // measure 67
0010
0000
0002
0003
,  // measure 68
2000
3000
0002
0003
,  // measure 69
0200
0300
0020
0030
,  // measure 70
0200
0300
0020
0030
,  // measure 71
0100
0000
0000
0000
,  // measure 72
0000
0000
0001
0000
,  // measure 73
1000
0000
0001
0000
,  // measure 74
1000
0000
0001
0000
,  // measure 75
1000
0000
0000
0000
,  // measure 76
0010
0000
0100
0000
,  // measure 77
0010
0000
0100
0000
,  // measure 78
0010
0000
0010
0000
,  // measure 79
0010
0010
0010
0000
,  // measure 80
1000
0000
1000
0000
,  // measure 81
0001
0000
0001
0000
,  // measure 82
1000
0000
0001
0000
,  // measure 83
2002
0000
3003
0000
,  // measure 84
0020
0000
0030
0000
,  // measure 85
0200
0000
0300
0000
,  // measure 86
0010
0000
0100
0000
,  // measure 87
0010
0010
0010
0000
,  // measure 88
2002
0000
0000
0000
,  // measure 89
3003
0000
0000
0000
;
