#TITLE:Believe (y)our Wings {V\:IVID RAYS};
#SUBTITLE:;
#ARTIST:RASIS COLORS;
#TITLETRANSLIT:;
#SUBTITLETRANSLIT:;
#ARTISTTRANSLIT:;
#GENRE:;
#CREDIT:;
#BANNER:Believe (y)our Wings {VIVID RAYS}.png;
#BACKGROUND:Believe (y)our Wings {VIVID RAYS}-bg.png;
#LYRICSPATH:;
#CDTITLE:;
#MUSIC:Believe (y)our Wings {VIVID RAYS}.ogg;
#OFFSET:0.175000;
#SAMPLESTART:49.260105;
#SAMPLELENGTH:12.000000;
#SELECTABLE:YES;
#BPMS:0.000000=188.000000
;
#STOPS:
;
#BGCHANGES:;
#KEYSOUNDS:;
#ATTACKS:;

//---------------dance-single - ----------------
#NOTES:
     dance-single:
     :
     Hard:
     13:
     0.650308,0.637793,0.456819,0.416747,0.000000,568.000000,511.000000,57.000000,52.000000,0.000000,0.000000,0.650308,0.637793,0.456819,0.416747,0.000000,568.000000,511.000000,57.000000,52.000000,0.000000,0.000000:
// measure 0
0000
0000
0000
0000
,  // measure 1
0000
0000
0000
0000
,  // measure 2
0000
0000
0000
0000
0000
0000
1000
2002
,  // measure 3
0000
3003
1010
0000
0100
0001
0000
2002
,  // measure 4
0000
3003
0001
0000
0100
0010
0000
2002
,  // measure 5
0000
3003
1000
0000
0010
0100
0000
1001
,  // measure 6
0000
0010
0100
0001
1000
0001
0000
1100
,  // measure 7
0000
0010
0001
0100
0000
0010
1000
0100
,  // measure 8
0000
0010
0001
1000
0000
1000
0100
0010
,  // measure 9
0000
0100
0010
0001
0000
1000
0001
0101
,  // measure 10
0000
0001
0010
0100
0000
1100
0000
0101
,  // measure 11
0000
0010
0010
0000
1001
0000
1000
0001
,  // measure 12
0200
0000
0310
0000
1000
0001
0010
0002
,  // measure 13
0000
0100
0103
0000
0010
1000
0001
2000
,  // measure 14
0000
0100
3100
0000
0010
0001
1000
0020
,  // measure 15
0000
0130
0010
0000
1000
0001
0010
0002
,  // measure 16
0000
1003
0010
1000
0000
0100
0001
1000
,  // measure 17
0000
0010
1000
0100
0000
0010
0001
1000
,  // measure 18
1001
0000
0000
1100
0000
0010
0001
0100
,  // measure 19
0000
0001
1000
0001
1000
0001
1000
0100
,  // measure 20
0010
0001
0010
0100
1000
0001
0010
0001
,  // measure 21
0000
1000
0001
1000
0001
1000
0001
0010
,  // measure 22
0100
1000
0100
0010
0001
1000
0100
0010
,  // measure 23
0000
0001
0100
1000
0000
0001
0010
1000
,  // measure 24
0000
0001
1000
0100
1000
0100
0010
0001
,  // measure 25
0000
0100
0010
0100
0001
0010
0100
1000
,  // measure 26
0000
1000
0001
0000
0100
0001
1000
0000
,  // measure 27
0010
0011
0000
1010
0000
0110
0000
0001
,  // measure 28
1000
0000
0010
0001
0100
0100
0100
0000
,  // measure 29
1000
1010
0000
0011
0000
0110
0000
0010
,  // measure 30
1000
0000
0001
0100
0010
0010
0010
0000
,  // measure 31
1020
0000
0130
0002
0000
1003
0100
0010
,  // measure 32
0000
0010
0001
0000
1010
0000
0101
0000
,  // measure 33
2010
0000
3001
0020
0000
0031
0100
0010
,  // measure 34
0000
1000
0001
0000
1000
0100
0010
0001
,  // measure 35
1000
1001
0000
0010
0110
0000
1000
1100
,  // measure 36
0000
0010
0001
1000
0100
0010
0000
1000
,  // measure 37
1001
0001
0000
0110
0100
0000
0011
0010
,  // measure 38
0000
1100
0200
0000
0000
0000
0310
2000
,  // measure 39
0000
3001
0100
0001
0010
0001
1000
0020
,  // measure 40
0000
0130
0001
1000
0100
0010
0001
0200
,  // measure 41
0000
0301
0010
0001
1000
0100
0010
0002
,  // measure 42
0000
1003
0100
1000
0010
0010
0100
0002
,  // measure 43
0000
1003
1010
0000
0100
0001
1000
0001
,  // measure 44
0000
1000
0010
0000
1000
0100
0010
0001
,  // measure 45
0200
0000
0001
0000
0010
0000
0301
2000
,  // measure 46
0000
0010
3010
0000
0001
0010
0100
2000
,  // measure 47
0000
3001
0100
0001
1000
0100
0010
0002
,  // measure 48
0000
1003
0010
1000
0001
0010
0100
2000
,  // measure 49
0000
3001
0100
0010
1000
0001
0010
0002
,  // measure 50
0000
0103
0010
0010
0100
0001
1000
1001
,  // measure 51
0000
1000
0010
0100
0000
0001
0100
0010
,  // measure 52
0000
1000
0100
0001
0000
1000
0010
0001
,  // measure 53
0000
1000
0100
0010
0000
0100
0010
0001
,  // measure 54
0000
0010
0100
1000
0100
0010
0000
2002
,  // measure 55
0000
3003
1001
0000
1000
0100
1000
0010
,  // measure 56
0100
0100
0000
0000
0001
0001
0000
2001
,  // measure 57
0000
0010
0001
3100
,  // measure 58
0010
0010
0000
0000
1000
1000
0000
1002
,  // measure 59
0000
0010
0100
1003
,  // measure 60
0110
0010
0000
0000
1001
1000
0000
0012
,  // measure 61
0000
0100
1000
0013
,  // measure 62
1010
1000
0000
0000
0101
0001
0000
2002
,  // measure 63
0000
0000
0000
0000
3003
0000
0010
0200
,  // measure 64
0000
0000
0001
0000
0010
0310
0000
2010
,  // measure 65
0000
0000
0001
0000
0100
3100
0000
0012
,  // measure 66
0000
0000
1000
0000
0100
0103
0000
1001
,  // measure 67
0000
1000
0100
1000
0001
0010
0100
1000
,  // measure 68
0000
0000
0101
0000
1000
0010
0100
0001
,  // measure 69
0000
0100
0010
0000
1000
0001
0010
0100
,  // measure 70
0001
1010
0001
0110
,  // measure 71
1000
0000
0101
0000
1000
0100
0010
0002
,  // measure 72
0000
0010
0013
0001
1000
0100
0010
0002
,  // measure 73
0000
1000
1003
0010
0100
0010
1000
2000
,  // measure 74
0000
3001
0010
0100
0010
0001
1000
0020
,  // measure 75
0000
0130
0001
0100
0010
1000
0100
0010
,  // measure 76
0000
0001
0100
1000
0000
0001
0010
1000
,  // measure 77
0000
1000
0100
0001
0000
1000
0010
0001
,  // measure 78
0000
0100
0010
1000
0000
0001
0010
0100
,  // measure 79
0000
0100
0010
1000
0001
0010
0001
0101
,  // measure 80
0000
0010
1000
1000
0000
0010
0001
0001
,  // measure 81
0000
0100
0010
0010
0000
1000
0100
0100
,  // measure 82
0000
0001
0100
0100
0000
1000
0010
1010
,  // measure 83
0000
0001
0010
0100
0010
0001
1000
2002
,  // measure 84
0000
3003
1001
0000
0010
0001
0100
0020
,  // measure 85
0000
0000
1000
0000
0100
0230
0000
0302
,  // measure 86
0000
0000
1000
0000
0010
0023
0000
0032
,  // measure 87
0000
0000
0100
0000
1000
1000
0000
2003
,  // measure 88
0000
3010
0100
0010
1000
0001
0010
0100
,  // measure 89
1000
0001
0010
1000
0001
0100
0010
1000
,  // measure 90
0100
0010
0001
2000
0000
0000
3001
0000
,  // measure 91
0011
0000
0000
1100
0000
0000
0100
0010
,  // measure 92
0220
0000
0000
0000
,  // measure 93
0000
0000
0330
0000
1100
0011
0000
0000
;

//---------------dance-double - ----------------
#NOTES:
     dance-double:
     :
     Hard:
     12:
     0.597642,0.637793,0.392704,0.408732,0.000000,522.000000,473.000000,49.000000,51.000000,0.000000,0.000000,0.597642,0.637793,0.392704,0.408732,0.000000,522.000000,473.000000,49.000000,51.000000,0.000000,0.000000:
00000000
00000000
00000000
00000000
,
00000000
00000000
00000000
00000000
,
00000000
00000000
00000000
00000000
00000000
00000000
10000000
10020000
,
00000000
00000000
00100000
00000000
01000000
01030000
00000000
00102000
,
00000000
00000000
00010000
00000000
00100000
00103000
00000000
00010200
,
00000000
00000000
00001000
00000000
00010000
00010300
00000000
00001100
,
00000000
00001000
00000100
00000010
00000001
00001000
00000000
00000102
,
00000000
00001003
00000001
00001000
00000000
00000100
00010000
00000100
,
00000000
00100000
00001000
00100000
00000000
00010000
01000000
00010000
,
00000000
10000000
01000000
00100000
00000000
01000000
00010000
00100000
,
00000000
00100000
00001000
00010000
00000000
00011000
00000000
00020200
,
00000000
00000000
00030300
00000000
00001000
00000010
00000100
00000002
,
00000000
00000000
00001000
00000000
00001003
00001001
00000000
00002000
,
00000000
00000000
00003100
00000000
00010000
00001000
00000000
00012000
,
00000000
00000000
00103000
00000000
00100000
00010000
00000000
01020000
,
00000000
00000000
00130000
00000000
00010000
01000000
00000000
00100000
,
00000000
10000000
01000000
00100000
00000000
00100000
00001000
00010000
,
00000000
00010000
00000010
00001000
00000000
00000001
00000100
00000000
,
00000101
00000000
00000000
00001100
00000000
00000000
00000100
00020000
,
00000000
00001000
00000100
00031000
,
00000100
00010000
00001000
00100000
00010000
00100000
00001000
00200000
,
00000000
00001000
00010000
00301000
,
00010000
00000100
00001000
00000100
00010000
00001000
00001000
01000000
,
00000000
00100000
00100000
10000000
00000000
00001000
00001000
00010000
,
00000000
00000010
00000010
00001000
00000001
00001000
00000001
00001000
,
00000000
00000100
00010000
00001000
00010000
00000100
00010000
00001000
,
00000000
00100000
00010000
00000000
10000000
01000000
00000000
00010000
,
10000000
10000000
00000000
01010000
00000000
00110000
00000000
00000000
,
00100000
00001000
00010000
00000000
00010000
00000010
00001000
00000000
,
00001000
00000001
00000000
00001001
00000000
00001100
00000000
00000000
,
00000200
00000000
00000000
00020300
00000000
00000000
00031000
00000000
,
00200000
00000000
00000000
00302000
00000000
00000000
00103000
00010000
,
01000000
00100000
10000000
01000000
00100000
00010000
00100000
00000000
,
00002000
00000000
00000000
00023000
00000000
00000000
00030010
00001000
,
00000100
00000010
00000001
00000010
00000100
00001000
00000100
00010000
,
00001000
00010000
00000000
00100000
00010000
00000000
10000000
01000000
,
00000000
00010000
00001000
00000000
00010000
00000010
00001000
00000000
,
00000001
00000010
00000000
00000100
00001000
00000000
00010000
00001000
,
00000000
00001000
00020000
00000000
00000000
00000000
00031000
00012000
,
00000000
00000000
00100000
00000000
00013000
00000100
00001000
00000020
,
00000000
00000000
00000130
00000000
00000001
00001000
00000100
00020000
,
00000000
00000000
00031000
00000000
00100000
00010000
01000000
00200000
,
00000000
10300000
01000000
00100000
00000000
01000000
00100000
00002000
,
00000000
00013000
00000100
00000000
00001000
00000100
00000010
00000002
,
00000000
00001003
00000100
00000000
00010000
00001000
00100000
00000000
,
00020000
01000000
10000000
00130000
,
00200000
00000000
00001000
00000000
00310000
00000000
00100000
00101000
,
00000000
00100000
00001000
00010000
00001000
00001000
00000000
00010100
,
00000000
00001000
00000010
00000100
00000001
00000001
00000000
00001100
,
00000000
00000100
00010000
00001000
00010000
00010000
00000000
00011000
,
00000000
00010000
00001000
00100000
00001000
00100000
00000000
00010000
,
00000000
01000000
00010000
10000000
00000000
00010000
01000000
10000000
,
00000000
00010000
00100000
10000000
00000000
00010000
00100000
00001000
,
00000000
00010000
00000100
00001000
00000000
00000010
00001000
00000001
,
00000000
00001000
00000100
00000001
00000000
00001000
00000000
00000202
,
00000000
00000303
00001001
00000000
00001000
00000100
00000010
00000001
,
00000010
00000011
00000000
00000000
00001000
00001100
00000000
00001010
,
00000000
00000010
00010000
00000000
00001000
00100000
00010000
00000000
,
01000000
01100000
00000000
00000000
10000000
10010000
00000000
00110000
,
00000000
00100000
00001000
00000000
00010000
00000010
00001000
00000000
,
00000001
00000101
00000000
00000000
00001000
00001100
00000000
00010100
,
00000000
00010000
00001000
00000000
00100000
00010000
01000000
00000000
,
10000000
10100000
00000000
00000000
00100000
00110000
00000000
00202000
,
00000000
00000000
00000000
00000000
00303000
00000000
00010000
00010200
,
00000000
00000000
00001000
00000000
00010000
00010300
00000000
00012000
,
00000000
00000000
00100000
00000000
00010000
00013000
00000000
01020000
,
00000000
00000000
10000000
00000000
00100000
00130000
00000000
00101000
,
00000000
00010000
00000100
00001000
00000000
00000010
00001000
00000002
,
00000000
00000100
00000100
00000103
00000000
00002000
00000100
00003100
,
00000000
00010000
00001000
00000000
00001000
00100000
00010000
00100000
,
00002000
00000000
01000000
00000000
00013000
00000000
01000000
00020000
,
00000000
10030000
10010000
00000000
10000000
01000000
00100000
00020000
,
00000000
00100000
00130000
00000000
00100000
00001000
00010000
00002000
,
00000000
00010000
00013000
00000000
00010000
00000010
00001000
00000020
,
00000000
00000100
00000130
00000000
00000001
00000100
00000010
00002000
,
00000000
00003100
00000010
00000001
00001000
00000001
00000000
00001001
,
00000000
00000001
00000100
00001000
00000000
00000010
00010000
00001000
,
00000000
00001000
00100000
00010000
00000000
00010000
01000000
10000000
,
00000000
10000000
00100000
00010000
00000000
00100000
00001000
00010000
,
00000000
00010000
00000010
00001000
00000000
00000001
00000010
00001000
,
00000000
00000100
00010000
00001000
00000000
00100000
00010000
01000000
,
00000000
10000000
00100000
00010000
00000000
00100000
00001000
00010000
,
00000000
00000010
00001000
00000001
00000000
00001000
00000100
00000010
,
00000000
00000001
00000010
00000100
00000000
00001001
00000000
00002000
,
00000000
00000000
00003001
00000000
00000011
00000000
00001000
00002200
,
00000000
00000300
00000010
00000000
00000001
00000001
00000000
00003200
,
00000000
00000000
00010000
00000000
00001000
00001000
00000000
00020300
,
00000000
00000000
00001000
00000000
00000100
00000100
00000000
00032000
,
00000000
01000000
00013000
01000000
00100000
10000000
01000000
00100000
,
00010000
00100000
00001000
00010000
00000010
00001000
00000100
00000010
,
00000001
00001000
00000100
00020000
00000000
00000000
00031000
00100000
,
00110000
00000000
00000000
11000000
00000000
00100000
00001000
00010000
,
00022000
00000000
00000000
00000000
,
00000000
00000000
00033000
00000000
00110000
00011000
00000000
00000000
;

//---------------dance-double - ----------------
#NOTES:
     dance-double:
     :
     Medium:
     9:
     0.423616,0.525241,0.264474,0.352632,0.000000,370.000000,337.000000,33.000000,44.000000,0.000000,0.000000,0.423616,0.525241,0.264474,0.352632,0.000000,370.000000,337.000000,33.000000,44.000000,0.000000,0.000000:
00000000
00000000
00000000
00000000
,
00000000
00000000
00000000
00000000
,
00000000
00000000
00000000
00000000
00000000
00000000
10000000
00020000
,
00000000
00000000
00100000
00000000
01030000
00000000
00000000
02000000
,
00000000
00000000
00001000
00000000
03010000
00000000
00000000
00002000
,
00000000
00000000
00010000
00000000
00013000
00000000
00000000
00020000
,
00000000
00000000
00000010
00000000
00030100
00000000
00000000
00000010
,
00000000
00000000
00001000
00000100
00000000
00000000
00001000
00000010
,
00000000
00000000
00001000
00000001
00000000
00000000
00001000
00000100
,
00000000
00000000
00001000
00000001
00000000
00000000
00001000
00000100
,
00000000
00010000
00000000
00001000
00000000
01000000
00000000
00020000
,
00000000
00000000
10030000
00000000
00100000
00000000
10000000
00020000
,
00000000
00000000
00100000
00000000
01030000
00010000
00000000
00020000
,
00000000
00000000
10000000
00000000
00130000
00001000
00000000
00020000
,
00000000
00000000
00000100
00000000
00030100
00001000
00000000
00000020
,
00000000
00000000
00001000
00000000
00000130
00000010
00000000
00001000
,
00000000
00000001
00001000
00000010
00000000
00001000
00000100
00010000
,
00000000
00001000
00010000
00002000
00000000
00000000
00103000
00000000
,
00110000
00000000
00000000
11000000
00000000
00000000
00100000
01000000
,
00000000
10000000
01000000
00010000
,
00001000
00000010
00000001
00000100
,
00001000
00010000
00100000
10000000
,
01000000
00000000
00100000
00000000
00010000
01000000
00010000
01000000
,
00000000
10000000
01000000
10000000
00000000
00010000
00100000
00010000
,
00000000
10000000
00100000
10000000
00000000
00010000
00000000
00100000
,
00000000
00001000
00001000
00000000
00010000
00000000
00000010
00000000
,
00001000
00000000
00000001
00000000
00000100
00000000
00000000
00001000
,
00000001
00001000
00000000
00001001
00000000
00001001
00000000
00000000
,
00000010
00010000
00001000
01000000
,
00010000
10000000
00000000
10010000
00000000
10010000
00000000
00000000
,
00100000
00001000
00010000
00000010
,
00002000
00000000
00000000
00000002
00000000
00000000
00003003
00000000
,
00000010
00010000
00001000
00100000
,
00020000
00000000
00000000
20000000
00000000
00000000
30030000
00000000
,
01000000
00001000
00010000
00000100
,
00001000
00000100
00000000
00000010
00000001
00000000
00000100
00000010
,
00000000
00001000
00000100
00000000
00010000
00000000
00001000
00000000
,
01000000
00100000
00000000
10000000
00010000
00000000
00100000
00001000
,
00000000
00010000
00001000
00000000
00000000
00000000
00000000
00020200
,
00000000
00030300
00010000
00000000
00000100
00000000
00000000
00002020
,
00000000
00003030
00000100
00000000
00000001
00000000
00000000
00002200
,
00000000
00003300
00000100
00000000
00010000
00000000
00000000
00022000
,
00000000
00033000
00001000
00000000
00100000
00000000
00000000
00010000
,
00000000
10000000
00010000
10000000
00000000
00100000
01000000
00100000
,
00000000
00010000
00100000
00001000
,
00020000
00000100
00001000
00030010
,
00000020
00000000
00001000
00000000
00000130
00000000
00000000
00001002
,
00000000
00000000
00000010
00000000
00001003
00000000
00000000
00001200
,
00000000
00000000
00010000
00000000
00001300
00000000
00000000
00012000
,
00000000
00000000
01000000
00000000
00013000
00000000
00000000
02010000
,
00000000
00000000
00100000
00000000
03010000
00000000
00000000
10010000
,
00000000
10000000
00100000
10000000
00000000
00010000
01000000
00010000
,
00000000
00100000
00001000
00100000
00000000
00100000
00010000
00100000
,
00000000
00001000
00010000
00001000
00000000
00010000
00000000
00000010
,
00000000
00000100
00000000
00000001
00000000
00001000
00000000
00000200
,
00000000
00010300
00001000
00000000
,
00010000
00001000
00000000
00000000
00010000
00000000
00000000
00012000
,
00000000
00100000
00103000
00000000
,
01000000
00100000
00000000
00000000
01000000
00000000
00000000
10020000
,
00000000
00100000
00130000
00000000
,
00100000
00001000
00000000
00000000
00010000
00001000
00000000
00021000
,
00000000
00000100
00030100
00000000
,
00001000
00000010
00000000
00000000
00000100
00000001
00000000
00002002
,
00000000
00000000
00000000
00000000
00003003
00000000
00000000
00001010
,
00000000
00000000
00000001
00000000
00001000
00000000
00000000
00001100
,
00000000
00000000
00000100
00000000
00010000
00000000
00000000
00011000
,
00000000
00000000
00100000
00000000
00010000
00000000
00000000
01100000
,
00000000
00000000
10000000
00000000
00010000
00000000
00000000
00100000
,
00000000
00001000
00010000
00000010
,
00001000
00000001
00000010
00000100
,
00002000
00000100
00000000
00003010
,
00000000
00000000
00001001
00000000
00000110
00000000
00001000
00000001
,
00000000
00000000
00001000
00000000
00000100
00010000
00000000
00010000
,
00000000
00000000
00001000
00000000
00100000
00010000
00000000
00010000
,
00000000
00000000
10000000
00000000
01000000
00100000
00000000
00100000
,
00000000
00000000
00001000
00000000
00010000
00000100
00000000
00000100
,
00000000
00000000
00001000
00000010
00000000
00000000
00000100
00000001
,
00000000
00000000
00001000
00000100
00000000
00000000
00000010
00000001
,
00000000
00000000
00001000
00000000
00000100
00000000
00010000
00001000
,
00000000
00000000
00001000
00000000
00100000
00000000
00010000
00010000
,
00000000
00000000
10000000
10000000
00000000
00000000
00100000
00100000
,
00000000
00000000
01000000
01000000
00000000
00000000
00010000
00100000
,
00000000
00000000
00001000
00010000
00000000
00000000
00000000
00000100
,
00000000
00001000
00000000
00000010
00000000
00000001
00000000
00000200
,
00000000
00000000
00000310
00000000
00001001
00000000
00001000
00000200
,
00000000
00000000
00010000
00000000
00001300
00000000
00000000
00012000
,
00000000
00000000
00100000
00000000
00103000
00000000
00000000
01020000
,
00000000
00000000
10000000
00000000
10030000
00000000
00000000
02001000
,
00000000
00000000
00010000
00000000
03010000
00000000
00000000
00021000
,
00000000
00030100
00001000
00000010
,
00000001
00000000
00000100
00000020
00000000
00000000
00001030
00000000
,
00001010
00000000
00000000
00011000
00000000
00000000
00000000
00000000
,
02020000
00000000
00000000
00000000
,
00000000
00000000
03030000
00000000
00100000
00100000
00000000
00000000
;

//---------------dance-double - ----------------
#NOTES:
     dance-double:
     :
     Easy:
     5:
     0.304546,0.412690,0.256460,0.344618,0.000000,266.000000,234.000000,32.000000,43.000000,0.000000,0.000000,0.304546,0.412690,0.256460,0.344618,0.000000,266.000000,234.000000,32.000000,43.000000,0.000000,0.000000:
00000000
00000000
00000000
00000000
,
00000000
00000000
00000000
00000000
,
00000000
00000000
00000000
00000000
,
00200000
00000000
00300000
00000000
,
00022000
00000000
00033000
00000000
,
00000020
00000000
00000030
00000000
,
00022000
00000000
00033000
00000000
,
01000000
10000000
00010000
00000000
,
01000000
00010000
10000000
00000000
,
00010000
00000000
00200000
00000000
,
00010000
00000000
00301000
00000000
,
00022000
00000000
00033000
00000000
,
00001000
00000100
00000010
00000001
,
00001000
00000100
00000010
00000001
,
00000001
00000010
00000100
00001000
,
00000010
00000001
00000100
00001000
,
00000020
00000030
00020000
00030000
,
00002000
00003000
00200000
00300000
,
10010000
00000000
00000000
01100000
00000000
00000000
00000000
00000000
,
00100000
00100000
00100000
10000000
,
00010000
00010000
01000000
00011000
,
00000010
00000010
00000010
00001000
,
00000001
00000001
00001000
00001001
,
00000000
00000110
00000000
00001001
,
00000000
00000110
00000000
00001001
,
00000000
00000010
00001000
00000100
,
00000000
00010000
00001000
00010000
,
00001000
00000000
00011000
00000000
,
00010000
00100000
01000000
00000000
,
10000000
00000000
10010000
00000000
,
00100000
00001000
00010000
00000000
,
00010000
00000000
00000000
00010000
00000000
00000000
00000000
00000000
,
00001000
00000100
00000010
00000000
,
00000001
00000000
00000000
00000001
00000000
00000000
00000000
00000000
,
00000010
00000100
00001000
00000000
,
00010000
00000000
00000000
00001000
00000000
00000000
00010000
00000000
,
00000000
00001000
00000000
00000000
00000000
00000000
00000000
00000000
,
00001000
00000000
00000000
00010000
00000000
00000000
00001000
00000000
,
00000000
00010000
00000000
00000000
00000000
00000000
00000000
00000000
,
00001000
01000000
01000000
00000000
,
10000000
01000000
01000000
00000000
,
00100000
00001000
00001000
00000000
,
00010000
00010000
00000010
00000000
,
00000001
00000001
00000100
00000000
,
00000010
00000010
00001000
00000000
,
00000200
00000000
00010000
00000000
,
00001300
00000000
00011000
00000000
,
00200000
00010000
00310000
00000000
,
20000000
00100000
30100000
00000000
,
02000000
00001000
03001000
00000000
,
00020000
00000010
00030010
00000000
,
00001001
00000000
00000110
00000000
,
00001001
00000000
00000110
00000000
,
00000001
00000010
00000100
00001000
,
00000100
00000010
00000001
00000000
,
00002002
00003003
00001001
00000000
,
00000010
00000000
00000000
00000000
00001000
00000000
00000000
00001001
,
00000000
00000100
00010000
00001000
,
00100000
00000000
00000000
00000000
00010000
00000000
00000000
10010000
,
00000000
01000000
00001000
00010000
,
00000100
00000000
00000000
00000000
00000001
00000000
00000000
00001001
,
00000000
00000010
00010000
00001000
,
01000000
00000000
00000000
00000000
00100000
00000000
00000000
10010000
,
00000000
00000000
00000000
00000000
,
00200000
00000000
10300000
00000000
,
00020000
00000000
00130000
00000000
,
00002000
00000000
00003010
00000000
,
00000002
00000100
00000103
00000000
,
00002002
00000000
00003003
00000000
,
00000220
00000000
00000330
00000000
,
00001001
00000000
00000110
00000000
,
00002002
00000000
00003003
00000000
,
00000010
00010000
00001000
00000000
,
00100000
00001000
00010000
00000000
,
00000100
00010000
00001000
00000000
,
01000000
00001000
00010000
00000000
,
00010000
10000000
01000000
00000000
,
00001000
00010000
00000100
00000000
,
00000001
00001000
00000100
00000000
,
00001000
00000100
00010000
00000000
,
00001000
00100000
00010000
00000000
,
00010000
00000010
00001000
00000000
,
00000001
00000010
00000100
00000000
,
00001000
00000100
00000010
00000001
,
00002002
00003003
00000220
00000330
,
00000002
00000010
00000013
00000000
,
00002000
00000100
00003100
00000000
,
00002000
00010000
00013000
00000000
,
02000000
00010000
03010000
00000000
,
10000000
01000000
00100000
00010000
,
02000000
00000000
03002000
00000000
,
00020000
00000000
00033000
00000000
,
00022000
00000000
00000000
00000000
,
00000000
00000000
00033000
00000000
00010000
00010000
00000000
00000000
;

//---------------dance-single - ----------------
#NOTES:
     dance-single:
     :
     Easy:
     5:
     0.305691,0.450207,0.264474,0.408732,0.000000,267.000000,234.000000,33.000000,51.000000,0.000000,0.000000,0.305691,0.450207,0.264474,0.408732,0.000000,267.000000,234.000000,33.000000,51.000000,0.000000,0.000000:
0000
0000
0000
0000
,
0000
0000
0000
0000
,
0000
0000
0000
0000
,
0020
0000
0030
0000
,
0200
0000
0300
0000
,
0002
0000
0003
0000
,
2000
0000
3000
0000
,
0002
0000
1003
0000
,
2000
0000
3001
0000
,
0020
0000
0130
0000
,
0200
0000
0310
0000
,
2002
0000
3003
0000
,
0010
0001
0010
0000
,
1000
0010
1000
0000
,
0010
1000
0010
0000
,
0001
0010
0001
0000
,
0100
0001
1000
0000
,
0100
1000
0001
0000
,
0010
0000
0000
0010
0000
0000
0000
0000
,
2000
0000
0100
0000
,
3010
0100
0001
0100
,
0002
0000
0103
0000
,
0010
1000
0100
0011
,
0000
1001
0000
1100
,
0000
1001
0000
0110
,
0000
0010
1000
0100
,
0020
0000
0031
0000
,
0200
0000
0310
0000
,
1000
0100
0010
0001
,
0020
0000
0130
0000
,
0001
0010
0100
1000
,
0010
0000
0000
0010
0000
0000
0000
0000
,
1000
0001
0100
0000
,
0010
0000
0000
0010
0000
0000
0000
0000
,
0001
1000
0100
0000
,
1001
0000
0000
0110
0000
0000
1001
0000
,
0000
0110
0000
0000
1000
0000
0001
0000
,
1001
0000
0000
0110
0000
0000
1001
0000
,
0000
0110
0000
0000
0000
0000
0000
0000
,
0020
0000
0130
0000
,
0001
0010
0100
0000
,
0200
0000
0310
0000
,
1000
0100
0010
0000
,
1000
0001
1001
0000
,
0001
1000
1001
0000
,
0020
0000
0130
0000
,
0200
0010
0310
0000
,
0002
0010
0103
0000
,
2000
0100
3010
0000
,
0020
1000
0130
0000
,
0200
0001
0310
0000
,
1001
0000
0110
0000
,
1000
0001
0100
0010
,
1001
0000
0110
0000
,
0001
1000
0010
0100
,
0220
0330
2002
3003
,
0001
0000
0000
0000
1000
0000
0000
2002
,
0000
0000
3003
0000
,
1000
0000
0000
0000
0001
0000
0000
2002
,
0000
0000
3003
0000
,
0010
0000
0000
0000
0100
0000
0000
0220
,
0000
0000
0330
0000
,
0100
0000
0000
0000
0010
0000
0000
0110
,
0000
0000
0000
0000
,
0002
0000
0100
0000
,
2000
0003
0100
0000
,
0002
3000
0010
0000
,
2000
0003
0010
0000
,
3002
0010
0103
0000
,
2000
0100
3010
0000
,
0110
0000
1001
0000
,
0010
0100
1001
0000
,
1000
0100
0010
0001
,
1000
0100
0001
0100
,
0001
0010
0100
1000
,
0001
0100
1000
0100
,
1000
0010
0001
0000
,
0001
0100
1000
0000
,
1000
0100
0001
0000
,
0001
0010
1000
0000
,
1000
0100
0010
0001
,
0001
0010
0100
1000
,
0001
0010
0100
0010
,
1000
0100
0010
0100
,
2002
3003
0220
0330
,
0002
1000
0103
0000
,
2000
0001
3100
0000
,
0002
1000
0013
0000
,
2000
0001
3010
0000
,
0001
0010
0100
1000
,
0100
0010
2002
3003
,
0010
0000
0000
0100
0000
0000
0000
0000
,
2002
0000
0000
0000
,
0000
0000
3003
0000
0010
0010
0000
0000
;

//---------------dance-single - ----------------
#NOTES:
     dance-single:
     :
     Beginner:
     3:
     0.121360,0.187336,0.080144,0.088158,0.000000,106.000000,96.000000,10.000000,11.000000,0.000000,0.000000,0.121360,0.187336,0.080144,0.088158,0.000000,106.000000,96.000000,10.000000,11.000000,0.000000,0.000000:
0000
0000
0000
0000
,
0000
0000
0000
0000
,
0000
0000
0000
0000
,
0010
0000
0000
0000
,
0100
0000
0000
0000
,
0001
0000
0000
0000
,
1000
0000
0000
0000
,
0001
0000
0000
0000
,
0001
0000
0000
0000
,
1000
0000
0000
0000
,
1000
0000
0000
0000
,
0010
0000
0010
0000
,
0020
0000
0030
0000
,
0010
0000
0000
0000
,
0200
0000
0300
0000
,
0100
0000
0000
0000
,
0001
0000
0000
0000
,
1000
0000
0000
0000
,
2002
0000
3003
0000
,
0000
0000
0010
0000
,
0010
0000
0000
0000
,
0000
0000
0100
0000
,
0100
0000
0000
0000
,
0000
0000
0001
0000
,
0000
0000
1000
0000
,
0000
0000
0001
0000
,
0001
0000
0000
0000
,
1000
0000
0000
0000
,
1001
0000
0000
0000
,
0001
0000
0000
0000
,
1001
0000
0000
0000
,
0100
0000
0100
0000
,
0000
0000
0000
0000
,
0010
0000
0010
0000
,
0000
0000
0000
0000
,
1000
0000
0000
0001
,
0000
0000
0000
0000
,
0001
0000
0000
1000
,
0000
0000
0000
0000
,
0010
0000
0000
0000
,
0100
0000
0000
0000
,
1000
0000
0000
0000
,
0001
0000
0000
0000
,
1000
0000
0000
0000
,
0001
0000
0000
0000
,
2000
0000
0000
0000
,
3000
0000
0000
0000
,
0010
0000
0000
0000
,
1000
0000
0000
0000
,
0100
0000
0000
0000
,
0001
0000
0000
0000
,
0020
0000
0000
0000
,
0030
0000
0000
0000
,
0200
0000
0000
0000
,
0300
0000
0000
0000
,
2002
0000
3003
0000
,
1000
0000
0000
0000
,
1001
0000
0000
0000
,
0001
0000
0000
0000
,
1001
0000
0000
0000
,
0010
0000
0000
0000
,
0110
0000
0000
0000
,
0100
0000
0000
0000
,
0110
0000
0000
0000
,
0001
0000
0000
0000
,
0001
0000
0000
0000
,
1000
0000
0000
0000
,
1000
0000
0000
0000
,
0010
0000
0000
0000
,
0010
0000
0000
0000
,
0100
0000
0100
0000
,
0100
0000
0000
0000
,
0001
0000
0001
0000
,
0001
0000
0000
0000
,
1000
0000
1000
0000
,
1000
0000
0000
0000
,
0010
0000
0000
0000
,
0100
0000
0000
0000
,
0001
0000
0000
0000
,
1000
0000
1000
0000
,
1000
0000
0000
0000
,
0010
0000
0000
0000
,
0100
0000
0000
0000
,
0001
0000
0001
0000
,
0001
0000
0000
0000
,
2002
0000
0000
0000
,
3003
0000
0000
0000
,
0010
0000
0010
0000
,
0010
0000
0000
0000
,
0100
0000
0100
0000
,
0100
0000
0000
0000
,
0010
0000
0010
0000
,
0010
0000
0000
0000
,
0000
0000
1001
0000
;

//---------------dance-single - ----------------
#NOTES:
     dance-single:
     :
     Medium:
     9:
     0.472847,0.600276,0.448804,0.240431,0.000000,413.000000,357.000000,56.000000,30.000000,0.000000,0.000000,0.472847,0.600276,0.448804,0.240431,0.000000,413.000000,357.000000,56.000000,30.000000,0.000000,0.000000:
// measure 0
0000
0000
0000
0000
,  // measure 1
0000
0000
0000
0000
,  // measure 2
0000
0000
0000
0000
0000
0000
0000
1001
,  // measure 3
0000
0000
0010
0000
0100
0000
0000
1001
,  // measure 4
0000
0000
0100
0000
0010
0000
0000
0110
,  // measure 5
0000
0000
1000
0000
0001
0000
0000
0110
,  // measure 6
0000
0000
0001
0000
1000
0000
0010
0100
,  // measure 7
0000
0000
0001
0100
0000
0000
1000
0100
,  // measure 8
0000
0000
0001
0010
0000
0000
1000
0010
,  // measure 9
0000
0000
0001
0100
0000
0000
1000
0100
,  // measure 10
0000
0010
0000
0001
0000
0100
0000
2002
,  // measure 11
0000
0000
3003
0000
0010
0010
0000
1001
,  // measure 12
0000
0000
0010
0000
0100
0010
0000
1001
,  // measure 13
0000
0000
0100
0000
0010
0100
0000
1001
,  // measure 14
0000
0000
1000
0000
0001
1000
0000
1001
,  // measure 15
0000
0000
0001
0000
1000
0001
0000
1001
,  // measure 16
0000
0000
1000
0100
0000
0000
0010
0001
,  // measure 17
0000
0000
0100
0010
0000
0000
1000
0001
,  // measure 18
1000
0000
0000
1001
0000
0000
0002
0000
,  // measure 19
1000
0100
0100
1003
,  // measure 20
0001
0010
0100
2000
,  // measure 21
0001
0010
0010
3001
,  // measure 22
1000
0000
0100
0000
0010
0000
0001
0010
,  // measure 23
0000
0000
0100
1000
0000
0000
0001
0100
,  // measure 24
0000
0000
0010
0000
0010
1000
0000
1001
,  // measure 25
0000
0000
0100
0010
0000
0000
1000
0000
,  // measure 26
0001
0010
0100
1000
,  // measure 27
0001
0000
0000
1001
0000
1001
0000
1001
,  // measure 28
0000
0100
0010
0000
,  // measure 29
1000
0000
0000
1001
0000
1001
0000
1001
,  // measure 30
0000
0010
0100
0001
,  // measure 31
2000
0000
0000
0002
0000
0000
3003
0000
,  // measure 32
0001
0010
0100
1000
,  // measure 33
0002
0000
0000
2000
0000
0000
3003
0000
,  // measure 34
1000
0100
0010
0001
,  // measure 35
0100
0010
0000
0100
0010
0000
0100
0010
,  // measure 36
0000
0100
0010
0000
0000
0000
0000
0000
,  // measure 37
0010
0100
0000
0010
0100
0000
0010
0100
,  // measure 38
0000
0010
0010
0000
0000
0000
0000
1001
,  // measure 39
0000
0000
1000
0000
0001
1000
0000
0002
,  // measure 40
0000
0000
0010
0000
0013
0000
0000
1001
,  // measure 41
0000
0000
0001
0000
1000
0001
0000
2000
,  // measure 42
0000
0000
0010
0000
3010
0000
0000
1001
,  // measure 43
0000
0000
0001
0000
1000
0010
0000
1001
,  // measure 44
0000
0000
1000
0000
0001
0010
0000
0010
,  // measure 45
0002
0000
0100
0000
0103
0000
1000
0001
,  // measure 46
0000
0000
1001
0000
1001
0000
1000
0001
,  // measure 47
0000
0000
0110
0000
0100
0010
0000
1001
,  // measure 48
0000
0000
1001
0000
0100
0010
0000
0110
,  // measure 49
0000
0000
0001
0000
0010
0100
0000
1000
,  // measure 50
0000
0000
1000
0000
0100
0010
0000
0001
,  // measure 51
0000
0000
1000
0001
0000
0000
1000
0100
,  // measure 52
0000
0000
0010
0001
0000
0000
0001
1000
,  // measure 53
0000
0000
0001
0010
0000
0000
0100
1000
,  // measure 54
0000
0001
1000
0001
0000
1000
0000
0110
,  // measure 55
0000
1000
0001
1000
,  // measure 56
0001
0001
0000
0000
1000
1000
0000
1002
,  // measure 57
0000
0010
0100
1003
,  // measure 58
1000
1000
0000
0000
0001
0001
0000
2001
,  // measure 59
0000
0100
0010
3001
,  // measure 60
0100
0100
0000
0000
0010
0010
0000
2001
,  // measure 61
0000
0010
0100
3001
,  // measure 62
0100
0100
0000
0000
0010
0010
0000
1001
,  // measure 63
0000
0000
0000
0000
0000
0000
0001
2000
,  // measure 64
0000
0000
0010
0000
3010
0000
0000
1002
,  // measure 65
0000
0000
0100
0000
0103
0000
0000
2001
,  // measure 66
0000
0000
0100
0000
3100
0000
0000
1002
,  // measure 67
0000
0000
0010
0000
0013
0000
0000
1001
,  // measure 68
0000
0000
0010
0000
0100
0010
0000
0010
,  // measure 69
0000
0000
0100
0000
0010
0100
0000
0100
,  // measure 70
0020
0000
1000
0000
0000
0000
0130
0010
,  // measure 71
0000
0000
1001
0000
1000
0000
0000
0102
,  // measure 72
0000
0000
0010
0000
1003
0000
0000
2010
,  // measure 73
0000
0000
0001
0000
3100
0000
0000
1001
,  // measure 74
0000
0000
0010
0000
0100
0010
0000
1001
,  // measure 75
0000
1000
0001
1000
0000
0001
1000
0001
,  // measure 76
0000
1000
0100
1000
0000
0001
0100
0001
,  // measure 77
0000
1000
0010
1000
0000
0001
0010
0001
,  // measure 78
0000
1000
0100
0010
0000
0100
0010
0001
,  // measure 79
0000
0010
0100
0010
0000
1001
0000
0101
,  // measure 80
0000
0001
1000
0100
0000
1001
0000
1100
,  // measure 81
0000
0001
1000
0010
0000
1001
0000
0110
,  // measure 82
0000
0001
0100
0010
0000
1000
0100
0010
,  // measure 83
0000
0001
0010
0100
0000
1000
0001
2002
,  // measure 84
0000
0000
3003
0000
0010
0100
0010
0200
,  // measure 85
0000
0000
0001
0000
0010
0310
0000
1002
,  // measure 86
0000
0000
0010
0000
1000
1003
0000
2100
,  // measure 87
0000
0000
0010
0000
0001
3001
0000
0102
,  // measure 88
0000
0000
0010
0000
1000
1003
0000
1001
,  // measure 89
0000
1000
0001
1000
0000
0001
0010
0100
,  // measure 90
0000
0010
0100
2000
0000
0000
3001
0000
,  // measure 91
0110
0000
0000
1001
0000
0100
0010
0000
,  // measure 92
2002
0000
0000
0000
,  // measure 93
0000
0000
3003
0000
0100
0100
0000
0000
;
