#TITLE:Believe (y)our Wings {GRA5P WAVES};
#SUBTITLE:;
#ARTIST:GRACE COLORS;
#TITLETRANSLIT:;
#SUBTITLETRANSLIT:;
#ARTISTTRANSLIT:;
#GENRE:;
#CREDIT:;
#BANNER:Believe (y)our Wings {GRA5P WAVES}.png;
#BACKGROUND:Believe (y)our Wings {GRA5P WAVES}-bg.png;
#LYRICSPATH:;
#CDTITLE:;
#MUSIC:Believe (y)our Wings {GRA5P WAVES}.ogg;
#OFFSET:0.175000;
#SAMPLESTART:49.260105;
#SAMPLELENGTH:12.000000;
#SELECTABLE:YES;
#BPMS:0.000000=188.000000
;
#STOPS:
;
#BGCHANGES:;
#KEYSOUNDS:;
#ATTACKS:;

//---------------dance-single - ----------------
#NOTES:
     dance-single:
     :
     Hard:
     13:
     0.650322,0.707858,0.485468,0.405883,0.007958,572.000000,511.000000,61.000000,51.000000,0.000000,0.000000,0.650322,0.707858,0.485468,0.405883,0.007958,572.000000,511.000000,61.000000,51.000000,0.000000,0.000000:
0000
0000
0000
0000
,
0000
0000
0000
0000
,
0000
0000
0000
0000
0000
0000
0001
2002
,
0000
3003
1010
0000
0100
0001
0000
2002
,
0000
3003
1000
0000
0100
0010
0000
2002
,
0000
3003
0001
0000
0010
0100
0000
1001
,
0000
0010
0100
0001
1000
0001
0000
0101
,
0000
1000
0010
0100
0000
0001
0100
0010
,
0000
0001
1000
0010
0000
0001
0100
0010
,
0000
1000
0010
0100
0000
0001
1000
1010
,
0000
0001
0010
0100
0000
1100
0000
0101
,
0000
0010
0010
0000
1001
0000
1000
0001
,
0020
0000
0130
0000
0001
1000
0100
2000
,
0000
0010
3010
0000
0100
0001
1000
0002
,
0010
0000
0013
0000
0100
1000
0001
0200
,
0000
0310
0100
0000
0001
1000
0100
2000
,
0000
3001
0100
0001
0000
0010
1000
0001
,
0000
0100
0001
0010
0000
0100
1000
0001
,
1001
0000
0000
1100
0000
0010
0001
0100
,
0000
0001
1000
0001
1000
0001
1000
0100
,
0010
0001
0010
0100
1000
0001
0010
0001
,
0000
1000
0001
1000
0001
1000
0001
0010
,
0100
1000
0100
0010
0001
1000
0100
0010
,
0000
0001
0010
1000
0000
0001
0100
1000
,
0000
0001
1000
0100
1000
0100
0010
0001
,
0000
0100
0010
0100
0001
0010
0100
1000
,
0000
1000
0001
0000
0100
0001
1000
0000
,
0010
0010
0010
0000
0100
0001
1000
0000
,
0010
0110
0000
0011
0000
1010
0000
0000
,
0100
0100
0100
0000
0001
0010
1000
0000
,
0010
0110
0000
1010
0000
0011
0000
0000
,
1020
0000
0130
0002
0000
1003
0100
0010
,
0000
0010
0001
0000
1010
0000
0101
0000
,
2010
0000
3001
0020
0000
0031
0100
0010
,
0000
1000
0001
0000
1000
0100
0010
0001
,
1000
1001
0000
0010
0110
0000
1000
1100
,
0000
0010
0001
1000
0100
0010
0000
1000
,
1001
0001
0000
0110
0100
0000
0011
0010
,
0000
1100
0100
0000
0110
0110
0000
1002
,
0000
1003
0010
1000
0100
1000
0001
0200
,
0000
0310
1000
0001
0010
0100
1000
0020
,
0000
1030
0100
1000
0001
0010
0100
2000
,
0000
3001
0010
0001
0100
0100
0010
2000
,
0000
3001
0101
0000
0010
1000
0001
1000
,
0000
0001
0100
0000
0001
0010
0100
1000
,
0020
0000
1000
0000
0100
0000
1030
0002
,
0000
0100
0103
0000
1000
0100
0010
0002
,
0000
1003
0010
1000
0001
0010
0100
2000
,
0000
3001
0100
0001
1000
0100
0010
0002
,
0000
1003
0010
0100
0001
1000
0100
2000
,
0000
3010
0100
0100
0010
1000
0001
1001
,
0000
0001
0100
0010
0000
1000
0010
0100
,
0000
0001
0010
1000
0000
0001
0100
1000
,
0000
0001
0010
0100
0000
0010
0100
1000
,
0000
0100
0010
0001
0010
0100
0000
2002
,
0000
3003
1001
0000
1000
0100
1000
0010
,
0100
0100
0000
0000
0001
0001
0000
2001
,
0000
0010
0001
3100
,
0010
0010
0000
0000
1000
1000
0000
1002
,
0000
0010
0100
1003
,
0110
0010
0000
0000
1001
1000
0000
0012
,
0000
0100
1000
0013
,
1010
1000
0000
0000
0101
0001
0000
2002
,
0000
0000
0000
0000
3003
0000
0100
0020
,
0000
0000
1000
0000
0100
0130
0000
0102
,
0000
0000
0000
0000
0000
0000
1000
0000
0000
0000
0000
0000
0010
0000
0000
0003
0011
0000
0000
0000
2100
0000
0000
0000
,
0000
0000
0001
0000
0010
3010
0000
1001
,
0000
0001
0010
0001
1000
0100
0010
0001
,
0000
0000
1010
0000
0001
0100
0010
1000
,
0000
0010
0100
0000
0001
1000
0100
0010
,
1000
0101
1000
0110
,
0001
0000
1010
0000
0001
0010
0100
2000
,
0000
0100
3100
1000
0001
0010
0100
2000
,
0000
0001
3001
0100
0010
0100
0001
0002
,
0000
1003
0100
0010
0100
1000
0001
0200
,
0000
0310
1000
0010
0100
0001
0010
0100
,
0000
1000
0010
0001
0000
1000
0100
0001
,
0000
0001
0010
1000
0000
0001
0100
1000
,
0000
0010
0100
0001
0000
1000
0100
0010
,
0000
0010
0100
0001
1000
0100
1000
1010
,
0000
0100
0001
0001
0000
0100
1000
1000
,
0000
0010
0100
0100
0000
0001
0010
0010
,
0000
1000
0010
0010
0000
0001
0100
0101
,
0000
1000
0100
0010
0100
1000
0001
2002
,
0000
3003
1001
0000
0100
1000
0010
0200
,
0000
0000
0001
0000
0010
0320
0000
2030
,
0000
0000
0001
0000
0100
3200
0000
2300
,
0000
0000
0010
0000
0001
0001
0000
3002
,
0000
0103
0010
0100
0001
1000
0100
0010
,
0001
1000
0100
0001
1000
0010
0100
0001
,
0010
0100
1000
0002
0000
0000
1003
0000
,
1100
0000
0000
0011
0000
0100
0010
0100
,
0220
0000
0000
0000
,
0000
0000
0330
0000
1100
0011
0000
0000
;

//---------------dance-double - ----------------
#NOTES:
     dance-double:
     :
     Hard:
     12:
     0.590065,0.633346,0.366090,0.405883,0.000000,519.000000,473.000000,46.000000,51.000000,0.000000,0.000000,0.590065,0.633346,0.366090,0.405883,0.000000,519.000000,473.000000,46.000000,51.000000,0.000000,0.000000:
00000000
00000000
00000000
00000000
,
00000000
00000000
00000000
00000000
,
00000000
00000000
00000000
00000000
00000000
00000000
00000001
00002001
,
00000000
00000000
00000100
00000000
00000010
00003010
00000000
00020100
,
00000000
00000000
00001000
00000000
00000100
00030100
00000000
00201000
,
00000000
00000000
00010000
00000000
00001000
00301000
00000000
00110000
,
00000000
00010000
00100000
01000000
10000000
00010000
00000000
20100000
,
00000000
30010000
10000000
00010000
00000000
00100000
00001000
00100000
,
00000000
00000100
00010000
00000100
00000000
00001000
00000010
00001000
,
00000000
00000001
00000010
00000100
00000000
00000010
00001000
00000100
,
00000000
00000100
00010000
00001000
00000000
00011000
00000000
00202000
,
00000000
00000000
00303000
00000000
00010000
01000000
00100000
20000000
,
00000000
00000000
00010000
00000000
30010000
10010000
00000000
00020000
,
00000000
00000000
00130000
00000000
00001000
00010000
00000000
00021000
,
00000000
00000000
00030100
00000000
00000100
00001000
00000000
00002010
,
00000000
00000000
00003100
00000000
00001000
00000010
00000000
00000100
,
00000000
00000001
00000010
00000100
00000000
00000100
00010000
00001000
,
00000000
00001000
01000000
00010000
00000000
10000000
00100000
00000000
,
10100000
00000000
00000000
00110000
00000000
00000000
00100000
00002000
,
00000000
00010000
00100000
00013000
,
00100000
00001000
00010000
00000100
00001000
00000100
00010000
00000200
,
00000000
00010000
00001000
00010300
,
00001000
00100000
00010000
00100000
00001000
00010000
00010000
00000010
,
00000000
00000100
00000100
00000001
00000000
00010000
00010000
00001000
,
00000000
01000000
01000000
00010000
10000000
00010000
10000000
00010000
,
00000000
00100000
00001000
00010000
00001000
00100000
00001000
00010000
,
00000000
00000100
00001000
00000000
00000001
00000010
00000000
00000000
,
00000100
00010000
00000000
00000000
00010000
00000000
00001000
00000000
,
01000000
00001000
00000000
00001000
00010000
00000100
00000000
00000000
,
00001000
00000010
00000000
00000000
00000001
00001000
00000100
00000000
,
00010000
00001000
00000000
00001000
00000000
00022000
00000000
00033000
,
00000200
00000000
00000000
00020300
00000000
00000000
00030100
00001000
,
00000010
00000100
00000001
00000010
00000100
00001000
00000100
00000000
,
00020000
00000000
00000000
00032000
00000000
00000000
01003000
00010000
,
00100000
01000000
10000000
01000000
00100000
00010000
00100000
00001000
,
00010000
00001000
00000000
00000100
00001000
00000000
00000001
00000010
,
00000000
00001000
00010000
00000000
00001000
01000000
00010000
00000000
,
10000000
01000000
00000000
00100000
00010000
00000000
00001000
00010000
,
00000000
00010000
00002000
00000000
00000000
00000000
00013000
00021000
,
00000000
00000000
00000100
00000000
00031000
00100000
00010000
02000000
,
00000000
00000000
03100000
00000000
10000000
00010000
00100000
00002000
,
00000000
00000000
00013000
00000000
00000100
00001000
00000010
00000200
,
00000000
00000301
00000010
00000100
00000000
00000010
00000100
00020000
,
00000000
00031000
00100000
00000000
00010000
00100000
01000000
20000000
,
00000000
30010000
00100000
00000000
00001000
00010000
00000100
00000000
,
00002000
00000010
00000001
00003100
,
00000200
00000000
00010000
00000000
00001300
00000000
00000100
00010100
,
00000000
00000100
00010000
00001000
00010000
00010000
00000000
00101000
,
00000000
00010000
01000000
00100000
10000000
10000000
00000000
00110000
,
00000000
00100000
00001000
00010000
00001000
00001000
00000000
00011000
,
00000000
00001000
00010000
00000100
00010000
00000100
00000000
00001000
,
00000000
00000010
00001000
00000001
00000000
00001000
00000010
00000001
,
00000000
00001000
00000100
00000001
00000000
00001000
00000100
00010000
,
00000000
00001000
00100000
00010000
00000000
01000000
00010000
10000000
,
00000000
00010000
00100000
10000000
00000000
00010000
00000000
20200000
,
00000000
30300000
10010000
00000000
00010000
00100000
01000000
10000000
,
01000000
11000000
00000000
00000000
00010000
00110000
00000000
01010000
,
00000000
01000000
00001000
00000000
00010000
00000100
00001000
00000000
,
00000010
00000110
00000000
00000000
00000001
00001001
00000000
00001100
,
00000000
00000100
00010000
00000000
00001000
01000000
00010000
00000000
,
10000000
10100000
00000000
00000000
00010000
00110000
00000000
00101000
,
00000000
00001000
00010000
00000000
00000100
00001000
00000010
00000000
,
00000001
00000101
00000000
00000000
00000100
00001100
00000000
00020200
,
00000000
00000000
00000000
00000000
00030300
00000000
00001000
00201000
,
00000000
00000000
00010000
00000000
00001000
00301000
00000000
00021000
,
00000000
00000000
00000100
00000000
00001000
00031000
00000000
00002010
,
00000000
00000000
00000001
00000000
00000100
00003100
00000000
00010100
,
00000000
00001000
00100000
00010000
00000000
01000000
00010000
20000000
,
00000000
00100000
00100000
30100000
00000000
00020000
00100000
00130000
,
00000000
00001000
00010000
00000000
00010000
00000100
00001000
00000100
,
00020000
00000000
00000010
00000000
00031000
00000000
00000010
00002000
,
00000000
00003001
00001001
00000000
00000001
00000010
00000100
00002000
,
00000000
00000100
00003100
00000000
00000100
00010000
00001000
00020000
,
00000000
00001000
00031000
00000000
00001000
01000000
00010000
02000000
,
00000000
00100000
03100000
00000000
10000000
00100000
01000000
00020000
,
00000000
00130000
01000000
10000000
00010000
10000000
00000000
10010000
,
00000000
10000000
00100000
00010000
00000000
01000000
00001000
00010000
,
00000000
00010000
00000100
00001000
00000000
00001000
00000010
00000001
,
00000000
00000001
00000100
00001000
00000000
00000100
00010000
00001000
,
00000000
00001000
01000000
00010000
00000000
10000000
01000000
00010000
,
00000000
00100000
00001000
00010000
00000000
00000100
00001000
00000010
,
00000000
00000001
00000100
00001000
00000000
00000100
00010000
00001000
,
00000000
01000000
00010000
10000000
00000000
00010000
00100000
01000000
,
00000000
10000000
01000000
00100000
00000000
10010000
00000000
00020000
,
00000000
00000000
10030000
00000000
11000000
00000000
00010000
00220000
,
00000000
00300000
01000000
00000000
10000000
10000000
00000000
00230000
,
00000000
00000000
00001000
00000000
00010000
00010000
00000000
00302000
,
00000000
00000000
00010000
00000000
00100000
00100000
00000000
00023000
,
00000000
00000010
00031000
00000010
00000100
00000001
00000010
00000100
,
00001000
00000100
00010000
00001000
01000000
00010000
00100000
01000000
,
10000000
00010000
00100000
00002000
00000000
00000000
00013000
00000100
,
00001100
00000000
00000000
00000011
00000000
00000100
00010000
00001000
,
00022000
00000000
00000000
00000000
,
00000000
00000000
00033000
00000000
00001100
00011000
00000000
00000000
;

//---------------dance-double - ----------------
#NOTES:
     dance-double:
     :
     Medium:
     9:
     0.420663,0.521579,0.262630,0.350174,0.000000,370.000000,337.000000,33.000000,44.000000,0.000000,0.000000,0.420663,0.521579,0.262630,0.350174,0.000000,370.000000,337.000000,33.000000,44.000000,0.000000,0.000000:
00000000
00000000
00000000
00000000
,
00000000
00000000
00000000
00000000
,
00000000
00000000
00000000
00000000
00000000
00000000
00000001
00002000
,
00000000
00000000
00000100
00000000
00003010
00000000
00000000
00000020
,
00000000
00000000
00010000
00000000
00001030
00000000
00000000
00020000
,
00000000
00000000
00001000
00000000
00031000
00000000
00000000
00002000
,
00000000
00000000
01000000
00000000
00103000
00000000
00000000
01000000
,
00000000
00000000
00010000
00100000
00000000
00000000
00010000
01000000
,
00000000
00000000
00010000
10000000
00000000
00000000
00010000
00100000
,
00000000
00000000
00010000
10000000
00000000
00000000
00010000
00100000
,
00000000
00001000
00000000
00010000
00000000
00000010
00000000
00002000
,
00000000
00000000
00003001
00000000
00000100
00000000
00000001
00002000
,
00000000
00000000
00000100
00000000
00003010
00001000
00000000
00002000
,
00000000
00000000
00000001
00000000
00003100
00010000
00000000
00002000
,
00000000
00000000
00100000
00000000
00103000
00010000
00000000
02000000
,
00000000
00000000
00010000
00000000
03100000
01000000
00000000
00010000
,
00000000
10000000
00010000
01000000
00000000
00010000
00100000
00001000
,
00000000
00010000
00001000
00020000
00000000
00000000
00030100
00000000
,
00001100
00000000
00000000
00000011
00000000
00000000
00000100
00000010
,
00000000
00000001
00000010
00001000
,
00010000
01000000
10000000
00100000
,
00010000
00001000
00000100
00000001
,
00000010
00000000
00000100
00000000
00001000
00000010
00001000
00000010
,
00000000
00000001
00000010
00000001
00000000
00001000
00000100
00001000
,
00000000
00000001
00000100
00000001
00000000
00001000
00000000
00000100
,
00000000
00010000
00010000
00000000
00001000
00000000
01000000
00000000
,
00010000
00000000
10000000
00000000
00100000
00000000
00000000
00010000
,
10000000
00010000
00000000
00000000
10010000
00000000
10010000
00000000
,
01000000
00000000
00000000
00001000
00000000
00010000
00000000
00000000
,
00001000
00000001
00000000
00000000
00001001
00000000
00001001
00000000
,
00000100
00010000
00000000
00001000
00000000
00100000
00010000
00000000
,
00020000
00000000
00000000
20000000
00000000
00000000
30030000
00000000
,
01000000
00001000
00010000
00000100
,
00002000
00000000
00000000
00000002
00000000
00000000
00003003
00000000
,
00000010
00010000
00001000
00100000
,
00010000
00100000
00000000
01000000
10000000
00000000
00100000
01000000
,
00000000
00010000
00100000
00000000
00001000
00000000
00010000
00000000
,
00000010
00000100
00000000
00000001
00001000
00000000
00000100
00010000
,
00000000
00001000
00010000
00000000
00000000
00000000
00000000
00202000
,
00000000
00303000
00001000
00000000
00100000
00000000
00000000
02020000
,
00000000
03030000
00100000
00000000
10000000
00000000
00000000
00220000
,
00000000
00330000
00100000
00000000
00001000
00000000
00000000
00022000
,
00000000
00033000
00010000
00000000
00000100
00000000
00000000
00001000
,
00000000
00000001
00001000
00000001
00000000
00000100
00000010
00000100
,
00000000
00001000
00000100
00010000
,
00002000
00100000
00010000
01003000
,
02000000
00000000
00010000
00000000
03100000
00000000
00000000
20010000
,
00000000
00000000
01000000
00000000
30010000
00000000
00000000
00210000
,
00000000
00000000
00001000
00000000
00310000
00000000
00000000
00021000
,
00000000
00000000
00000010
00000000
00031000
00000000
00000000
00001020
,
00000000
00000000
00000100
00000000
00001030
00000000
00000000
00001001
,
00000000
00000001
00000100
00000001
00000000
00001000
00000010
00001000
,
00000000
00000100
00010000
00000100
00000000
00000100
00001000
00000100
,
00000000
00010000
00001000
00010000
00000000
00001000
00000000
01000000
,
00000000
00100000
00000000
10000000
00000000
00010000
00000000
00200000
,
00000000
00301000
00010000
00000000
,
00001000
00010000
00000000
00000000
00001000
00000000
00000000
00021000
,
00000000
00000100
00030100
00000000
,
00000010
00000100
00000000
00000000
00000010
00000000
00000000
00002001
,
00000000
00000100
00003100
00000000
,
00000100
00010000
00000000
00000000
00001000
00010000
00000000
00012000
,
00000000
00100000
00103000
00000000
,
00010000
01000000
00000000
00000000
00100000
10000000
00000000
20020000
,
00000000
00000000
00000000
00000000
30030000
00000000
00000000
01010000
,
00000000
00000000
10000000
00000000
00010000
00000000
00000000
00110000
,
00000000
00000000
00100000
00000000
00001000
00000000
00000000
00011000
,
00000000
00000000
00000100
00000000
00001000
00000000
00000000
00000110
,
00000000
00000000
00000001
00000000
00001000
00000000
00000000
00000100
,
00000000
00010000
00001000
01000000
,
00010000
10000000
01000000
00100000
,
00020000
00100000
00000000
01030000
,
00000000
00000000
10010000
00000000
01100000
00000000
00010000
10000000
,
00000000
00000000
00010000
00000000
00100000
00001000
00000000
00001000
,
00000000
00000000
00010000
00000000
00000100
00001000
00000000
00001000
,
00000000
00000000
00000001
00000000
00000010
00000100
00000000
00000100
,
00000000
00000000
00010000
00000000
00001000
00100000
00000000
00100000
,
00000000
00000000
00010000
01000000
00000000
00000000
00100000
10000000
,
00000000
00000000
00010000
00100000
00000000
00000000
01000000
10000000
,
00000000
00000000
00010000
00000000
00100000
00000000
00001000
00010000
,
00000000
00000000
00010000
00000000
00000100
00000000
00001000
00001000
,
00000000
00000000
00000001
00000001
00000000
00000000
00000100
00000100
,
00000000
00000000
00000010
00000010
00000000
00000000
00001000
00000100
,
00000000
00000000
00010000
00001000
00000000
00000000
00000000
00100000
,
00000000
00010000
00000000
01000000
00000000
10000000
00000000
00200000
,
00000000
00000000
01300000
00000000
10010000
00000000
00010000
00200000
,
00000000
00000000
00001000
00000000
00310000
00000000
00000000
00021000
,
00000000
00000000
00000100
00000000
00030100
00000000
00000000
00002010
,
00000000
00000000
00000001
00000000
00003001
00000000
00000000
00010020
,
00000000
00000000
00001000
00000000
00001030
00000000
00000000
00012000
,
00000000
00103000
00010000
01000000
,
10000000
00000000
00100000
02000000
00000000
00000000
03010000
00000000
,
01010000
00000000
00000000
00011000
00000000
00000000
00000000
00000000
,
00002020
00000000
00000000
00000000
,
00000000
00000000
00003030
00000000
00000100
00000100
00000000
00000000
;

//---------------dance-double - ----------------
#NOTES:
     dance-double:
     :
     Easy:
     5:
     0.302423,0.409812,0.254672,0.342215,0.000000,266.000000,234.000000,32.000000,43.000000,0.000000,0.000000,0.302423,0.409812,0.254672,0.342215,0.000000,266.000000,234.000000,32.000000,43.000000,0.000000,0.000000:
// measure 0
00000000
00000000
00000000
00000000
,  // measure 1
00000000
00000000
00000000
00000000
,  // measure 2
00000000
00000000
00000000
00000000
,  // measure 3
00000020
00000000
00000030
00000000
,  // measure 4
00022000
00000000
00033000
00000000
,  // measure 5
00200000
00000000
00300000
00000000
,  // measure 6
00022000
00000000
00033000
00000000
,  // measure 7
00000100
00000001
00001000
00000000
,  // measure 8
00000100
00001000
00000001
00000000
,  // measure 9
00001000
00000000
00000020
00000000
,  // measure 10
00001000
00000000
00010030
00000000
,  // measure 11
00022000
00000000
00033000
00000000
,  // measure 12
00010000
01000000
00100000
10000000
,  // measure 13
00010000
01000000
00100000
10000000
,  // measure 14
10000000
00100000
01000000
00010000
,  // measure 15
00100000
10000000
01000000
00010000
,  // measure 16
00200000
00300000
00002000
00003000
,  // measure 17
00020000
00030000
00000020
00000030
,  // measure 18
00001001
00000000
00000000
00000110
00000000
00000000
00000000
00000000
,  // measure 19
00000010
00000010
00000010
00000001
,  // measure 20
00001000
00001000
00000100
00011000
,  // measure 21
00100000
00100000
00100000
00010000
,  // measure 22
10000000
10000000
00010000
10010000
,  // measure 23
00000000
01100000
00000000
10010000
,  // measure 24
00000000
01100000
00000000
10010000
,  // measure 25
00000000
00100000
00010000
01000000
,  // measure 26
00000000
00001000
00010000
00001000
,  // measure 27
00010000
00000000
00011000
00000000
,  // measure 28
00001000
00000100
00000010
00000000
,  // measure 29
00000001
00000000
00001001
00000000
,  // measure 30
00000100
00010000
00001000
00000000
,  // measure 31
00001000
00000000
00000000
00001000
00000000
00000000
00000000
00000000
,  // measure 32
00010000
01000000
00100000
00000000
,  // measure 33
10000000
00000000
00000000
10000000
00000000
00000000
00000000
00000000
,  // measure 34
00100000
01000000
00010000
00000000
,  // measure 35
00001000
00000000
00000000
00010000
00000000
00000000
00001000
00000000
,  // measure 36
00000000
00010000
00000000
00000000
00000000
00000000
00000000
00000000
,  // measure 37
00010000
00000000
00000000
00001000
00000000
00000000
00010000
00000000
,  // measure 38
00000000
00001000
00000000
00000000
00000000
00000000
00000000
00000000
,  // measure 39
00010000
00000100
00000100
00000000
,  // measure 40
00000001
00000100
00000100
00000000
,  // measure 41
00000010
00010000
00010000
00000000
,  // measure 42
00001000
00001000
00100000
00000000
,  // measure 43
10000000
10000000
01000000
00000000
,  // measure 44
00100000
00100000
00010000
00000000
,  // measure 45
02000000
00000000
00001000
00000000
,  // measure 46
03010000
00000000
00011000
00000000
,  // measure 47
00000020
00001000
00001030
00000000
,  // measure 48
00000002
00000010
00000013
00000000
,  // measure 49
00000200
00010000
00010300
00000000
,  // measure 50
00002000
00100000
00103000
00000000
,  // measure 51
10010000
00000000
01100000
00000000
,  // measure 52
10010000
00000000
01100000
00000000
,  // measure 53
10000000
01000000
00100000
00010000
,  // measure 54
00100000
01000000
10000000
00000000
,  // measure 55
20020000
30030000
10010000
00000000
,  // measure 56
00100000
00000000
00000000
00000000
00010000
00000000
00000000
10010000
,  // measure 57
00000000
01000000
00001000
00010000
,  // measure 58
00000010
00000000
00000000
00000000
00001000
00000000
00000000
00001001
,  // measure 59
00000000
00000100
00010000
00001000
,  // measure 60
01000000
00000000
00000000
00000000
10000000
00000000
00000000
10010000
,  // measure 61
00000000
00100000
00001000
00010000
,  // measure 62
00000100
00000000
00000000
00000000
00000100
00000000
00000000
00001001
,  // measure 63
00000000
00000000
00000000
00000000
,  // measure 64
00000200
00000000
00000301
00000000
,  // measure 65
00002000
00000000
00003100
00000000
,  // measure 66
00020000
00000000
01030000
00000000
,  // measure 67
20000000
00100000
30100000
00000000
,  // measure 68
20020000
00000000
30030000
00000000
,  // measure 69
02200000
00000000
03300000
00000000
,  // measure 70
10010000
00000000
01100000
00000000
,  // measure 71
20020000
00000000
30030000
00000000
,  // measure 72
00100000
00001000
00010000
00000000
,  // measure 73
00000010
00010000
00001000
00000000
,  // measure 74
01000000
00001000
00010000
00000000
,  // measure 75
00000100
00010000
00001000
00000000
,  // measure 76
00001000
00000001
00000010
00000000
,  // measure 77
00010000
00001000
00100000
00000000
,  // measure 78
10000000
00010000
00100000
00000000
,  // measure 79
00010000
00100000
00001000
00000000
,  // measure 80
00010000
00000100
00001000
00000000
,  // measure 81
00001000
01000000
00010000
00000000
,  // measure 82
10000000
00100000
01000000
00000000
,  // measure 83
10000000
01000000
00100000
00010000
,  // measure 84
20020000
30030000
02200000
03300000
,  // measure 85
20000000
00100000
30100000
00000000
,  // measure 86
00020000
01000000
01030000
00000000
,  // measure 87
00020000
00001000
00031000
00000000
,  // measure 88
00000200
00001000
00001300
00000000
,  // measure 89
00000001
00000010
00000100
00001000
,  // measure 90
00000020
00000000
00020030
00000000
,  // measure 91
00002000
00000000
00033000
00000000
,  // measure 92
00022000
00000000
00000000
00000000
,  // measure 93
00000000
00000000
00033000
00000000
00001000
00010000
00000000
00000000
;

//---------------dance-single - ----------------
#NOTES:
     dance-single:
     :
     Easy:
     5:
     0.303559,0.447068,0.262630,0.405883,0.000000,267.000000,234.000000,33.000000,51.000000,0.000000,0.000000,0.303559,0.447068,0.262630,0.405883,0.000000,267.000000,234.000000,33.000000,51.000000,0.000000,0.000000:
0000
0000
0000
0000
,
0000
0000
0000
0000
,
0000
0000
0000
0000
,
0200
0000
0300
0000
,
0020
0000
0030
0000
,
0002
0000
0003
0000
,
2000
0000
3000
0000
,
0002
0000
1003
0000
,
2000
0000
3001
0000
,
0020
0000
0130
0000
,
0200
0000
0310
0000
,
2002
0000
3003
0000
,
0100
0001
0100
0000
,
1000
0100
1000
0000
,
0100
1000
0100
0000
,
0001
0100
0001
0000
,
0010
0001
1000
0000
,
0010
1000
0001
0000
,
0100
0000
0000
0100
0000
0000
0000
0000
,
0002
0000
0010
0000
,
0103
0010
1000
0010
,
2000
0000
3010
0000
,
0100
0001
0010
1100
,
0000
1001
0000
0011
,
0000
1001
0000
0110
,
0000
0100
1000
0010
,
0200
0000
0301
0000
,
0020
0000
0130
0000
,
1000
0100
0010
0001
,
0200
0000
0310
0000
,
0001
0010
0100
1000
,
0100
0000
0000
0100
0000
0000
0000
0000
,
0001
1000
0100
0000
,
0010
0000
0000
0010
0000
0000
0000
0000
,
1000
0001
0100
0000
,
0110
0000
0000
1001
0000
0000
0110
0000
,
0000
1001
0000
0000
0100
0000
0010
0000
,
0110
0000
0000
1001
0000
0000
0110
0000
,
0000
1001
0000
0000
0000
0000
0000
0000
,
0020
0000
0130
0000
,
1000
0010
0100
0000
,
0200
0000
0310
0000
,
0001
0100
0010
0000
,
0001
1000
1001
0000
,
1000
0001
1001
0000
,
0020
0000
0130
0000
,
0200
0010
0310
0000
,
2000
0010
3100
0000
,
0002
0100
0013
0000
,
0020
0001
0130
0000
,
0200
1000
0310
0000
,
1001
0000
0110
0000
,
0001
1000
0010
0100
,
1001
0000
0110
0000
,
1000
0001
0100
0010
,
0220
0330
2002
3003
,
1000
0000
0000
0000
0001
0000
0000
2002
,
0000
0000
3003
0000
,
0001
0000
0000
0000
1000
0000
0000
2002
,
0000
0000
3003
0000
,
0010
0000
0000
0000
0100
0000
0000
0220
,
0000
0000
0330
0000
,
0100
0000
0000
0000
0010
0000
0000
0110
,
0000
0000
0000
0000
,
2000
0000
0010
0000
,
0002
3000
0010
0000
,
2000
0003
0100
0000
,
0002
3000
0100
0000
,
2003
0100
3010
0000
,
0002
0010
0103
0000
,
0110
0000
1001
0000
,
0100
0010
1001
0000
,
0001
0010
0100
1000
,
0001
0010
1000
0010
,
1000
0100
0010
0001
,
1000
0010
0001
0010
,
0001
0010
1000
0000
,
1000
0100
0001
0000
,
0001
0100
1000
0000
,
1000
0010
0001
0000
,
1000
0100
0010
0001
,
0001
0010
0100
1000
,
0001
0010
1000
0010
,
0001
0100
1000
0010
,
2002
3003
0220
0330
,
2000
0001
3010
0000
,
0002
1000
0013
0000
,
2000
0001
3100
0000
,
0002
1000
0103
0000
,
0001
0010
0100
1000
,
0100
0010
2002
3003
,
0010
0000
0000
0100
0000
0000
0000
0000
,
2002
0000
0000
0000
,
0000
0000
3003
0000
0100
0100
0000
0000
;

//---------------dance-single - ----------------
#NOTES:
     dance-single:
     :
     Beginner:
     3:
     0.120514,0.186030,0.079585,0.087543,0.000000,106.000000,96.000000,10.000000,11.000000,0.000000,0.000000,0.120514,0.186030,0.079585,0.087543,0.000000,106.000000,96.000000,10.000000,11.000000,0.000000,0.000000:
0000
0000
0000
0000
,
0000
0000
0000
0000
,
0000
0000
0000
0000
,
0100
0000
0000
0000
,
0010
0000
0000
0000
,
0001
0000
0000
0000
,
1000
0000
0000
0000
,
0001
0000
0000
0000
,
0001
0000
0000
0000
,
1000
0000
0000
0000
,
1000
0000
0000
0000
,
0100
0000
0100
0000
,
0200
0000
0300
0000
,
0100
0000
0000
0000
,
0020
0000
0030
0000
,
0010
0000
0000
0000
,
0001
0000
0000
0000
,
1000
0000
0000
0000
,
2002
0000
3003
0000
,
0000
0000
0100
0000
,
0100
0000
0000
0000
,
0000
0000
0010
0000
,
0010
0000
0000
0000
,
0000
0000
0001
0000
,
0000
0000
1000
0000
,
0000
0000
0001
0000
,
0001
0000
0000
0000
,
1000
0000
0000
0000
,
1001
0000
0000
0000
,
0001
0000
0000
0000
,
1001
0000
0000
0000
,
0010
0000
0010
0000
,
0000
0000
0000
0000
,
0100
0000
0100
0000
,
0000
0000
0000
0000
,
1000
0000
0000
0001
,
0000
0000
0000
0000
,
0001
0000
0000
1000
,
0000
0000
0000
0000
,
0100
0000
0000
0000
,
0010
0000
0000
0000
,
1000
0000
0000
0000
,
0001
0000
0000
0000
,
1000
0000
0000
0000
,
0001
0000
0000
0000
,
2000
0000
0000
0000
,
3000
0000
0000
0000
,
0100
0000
0000
0000
,
1000
0000
0000
0000
,
0010
0000
0000
0000
,
0001
0000
0000
0000
,
0200
0000
0000
0000
,
0300
0000
0000
0000
,
0020
0000
0000
0000
,
0030
0000
0000
0000
,
2002
0000
3003
0000
,
1000
0000
0000
0000
,
1001
0000
0000
0000
,
0001
0000
0000
0000
,
1001
0000
0000
0000
,
0100
0000
0000
0000
,
0110
0000
0000
0000
,
0010
0000
0000
0000
,
0110
0000
0000
0000
,
0001
0000
0000
0000
,
0001
0000
0000
0000
,
1000
0000
0000
0000
,
1000
0000
0000
0000
,
0100
0000
0000
0000
,
0100
0000
0000
0000
,
0010
0000
0010
0000
,
0010
0000
0000
0000
,
0001
0000
0001
0000
,
0001
0000
0000
0000
,
1000
0000
1000
0000
,
1000
0000
0000
0000
,
0100
0000
0000
0000
,
0010
0000
0000
0000
,
0001
0000
0000
0000
,
1000
0000
1000
0000
,
1000
0000
0000
0000
,
0100
0000
0000
0000
,
0010
0000
0000
0000
,
0001
0000
0001
0000
,
0001
0000
0000
0000
,
2002
0000
0000
0000
,
3003
0000
0000
0000
,
0100
0000
0100
0000
,
0100
0000
0000
0000
,
0010
0000
0010
0000
,
0010
0000
0000
0000
,
0100
0000
0100
0000
,
0100
0000
0000
0000
,
0000
0000
1001
0000
;

//---------------dance-single - ----------------
#NOTES:
     dance-single:
     :
     Medium:
     9:
     0.467277,0.596091,0.437717,0.238755,0.000000,411.000000,356.000000,55.000000,30.000000,0.000000,0.000000,0.467277,0.596091,0.437717,0.238755,0.000000,411.000000,356.000000,55.000000,30.000000,0.000000,0.000000:
0000
0000
0000
0000
,
0000
0000
0000
0000
,
0000
0000
0000
0000
0000
0000
0000
1001
,
0000
0000
0010
0000
0100
0000
0000
1001
,
0000
0000
0100
0000
0010
0000
0000
0110
,
0000
0000
1000
0000
0001
0000
0000
0110
,
0000
0000
0001
0000
1000
0000
0010
0100
,
0000
0000
0001
0100
0000
0000
1000
0100
,
0000
0000
0001
0010
0000
0000
1000
0010
,
0000
0000
0001
0100
0000
0000
1000
0100
,
0000
0010
0000
0001
0000
0100
0000
2002
,
0000
0000
3003
0000
0010
0010
0000
1001
,
0000
0000
0010
0000
0100
0010
0000
1001
,
0000
0000
0100
0000
0010
0100
0000
1001
,
0000
0000
1000
0000
0001
1000
0000
1001
,
0000
0000
0001
0000
1000
0001
0000
1001
,
0000
0000
1000
0100
0000
0000
0010
0001
,
0000
0000
0100
0010
0000
0000
1000
0001
,
1000
0000
0000
1001
0000
0000
0002
0000
,
1000
0100
0100
1003
,
0001
0010
0100
2000
,
0001
0010
0010
3001
,
1000
0000
0100
0000
0010
0000
0001
0010
,
0000
0000
0100
1000
0000
0000
0001
0100
,
0000
0000
0010
0000
0010
1000
0000
1001
,
0000
0000
0100
0010
0000
0000
1000
0000
,
0001
0010
0100
1000
,
0001
0100
0010
0000
,
1001
0000
0000
1001
0000
1001
0000
0000
,
1000
0010
0100
0000
,
0001
0000
0000
1001
0000
1001
0000
0000
,
2000
0000
0000
0002
0000
0000
3003
0000
,
0001
0010
0100
1000
,
0002
0000
0000
2000
0000
0000
3003
0000
,
1000
0100
0010
0001
,
0100
0010
0000
0100
0010
0000
0100
0010
,
0000
0100
0010
0000
0000
0000
0000
0000
,
0010
0100
0000
0010
0100
0000
0010
0100
,
0000
0010
0010
0000
0000
0000
0000
1001
,
0000
0000
0001
0000
1000
0001
0000
2000
,
0000
0000
0100
0000
3100
0000
0000
1001
,
0000
0000
1000
0000
0001
1000
0000
0002
,
0000
0000
0100
0000
0103
0000
0000
1001
,
0000
0000
1000
0000
0001
0100
0000
1001
,
0000
0000
0001
0000
1000
0100
0000
0100
,
2000
0000
0010
0000
3010
0000
0001
1000
,
0000
0000
1001
0000
1001
0000
0001
1000
,
0000
0000
0110
0000
0010
0100
0000
1001
,
0000
0000
1001
0000
0010
0100
0000
0110
,
0000
0000
1000
0000
0100
0010
0000
0001
,
0000
0000
0001
0000
0010
0100
0000
1000
,
0000
0000
0001
1000
0000
0000
0001
0010
,
0000
0000
0100
1000
0000
0000
1000
0001
,
0000
0000
1000
0100
0000
0000
0010
0001
,
0000
1000
0001
1000
0000
0001
0000
0110
,
0000
0001
1000
0001
,
1000
1000
0000
0000
0001
0001
0000
1002
,
0000
0010
0100
1003
,
1000
1000
0000
0000
0001
0001
0000
2001
,
0000
0100
0010
3001
,
0100
0100
0000
0000
0010
0010
0000
2001
,
0000
0010
0100
3001
,
0100
0100
0000
0000
0010
0010
0000
1001
,
0000
0000
0000
0000
0000
0000
0001
2000
,
0000
0000
0010
0000
3010
0000
0000
1002
,
0000
0000
0100
0000
0103
0000
0000
2001
,
0000
0000
0100
0000
3100
0000
0000
1002
,
0000
0000
0010
0000
0013
0000
0000
1001
,
0000
0000
0010
0000
0100
0010
0000
0010
,
0000
0000
0100
0000
0010
0100
0000
0100
,
0020
0000
1000
0000
0000
0000
0130
0010
,
0000
0000
1001
0000
1000
0000
0000
0102
,
0000
0000
0010
0000
1003
0000
0000
2010
,
0000
0000
0001
0000
3100
0000
0000
1001
,
0000
0000
0010
0000
0100
0010
0000
1001
,
0000
1000
0001
1000
0000
0001
1000
0001
,
0000
1000
0100
1000
0000
0001
0100
0001
,
0000
1000
0010
1000
0000
0001
0010
0001
,
0000
1000
0100
0010
0000
0100
0010
0001
,
0000
0010
0100
0010
0000
1001
0000
0101
,
0000
0001
1000
0100
0000
1001
0000
1100
,
0000
0001
1000
0010
0000
1001
0000
0110
,
0000
0001
0100
0010
0000
1000
0100
0010
,
0000
0001
0010
0100
0000
1000
0001
2002
,
0000
0000
3003
0000
0010
0100
0010
0200
,
0000
0000
0001
0000
0010
0310
0000
1002
,
0000
0000
0010
0000
1000
1003
0000
2100
,
0000
0000
0010
0000
0001
3001
0000
0102
,
0000
0000
0010
0000
1000
1003
0000
1001
,
0000
1000
0001
1000
0000
0001
0010
0100
,
0000
0010
0100
2000
0000
0000
3001
0000
,
0110
0000
0000
1001
0000
0100
0010
0000
,
2002
0000
0000
0000
,
0000
0000
3003
0000
0100
0100
0000
0000
;
