#TITLE:BLO§OM;
#SUBTITLE:;
#ARTIST:BEMANI Sound Team "TAG";
#TITLETRANSLIT:BLOSSOM;
#SUBTITLETRANSLIT:;
#ARTISTTRANSLIT:;
#GENRE:;
#CREDIT:;
#BANNER:BLOSSOM.png;
#BACKGROUND:BLOSSOM.png;
#LYRICSPATH:;
#CDTITLE:;
#MUSIC:BLOSSOM.ogg;
#OFFSET:0.908999;
#SAMPLESTART:82.608955;
#SAMPLELENGTH:12.000000;
#SELECTABLE:YES;
#DISPLAYBPM:158.000000;
#BPMS:0.000000=158.000000
;
#STOPS:
;
#BGCHANGES:2.000=BLOSSOM.avi=1.000=0=0=0=StretchNoLoop====,
99999=-nosongbg-=1.000=0=0=0 // don't automatically add -songbackground-
;
#KEYSOUNDS:;
#ATTACKS:;

//---------------dance-threepanel - ----------------
#NOTES:
     dance-threepanel:
     :
     Challenge:
     1:
     0.003392,0.061542,0.007915,0.000000,0.003958,3.000000,1.000000,1.000000,0.000000,0.000000,1.000000,0.003392,0.061542,0.007915,0.000000,0.003958,3.000000,1.000000,1.000000,0.000000,0.000000,1.000000:
000
000
000
000
,
000
000
000
000
,
000
000
000
000
,
000
000
000
000
,
000
000
000
000
,
000
000
000
000
,
000
000
000
000
,
000
000
000
000
,
000
000
000
000
,
000
000
000
000
,
000
000
000
000
,
000
000
000
000
,
000
000
000
000
,
000
000
000
000
,
000
000
000
000
,
000
000
000
000
,
000
000
000
000
,
000
000
000
000
,
000
000
000
000
,
000
000
000
000
,
000
000
000
000
,
000
000
000
000
,
000
000
000
000
,
000
000
000
000
,
000
000
000
000
,
000
000
000
000
,
000
000
000
000
,
000
000
000
000
,
000
000
000
000
,
000
000
000
000
,
000
000
000
000
,
000
000
000
000
,
000
000
000
000
,
000
000
000
000
,
000
000
000
000
,
000
000
000
000
,
000
000
000
000
,
000
000
000
000
,
000
000
000
000
,
000
000
000
000
,
000
000
000
000
,
000
000
000
000
,
000
000
000
000
,
000
000
000
000
,
000
000
000
000
,
000
000
000
000
,
000
000
000
000
,
000
000
000
000
,
000
000
000
000
,
000
000
000
000
,
000
000
000
000
,
000
000
000
000
000
000
000
000
000
000
111
000
;

//---------------dance-single - ----------------
#NOTES:
     dance-single:
     :
     Hard:
     14:
     0.714648,0.764628,0.253293,0.261208,0.704471,632.000000,600.000000,32.000000,33.000000,0.000000,0.000000,0.714648,0.764628,0.253293,0.261208,0.704471,632.000000,600.000000,32.000000,33.000000,0.000000,0.000000:
0000
0000
0000
0000
,
0000
0000
0000
0000
,
0000
0000
0000
0000
,
0000
0000
0000
0000
,
0000
0000
0000
0000
,
0002
0000
0000
1000
1003
0100
0010
0001
,
2000
3002
0023
0230
,
2300
0000
0000
0001
0002
0000
3003
0000
,
0020
0000
0130
0010
0000
2002
0000
3003
,
1000
0000
0001
0000
0000
0010
0000
0000
0100
0000
0000
0010
0000
0000
0001
0000
,
1000
0000
0010
0000
0000
1000
0000
0000
0100
0000
0000
0001
0000
0000
0010
0000
,
0001
0000
0100
0000
0000
1000
0000
0000
0100
0000
0000
0001
0000
0000
0100
0000
,
0010
0000
1000
0000
0000
0010
0000
0000
0001
0000
0000
0100
0000
0000
1000
0000
,
0001
0000
0010
0000
0001
0000
0010
0000
0001
0000
0010
0000
0001
0100
0001
0100
,
0001
0000
0000
0011
0000
0000
0110
0000
0000
1100
0000
0000
1001
0000
1000
0000
,
0001
0000
1000
0000
0010
1000
0000
0000
0001
0000
0000
1000
0000
0000
0010
0000
,
0100
0000
0001
0000
1000
0001
0000
0000
0100
0000
0000
0001
0000
0000
1000
0000
,
0001
0010
0100
1000
0100
0010
0001
0100
,
0010
0000
0010
0000
0010
0000
0010
0000
1000
0000
0000
1001
0000
0000
0001
0000
,
1000
0000
0000
0110
0000
0000
0001
0000
0000
0110
0000
0000
1000
0000
0100
0000
,
0010
0000
0000
0101
0000
0000
0010
0000
0000
0101
0000
0000
0100
0000
0010
0000
,
2000
0000
3100
0020
0000
0031
1000
0001
,
0200
0000
0310
2000
0000
3001
1001
0000
,
0001
0000
0000
0110
0000
0000
1000
0000
0000
1010
0000
0000
0100
0000
0010
0000
,
1000
0000
0000
1010
0000
0000
0100
0000
0000
0101
0000
0000
1000
0000
0001
0000
,
0020
0000
0031
0200
0000
0301
0010
0200
,
0000
0302
0000
0023
0000
1030
0001
0000
,
1000
0000
0010
0000
1000
0000
0001
0100
0000
0010
0000
1000
0100
0000
1000
0000
,
0001
0000
0100
0000
0010
0000
1000
0001
0000
0100
0000
0001
1000
0000
0010
0000
,
0100
0000
0010
0000
1000
0000
0100
0010
0000
1000
0000
0001
0100
0000
0010
0000
,
1000
0000
0001
0000
0010
0000
0001
1000
0000
0100
0000
0010
0001
0000
1000
0000
,
0001
0000
0100
0000
0010
1000
0000
1000
0010
0000
0100
0000
0010
0100
0000
0100
,
0010
0000
1000
0000
0001
0010
0000
0010
0001
0000
1000
0000
0010
0100
0000
0100
,
0010
0000
0010
0000
0010
0000
0010
0000
1000
0001
1000
0001
1000
0001
1000
0000
,
0101
0000
0000
1001
0000
0000
1010
0000
0000
0110
0000
0000
1001
0000
0000
0000
,
1000
0000
0100
1000
0000
0000
0010
0000
0100
0010
0000
0000
1000
0000
0001
0000
,
0100
0000
0010
0100
0000
0000
0001
0000
0100
0001
0000
0000
1000
0000
0100
0000
,
0010
0000
0001
0010
0000
0000
0001
0000
1000
0001
0000
0000
1000
0000
1001
0000
,
1001
0011
1100
0110
,
0001
0000
0010
0001
0000
0010
0001
0000
0010
0001
0000
0000
0100
0000
0010
0000
,
1000
0000
0100
1000
0000
0100
1000
0000
0100
1000
0000
0000
0010
0000
0100
0000
,
0001
0000
0001
0000
0001
0000
0001
0000
1000
0010
1000
0010
1000
0010
1000
0010
,
0100
0000
0010
0000
1001
0000
0010
0000
0110
0000
0000
0001
1000
0000
0100
0000
,
2000
0000
0010
0000
0010
0000
0000
0010
0000
0000
0001
0000
0001
0000
0000
0001
,
0000
0000
0100
0000
0100
0000
0000
0100
0000
0000
0001
0000
3002
0000
0000
0100
,
0000
0000
1000
0000
1000
0000
0000
1000
0000
0000
0010
0000
0010
0000
0000
0010
,
0000
0000
1000
0000
1000
0000
0000
1000
0000
0000
0103
0000
0001
1000
0001
1000
,
0001
0000
1000
0000
0100
1000
0000
1000
0100
0000
0010
0000
0001
0010
0000
0010
,
0001
0000
0100
0000
0010
1000
0000
1000
0010
0000
0100
0000
0001
1000
0000
1000
,
0001
0000
1000
0000
0010
0100
0000
0100
0010
0000
1000
0000
0010
0100
0000
0100
,
0010
0000
1000
0000
0001
0100
0000
0100
0001
0000
1000
0000
0001
0010
0000
0010
,
0001
0000
1000
0000
0100
0010
0000
0010
0100
0000
1000
0000
0001
0100
0000
0100
,
0001
0000
1000
0000
0010
0100
0000
0100
0010
0000
1000
0000
0001
0100
0000
0100
,
0001
0010
0100
1000
0001
0010
0100
1000
,
0010
0100
0010
0100
0010
0100
0010
0100
0010
0000
0000
0000
0000
0000
0000
0000
,
0001
0000
0010
0001
0000
0010
0001
0000
0100
0000
0010
0000
1000
0000
0001
0000
,
1000
0000
0100
1000
0000
0100
1000
0000
0001
0000
0010
0001
0000
0010
0001
0000
,
0100
0000
0001
0010
0000
0001
0010
0000
0001
0000
1000
0010
0000
1000
0010
0000
,
1000
0000
0010
0100
0000
0010
0100
0000
0001
0000
0100
0010
0000
0100
0010
0000
,
1000
0000
0001
0010
0000
0001
0010
0000
0001
0000
0100
0000
0010
0000
1000
0000
,
0001
0000
0100
0010
0000
0100
0010
0000
1000
0000
0001
0100
0000
0001
0100
0000
,
0001
0000
1000
0100
0000
0100
1000
0000
0001
0000
0100
0010
0000
0010
0100
0000
,
0001
0000
0010
0001
0000
0001
0100
0000
0010
0100
0010
0100
0010
0000
1000
0000
,
0001
0000
0010
0001
0000
0010
0001
0000
0100
0000
1000
0000
0100
0000
0001
0000
,
2000
0000
0000
0010
0000
0000
3020
0000
0000
0000
0130
0000
0001
0000
2000
0000
,
0001
0000
0000
0001
0000
0000
0001
0000
0000
0000
3010
0000
1000
0000
0020
0000
,
0000
0130
0001
2000
0000
3001
0100
0002
,
0010
0000
0000
0010
0000
0000
0013
0000
0001
0000
0100
0000
0010
0000
0200
0000
,
0000
0302
0000
2003
0000
0000
3010
0000
,
0100
0000
0010
0100
0000
0010
0100
0000
0001
0000
1000
0001
0000
1000
0001
0000
,
1000
0000
0010
0100
0000
0010
0100
0000
0001
1000
0001
1000
0001
1000
0001
0000
,
1000
0000
0001
0000
0100
0010
0000
0010
0100
0000
0001
0100
0000
0000
0001
0100
,
0001
0000
1000
0000
0010
0100
0000
0100
0010
0000
0010
1000
0000
0000
0001
0100
,
0001
0000
1000
0000
0001
0010
0000
0010
0001
0000
0100
0010
0000
0000
0100
0010
,
1000
0000
0001
0000
1000
0010
0000
0010
1000
0000
0001
0100
0000
0000
0010
0000
,
1000
0000
0100
0000
1000
0000
0100
0000
0010
0001
0010
0000
0001
1000
0001
0000
,
1001
0000
0000
0011
0000
0000
0110
0000
0000
1100
0000
0000
1001
0000
1000
0100
,
0020
0000
0001
0000
0000
0001
0000
0000
0032
0000
0000
0100
0000
0000
0103
0000
,
0020
0000
1000
0000
0000
1000
0000
0000
0100
0000
0000
0100
0000
0000
1030
0000
,
0001
0000
0010
0000
0100
0000
1000
0000
0001
1000
0001
1000
0001
1000
0001
1000
,
0010
0100
0010
0100
0010
0100
0010
0100
0010
0000
0000
0000
0000
0000
0000
0000
;

//---------------dance-double - ----------------
#NOTES:
     dance-double:
     :
     Hard:
     14:
     0.687509,0.764628,0.277039,0.229547,0.712386,608.000000,573.000000,35.000000,29.000000,0.000000,0.000000,0.687509,0.764628,0.277039,0.229547,0.712386,608.000000,573.000000,35.000000,29.000000,0.000000,0.000000:
00000000
00000000
00000000
00000000
,
00000000
00000000
00000000
00000000
,
00000000
00000000
00000000
00000000
,
00000000
00000000
00000000
00000000
,
00000000
00000000
00000000
00000000
,
20000000
00000000
00000000
00010000
30010000
10000000
01000000
00100000
,
00002000
00023000
00030020
00020030
,
00030200
00000000
00000000
00001000
00002000
00000000
00003300
00000000
,
00000020
00000000
00000001
00000032
00000000
00000200
00000000
00000303
,
00001000
00000000
00000001
00000000
00001000
00000010
00000000
00000010
00001000
00000000
00001000
00000100
00000000
00000100
00010000
00000000
,
00001000
00000000
00100000
00000000
00010000
01000000
00000000
01000000
00100000
00000000
00100000
10000000
00000000
10000000
00010000
00000000
,
10000000
00000000
00100000
00000000
01000000
00010000
00000000
00010000
00100000
00000000
00100000
00001000
00000000
00001000
00010000
00000000
,
00000100
00000000
00001000
00000000
00000001
00000010
00000000
00000010
00000001
00000000
00001000
00000100
00000000
00000100
00010000
00000000
,
00001000
00000000
00000010
00000000
00001000
00000000
00000100
00000000
00010000
00001000
00010000
00001000
00010000
00001000
00010000
00001000
,
00100000
00000000
00000000
00110000
00000000
00000000
11000000
00000000
00000000
00110000
00000000
00000000
01000000
00000000
00100000
00000000
,
10010000
00000000
00010000
00000000
10000000
00010000
00000000
00010000
10000000
00000000
00100000
01000000
00000000
00000000
00010000
00000000
,
00100000
00000000
00001000
00000000
00010000
00000010
00000000
00000010
00001000
00000000
00001000
00000001
00000000
00000000
00000100
00000000
,
00001000
00000100
00000010
00000001
00001000
00000100
00010000
00001000
,
01000000
00000000
01000000
00000000
01000000
00000000
01000000
00000000
01000000
00000000
00000000
10010000
00000000
00000000
00100000
00000000
,
10000000
00000000
00000000
00100000
00000000
00000000
00010000
00000000
00000000
00001000
00000000
00000000
00000100
00000000
00000010
00000000
,
00000001
00000000
00000000
00000100
00000000
00000000
00001000
00000000
00000000
00010000
00000000
00000000
00100000
00000000
00010000
00000000
,
02000000
00000000
13000000
00020000
00000000
00130000
00100000
00000000
,
00002000
00000000
00013000
00000020
00000000
00000130
00000110
00000000
,
00000001
00000000
00000000
00000100
00000000
00000000
00001000
00000000
00000000
00010000
00000000
00000000
01000000
00000000
00100000
00000000
,
00010000
00000000
00000000
00001000
00000000
00000000
00010000
00000000
00000000
00000010
00000000
00000000
00000100
00000000
00000001
00000000
,
00002000
00000000
00000100
00000200
00003300
00001000
00000001
00002000
,
00000000
00003200
00000000
00020300
00000000
00002000
00000000
00033000
,
00001000
00000000
00010000
00000000
00000010
00000000
00001000
00000100
00000000
00000010
00000000
00000001
00000010
00000000
00000100
00000000
,
00001000
00000000
00000100
00000000
00010000
00000000
00001000
00100000
00000000
00010000
00000000
00100000
00001000
00000000
00100000
00000000
,
00010000
00000000
01000000
00000000
10000000
00000000
00100000
10000000
00000000
00010000
00000000
10000000
00100000
00000000
01000000
00000000
,
00010000
00000000
00100000
00000000
00001000
00000000
00010000
00000100
00000000
00001000
00000000
00000100
00010000
00000000
00000010
00000000
,
00001000
00000000
00000001
00000000
00000100
00000010
00000000
00000010
00000100
00000000
00000001
00000000
00001000
00000100
00000000
00000100
,
00010000
00000000
00001000
00000000
00100000
00010000
00000000
00010000
10000000
00000000
01000000
00000000
00010000
00100000
00000000
00100000
,
00001000
00010000
00011000
00010000
,
00000100
00000000
00000000
00001100
00000000
00000000
00010000
00000000
00000000
00011000
00000000
00000000
01010000
00000000
00000000
00000000
,
00100000
00000000
10000000
00100000
00000000
10000000
00100000
00000000
00000000
10010000
00000000
00000000
00100000
00000000
00001000
00000000
,
00010000
00000000
00000100
00010000
00000000
00000100
00010000
00000000
00000000
00001010
00000000
00000000
00000100
00000000
00000001
00000000
,
00001000
00000000
00000100
00001000
00000000
00000100
00001000
00000000
00000000
00010100
00000000
00000000
00001000
00000000
00100000
00000000
,
00110000
00000000
00000000
00010000
01000000
00000000
00000000
01000000
10000000
00000000
00000000
10000000
01000000
00000000
00000000
00000000
,
00100000
00000000
01000000
00100000
00000000
01000000
00100000
00000000
01000000
00100000
00000000
00000000
00010000
00000000
00001000
00000000
,
00010000
00000000
00001000
00010000
00000000
00000100
00010000
00000000
00000100
00010000
00000000
00000000
00000100
00000000
00001000
00000000
,
00000010
00000000
00000100
00000010
00000000
00000100
00000010
00000000
00000100
00000010
00000000
00000000
00001000
00000000
00000100
00000000
,
00010000
00000000
00000000
00000000
00011000
00000000
00000000
00000000
01001000
00000000
00000000
01000000
00010000
00000000
10000000
00000000
,
00100000
00000000
01000000
00000000
00010000
00100000
00000000
00100000
00000000
00000000
00001000
00000000
00010000
00000100
00000000
00000100
,
00000000
00000000
00000001
00000000
00001000
00000100
00000000
00000100
00000000
00000000
00001000
00000000
00000100
00010000
00000000
00010000
,
00000000
00000000
00001000
00000000
00100000
00001000
00000000
00100000
00000000
00000000
00010000
00000000
10000000
00010000
00000000
10000000
,
00000000
00000000
00010000
00000000
01000000
00100000
00000000
01000000
00000000
00000000
10000000
00000000
00100000
01000000
00000000
00100000
,
01000000
00000000
00010000
00000000
00100000
00001000
00000000
00001000
00100000
00000000
00001000
00000000
00010000
00000010
00000000
00000010
,
00010000
00000000
00000001
00000000
00001000
00000100
00000000
00000100
00001000
00000000
00000001
00000000
00001000
00000010
00000000
00000010
,
00001000
00000000
00000100
00000000
00010000
00001000
00000000
00001000
00000000
00000000
01000000
00000000
00010000
10000000
00000000
10000000
,
00010000
00000000
00100000
00000000
00001000
00010000
00000000
00010000
00000000
00000000
00000001
00000000
00000100
00000010
00000000
00000010
,
00000000
00000000
00010000
00000000
00001000
00100000
00000000
00100000
00000000
00000000
00010000
00000000
10000000
00100000
00000000
00100000
,
00000000
00000000
01000000
00000000
00001000
00010000
00000000
00010000
00000000
00000000
00000010
00000000
00001000
00000100
00000000
00000100
,
00001000
00000100
00000010
00000001
00001000
00000100
00000010
00000001
,
00001000
00000100
00001000
00000100
00001000
00000100
00001000
00000100
00010000
00000000
00000000
00000000
00000000
00000000
00000000
00000000
,
00001100
00000000
00000000
00000110
00000000
00000000
00000011
00000000
00000000
00000000
00001000
00000000
00000100
00000000
00010000
00000000
,
00001000
00000000
00000000
00101000
00000000
00000000
00001000
00000000
01000000
00000000
00000000
01010000
00000000
00000000
01000000
00000000
,
00100000
00000000
10000000
00100000
00000000
10000000
00100000
00000000
01000000
00000000
00010000
00100000
00000000
00010000
00100000
00000000
,
00001000
00000000
00010000
00001000
00000000
00010000
00000100
00000000
00001000
00000000
00000100
00010000
00000000
00001000
00010000
00000000
,
00001000
00000000
00000000
00011000
00000000
00000000
00010000
00000000
00000000
00000000
00000010
00000000
00001000
00000000
00000001
00000000
,
00001000
00000000
00000100
00001000
00000000
00001000
00000100
00000000
00000010
00000000
00000001
00000010
00000000
00000010
00000001
00000000
,
00001000
00000000
00000100
00010000
00000000
00010000
00001000
00000000
00100000
00000000
00010000
01000000
00000000
01000000
00100000
00000000
,
10100000
00000000
00000000
00110000
00000000
00000000
10100000
00000000
00010000
00000000
00100000
00000000
10000000
01000000
00100000
00010000
,
10000000
00000000
00000000
10010000
00000000
00000000
00010000
00000000
10000000
00000000
00100000
00000000
00010000
00000000
00001000
00000000
,
00000200
00000000
00000000
00002300
00000000
00000000
00000000
00003020
,
00000000
00000000
00000100
00000000
00000000
00001030
00000100
00020000
,
00000000
00031000
00100000
00020000
00000000
10030000
01000000
00100000
,
00020000
00000000
00000000
01000000
00000000
00000000
01030000
00000000
00100000
00000000
10000000
00000000
01000000
00000000
00100000
00000000
,
00000000
00001000
00000000
00020000
00000000
00000010
00030010
00000000
,
00001000
00000000
00000010
00000100
00000000
00000100
00000010
00000000
00001000
00000000
00000001
00000010
00000000
00000010
00000001
00000000
,
00001000
00000100
00000000
00001000
00000100
00000000
00010000
00000000
00022000
00000000
00000000
00000000
00033000
00000000
00000000
00000000
,
00100000
00000000
00110000
00000000
00000000
00010000
00000000
00000000
01000000
00000000
00000000
10000000
00000000
00000000
10000000
00010000
,
00000000
00000000
00110000
00000000
00000000
00100000
00000000
00000000
00001000
00000000
00000000
00010000
00000000
00000000
00000100
00010000
,
00000000
00000000
00000100
00000000
00000000
00001100
00000000
00000000
00001000
00000000
00000000
00001010
00000000
00000000
00000010
00000000
,
00001000
00000000
00000001
00000000
00000000
00001001
00000000
00000000
00001000
00000000
00000000
00001100
00000000
00000000
00000100
00000000
,
00010000
00001000
00010000
00000100
00010000
00001000
00010000
00000100
,
00010000
00000000
00000000
00101000
00000000
00000000
00100000
00000000
00000000
11000000
00000000
00000000
00100000
00000000
00001000
00000000
,
00010000
00000000
00000100
00000000
00001000
00000100
00000000
00000010
00000001
00000000
00000010
00000100
00000000
00000000
00001000
00000000
,
00000100
00000000
00010000
00000000
00001000
00100000
00000000
00010000
01000000
00000000
00100000
10000000
00000000
00000000
00010000
00000000
,
10000000
00000000
01000000
00000000
00100000
00000000
00010000
00000000
00001000
00010000
00001000
00000000
00010000
00000010
00010000
00000000
,
00001000
00000100
00001000
00000100
00010000
00001000
00010000
00001000
00010000
00000000
00000000
00000000
00000000
00000000
00000000
00000000
;

//---------------dance-double - ----------------
#NOTES:
     dance-double:
     :
     Easy:
     7:
     0.322270,0.414173,0.142477,0.308701,0.003958,285.000000,267.000000,18.000000,39.000000,0.000000,0.000000,0.322270,0.414173,0.142477,0.308701,0.003958,285.000000,267.000000,18.000000,39.000000,0.000000,0.000000:
00000000
00000000
00000000
00000000
,
00000000
00000000
00000000
00000000
,
00000000
00000000
00000000
00000000
,
00000000
00000000
00000000
00000000
,
00000000
00000000
00000000
00000000
,
20000000
00000000
30020000
00000000
,
00130000
00001000
00010000
00000010
,
00000200
00000000
00000302
00000000
,
00002003
00000000
00000020
00003030
,
00000001
00000100
00001000
00000100
,
00000001
00000100
00000010
00001000
,
00000100
00010000
00001000
00010000
,
00000100
00010000
00001000
01000000
,
00010000
00100000
10000000
00100000
,
00010000
00000000
00000000
10010000
00000000
00000000
10000000
00000000
,
00020000
00100000
00100000
00130000
,
20000000
00100000
00100000
30100000
,
01000000
00010000
00001000
00000100
,
00000001
00000001
00001000
00001001
,
00001000
00000100
00010000
00001000
,
01000000
00010000
10000000
01000000
,
00100000
00010000
20020000
30030000
,
00100000
10000000
20020000
30030000
,
10000000
01000000
00010000
00001000
,
00010000
00000010
00000100
00000010
,
00000001
00001000
00002002
00003003
,
00000010
00000000
00000110
00000000
,
00000001
00000100
00001000
00001001
,
00000100
00010000
00001000
00011000
,
00100000
00010000
01000000
10000000
,
00100000
10000000
00010000
00001000
,
00010000
00000010
00000100
00000010
,
00010000
00000100
00000010
00000001
,
00000100
00001000
00000010
00000001
,
00000200
00000000
00000020
00000330
,
00000001
00001000
00000100
00000100
,
00010000
00001000
01000000
01000000
,
10000000
00010000
00100000
00100000
,
10010000
01100000
10010000
01100000
,
10000000
00100000
00010000
00010000
,
00001000
00000100
00001000
00000001
,
00000010
00000100
00001000
00000100
,
00000010
00000001
00001001
00001001
,
00000020
00000000
00002030
00000000
,
00023000
00000000
02030000
00000000
,
03020000
00000000
00032000
00000000
,
00003200
00000000
00002300
00000000
,
00203000
00000000
00320000
00000000
,
02030000
00000000
23000000
00000000
,
30200000
00000000
02300000
03000000
,
20020000
00030000
00010000
30100000
,
00002000
00000000
00010000
00013000
,
00000010
00000100
00000010
00000001
,
00001000
00000100
00010000
00001000
,
00100000
00010000
01000000
00000000
,
10000000
00100000
00010000
01000000
,
10000000
00010000
10010000
00000000
,
00100000
00001000
00010000
00001000
,
00010000
00010000
00010000
00000000
,
00000010
00001000
00000100
00000001
,
00000010
00001000
00000100
00000000
,
00010000
00010000
00001000
00001000
,
01000000
00010000
20020000
30030000
,
00100000
10000000
01000000
00010000
,
00100000
00100000
00001000
00010000
,
00000010
00001000
00000100
00000001
,
00000010
00000010
00010000
00001000
,
01000000
01000000
10000000
00100000
,
00010000
00100000
00001000
00010000
,
00000010
00000010
00001000
00000100
,
00000001
00000010
00000010
00000000
,
00001000
00000100
00020000
00030000
,
00001000
01000000
00200000
00300000
,
10000000
01000000
00200000
00300000
,
00001000
00000100
00000020
00000030
,
00000001
00000010
00000100
00001000
,
00010000
00000000
00000000
00010000
00000000
00000000
00010000
00000000
00000000
00000000
00000000
00000000
00011000
00000000
00000000
00000000
,
00001000
00010000
00100000
00010000
,
01000000
10000000
00100000
00010000
,
01000000
00100000
01000000
00000000
00100000
01000000
00100000
00000000
,
01000000
00100000
01000000
00100000
01000000
00000000
00000000
00000000
;

//---------------dance-single - ----------------
#NOTES:
     dance-single:
     :
     Easy:
     6:
     0.296262,0.382314,0.197885,0.221631,0.000000,262.000000,237.000000,25.000000,28.000000,0.000000,0.000000,0.296262,0.382314,0.197885,0.221631,0.000000,262.000000,237.000000,25.000000,28.000000,0.000000,0.000000:
0000
0000
0000
0000
,
0000
0000
0000
0000
,
0000
0000
0000
0000
,
0000
0000
0000
0000
,
0000
0000
0000
0000
,
0010
1000
0001
0000
,
1000
0100
0010
0001
,
0010
0001
1000
0000
,
0020
0030
0110
0000
,
0001
0100
0001
0100
,
0010
1000
0010
1000
,
0100
1000
0100
0001
,
0100
0001
0100
0001
,
0010
0100
1000
0100
,
0010
0000
0000
1001
0000
0000
0100
0000
,
0001
0010
0100
1000
,
0010
0001
0100
1000
,
0010
0010
0100
0100
,
2002
0000
3003
0000
,
0001
0100
1000
0100
,
0001
0010
1000
0010
,
0001
0010
0100
1000
,
1000
0100
0010
0001
,
1000
0100
0001
0010
,
0001
0100
1000
0010
,
0100
0100
0001
1000
,
0010
0010
2002
3003
,
0001
0100
0001
0100
,
1000
0100
1000
0100
,
0001
0010
0001
0010
,
1000
0010
0001
0010
,
1000
0100
0010
1001
,
0001
0010
0100
1001
,
0020
0030
0200
0300
,
0001
0000
0000
0110
0000
0000
0000
0000
,
1001
0000
0110
0000
,
1000
0001
0100
0000
,
1001
0000
0110
0000
,
0001
0010
0100
1000
,
0001
0000
1100
0000
,
0001
0010
0100
0000
,
1000
0100
0010
0001
,
0100
0100
2002
3003
,
0020
0000
0030
0000
,
0200
0000
0300
0000
,
0002
0000
2003
0000
,
3002
0000
0003
0000
,
0020
0000
0030
0000
,
0200
0000
0300
0000
,
2000
0000
3002
0000
,
2003
0000
0000
0000
,
0000
0000
0000
0000
,
0000
0000
0000
3000
,
0001
0010
0100
1000
,
0010
0100
0010
0100
0010
0000
0000
0000
,
1000
0100
0010
1001
,
0010
0010
0100
0100
,
0001
0010
0100
1000
,
0001
0001
2002
3003
,
0010
0010
0001
0100
,
0010
0010
1000
0100
,
0001
0001
1000
1000
,
0001
0010
2002
3003
,
1000
0010
0010
1000
,
0001
0100
0100
0001
,
1000
0010
0100
0100
,
0001
0100
2002
3003
,
0001
0010
0001
1000
,
0100
1000
0001
0010
,
1000
1000
0100
0001
,
0010
0010
2002
3003
,
0010
0010
0010
1001
,
0100
0100
0100
1001
,
1000
1000
1000
0110
,
0001
0001
0001
0110
,
0010
0100
1000
0001
,
0110
0000
1001
0000
,
0200
0000
0000
0000
,
0300
0000
0000
0000
,
1000
0000
0001
0000
,
0100
0100
0110
0000
;

//---------------dance-single - ----------------
#NOTES:
     dance-single:
     :
     Beginner:
     4:
     0.170746,0.254876,0.000000,0.031662,0.000000,151.000000,151.000000,0.000000,4.000000,0.000000,0.000000,0.170746,0.254876,0.000000,0.031662,0.000000,151.000000,151.000000,0.000000,4.000000,0.000000,0.000000:
0000
0000
0000
0000
,
0000
0000
0000
0000
,
0000
0000
0000
0000
,
0000
0000
0000
0000
,
0000
0000
0000
0000
,
0010
0000
0000
0000
,
1000
0000
0000
0000
,
0001
0000
0000
0000
,
0100
0000
0000
0000
,
0001
0000
0001
0000
,
1000
0000
1000
0000
,
0001
0000
1000
0000
,
0001
0000
1000
0000
,
0010
0000
0010
0000
,
0200
0000
0300
0000
,
0010
0000
0010
0000
,
0100
0000
0100
0000
,
0010
0000
0100
0000
,
0020
0000
0030
0000
,
0001
0000
1000
0000
,
0001
0000
1000
0000
,
0010
0000
0100
0000
,
0010
0000
0100
0000
,
0001
0000
0001
0000
,
1000
0000
1000
0000
,
0100
0100
0100
0000
,
0010
0010
0010
0000
,
0001
0000
0001
0000
,
1000
0000
1000
0000
,
0010
0000
0010
0000
,
0100
0000
0100
0000
,
0001
0001
0001
0000
,
1000
1000
1000
0000
,
0010
0000
0100
0000
,
0002
0000
0003
0000
,
0010
0000
0010
0000
,
0100
0000
0100
0000
,
1000
0000
0001
0000
,
1000
1000
1000
1000
,
1000
0000
0001
0000
,
0010
0000
0100
0000
,
1000
0000
0001
0000
,
0100
0100
0100
0000
,
0010
0000
0000
0000
,
0100
0000
0000
0000
,
0001
0000
0000
0000
,
1000
0000
0000
0000
,
0010
0000
0000
0000
,
0100
0000
0000
0000
,
1000
0000
0000
0000
,
0001
0000
0000
0000
,
1000
0000
0000
0000
,
0001
0000
0000
0000
,
1000
0000
1000
0000
,
1000
1000
1000
0000
,
0001
0000
0001
0000
,
1000
0000
0001
0000
,
1000
0000
1000
0000
,
0001
0001
0001
0000
,
0010
0000
0010
0000
,
0100
0000
0100
0000
,
0001
0000
1000
0000
,
0001
0001
0001
0000
,
0010
0010
0010
0000
,
0100
0100
0100
0000
,
0010
0000
0100
0000
,
0001
0001
0001
0000
,
1000
0000
0001
0000
,
0100
0000
0010
0000
,
1000
0000
0100
0000
,
0010
0010
0010
0000
,
0100
0100
0100
0000
,
0010
0010
0010
0000
,
1000
1000
1000
0000
,
0001
0001
0001
0000
,
0010
0010
0010
0010
,
0010
0000
0000
0000
,
0200
0000
0000
0000
,
0300
0000
0000
0000
,
0100
0000
0100
0000
,
0100
0000
0100
0000
;

//---------------dance-double - ----------------
#NOTES:
     dance-double:
     :
     Medium:
     11:
     0.487362,0.573471,0.174139,0.166223,0.221631,431.000000,409.000000,22.000000,21.000000,0.000000,0.000000,0.487362,0.573471,0.174139,0.166223,0.221631,431.000000,409.000000,22.000000,21.000000,0.000000,0.000000:
00000000
00000000
00000000
00000000
,
00000000
00000000
00000000
00000000
,
00000000
00000000
00000000
00000000
,
00000000
00000000
00000000
00000000
,
00000000
00000000
00000000
00000000
,
00200000
00000000
00302000
00000000
,
00013000
00000010
00000100
00000001
,
00002000
00000000
00003200
00000000
,
00010300
00001000
01000000
10010000
,
10000000
00100000
10000000
00000000
00010000
00100000
00001000
00000000
,
00010000
00000000
00010100
00000000
00000100
00001000
00000010
00000000
,
00000100
00000001
00001000
00000000
00000100
00010000
00001000
00000000
,
00100000
00000000
01010000
00000000
00100000
10000000
01000000
00000000
,
00100000
00001000
00010000
00000000
00000010
00001000
00000001
00000000
,
00000010
00000000
00000000
00000010
00000000
00000000
00000010
00000000
00000000
00000010
00000000
00000000
00000110
00000000
00000000
00000000
,
00000100
00000000
00000001
00000000
00000000
00001000
00000000
00000000
00000100
00000000
00000000
00010000
00000000
00000000
00001000
00000000
,
01000000
00000000
00010000
00000000
00000000
10000000
00000000
00000000
00010000
00000000
00000000
00100000
00000000
00000000
00001000
00000000
,
00010000
00000100
00010000
00000100
00001000
00000010
00001000
00000010
,
00000100
00000010
00000100
00000010
00002000
00000000
00003001
00000000
,
00000001
00000000
00001000
00000000
00000100
00010000
00001000
00000000
,
00100000
00000000
00010000
00000000
10000000
01000000
00100000
00000000
,
00001000
00000000
00010000
00000010
00000010
00000000
00001000
00000000
,
00000001
00000000
00001000
00000100
00000100
00000000
00010000
00000000
,
00001000
00000000
00100000
00000000
00010000
01000000
10000000
00000000
,
00100000
00000000
01000000
00000000
00001000
00010000
00000010
00000000
,
00001000
00000000
00000001
00000100
00000000
00000001
00001000
00000100
,
00000000
00010000
00000000
00001000
00000000
02000000
00000000
03000000
,
00100000
10000000
00010000
00000000
00100000
00001000
00010000
00000000
,
00000010
00001000
00000001
00000000
00000100
00000000
00011000
00000000
,
00100000
00010000
01000000
00000000
00100000
10000000
01000000
00000000
,
00010000
00001000
00000100
00000000
00000010
00000000
00001001
00000000
,
00000001
00000100
00000010
00000000
00010000
00001000
00100000
00000000
,
00010000
01000000
10000000
00000000
00100000
00000000
00110000
00000000
,
00001000
00010000
00000010
00000000
00001000
00000100
00000001
00000000
,
00001000
00000000
00000000
00000010
00000000
00000000
00010000
00000000
00000000
00001000
00000000
00000000
01000000
00000000
00000000
00000000
,
00100000
00000000
00000000
00100000
00000000
00000000
00001000
00000000
00000000
00001000
00000000
00000000
00010000
00000000
00000010
00000000
,
00001000
00000000
00000000
00001000
00000000
00000000
00000001
00000000
00000000
00000001
00000000
00000000
00010000
00000000
00001000
00000000
,
00100000
00000000
00000000
00100000
00000000
00000000
00010000
00000000
00000000
00010000
00000000
00000000
10000000
00000000
00000000
00000000
,
00100000
00110000
00011000
00001100
,
00000001
00000000
00000000
00000001
00000000
00000000
00001000
00000000
00000000
00001000
00000000
00000000
00000100
00000000
00010000
00000000
,
00001000
00000000
00000000
00001000
00000000
00000000
00100000
00000000
00000000
00100000
00000000
00000000
00010000
00000000
01000000
00000000
,
10000000
00000000
00000000
10000000
00000000
00000000
00010000
00000000
00000000
00010000
00000000
00000000
00100000
00000000
00001000
00000000
,
00011000
00010010
00000101
00001010
,
00000200
00000001
00000000
00000010
00000000
00000301
00000000
00001000
,
00000200
00010000
00000000
00010000
00000000
00001300
00000000
00010000
,
00002000
01000000
00000000
01003000
00020000
10000000
00000000
10030000
,
00200000
01000000
00000000
10000000
00000000
01300000
00000000
10000000
,
00020000
00100000
00000000
01000000
00000000
00130000
00000000
00001000
,
00020000
00000100
00000000
00000010
00000000
00030100
00000000
00000001
,
00002000
00000100
00000000
00003010
00000200
00000001
00000000
00000301
,
00002000
00000100
00000000
00000010
00000000
00000001
00000000
00003100
,
00020000
00001000
00000000
00000100
00000000
00001000
00000000
00031000
,
00200000
00010000
00000000
00001000
00000000
00010000
00000000
00301000
,
00100000
00010000
01000000
00100000
10000000
01000000
00100000
00010000
,
00100000
00100000
00100000
00100000
01100000
00000000
00000000
00000000
,
10000000
00000000
00000000
01000000
00000000
00000000
00010000
00000000
00000000
00000000
00100000
00000000
00001000
00000000
00010000
00000000
,
00000010
00000000
00000000
00000010
00000000
00000000
00001000
00000000
00000001
00000000
00000000
00000001
00000000
00000000
00001000
00000000
,
00000100
00000000
00000000
00000100
00000000
00000000
00010000
00000000
00001000
00000000
00000000
00001000
00000000
00000000
00100000
00000000
,
00010000
00000000
00000000
01000000
00000000
00000000
10000000
00000000
00010000
00000000
00000000
00100000
00000000
00000000
10000000
00000000
,
00010000
00000000
00000000
00100000
00000000
00000000
00001000
00000000
00000000
00000000
00010000
00000000
00000100
00000000
00001000
00000000
,
00000010
00000000
00000000
00000100
00000000
00000000
00000001
00000000
00001000
00000000
00000000
00000100
00000000
00000000
00000001
00000000
,
00001000
00000000
00000000
00000100
00000000
00000000
00010000
00000000
00001000
00000000
00000000
00100000
00000000
00000000
00010000
00000000
,
01000000
00000000
00000000
00100000
00000000
00000000
10000000
00000000
00020000
00000000
00000000
00000000
00130000
00000000
00000000
00000000
,
00001000
00000000
00000000
00010000
00000000
00000000
00000010
00000000
00000000
00000000
00001000
00000000
00000100
00000000
00000010
00000000
,
00000001
00000000
00000000
00000100
00000000
00000000
00001000
00000000
00000010
00000000
00000000
00000100
00000000
00000000
00001000
00000000
,
00000100
00000000
00000000
00010000
00000000
00000000
00001000
00000000
00100000
00000000
00000000
00010000
00000000
00000000
01000000
00000000
,
10000000
00000000
00000000
01000000
00000000
00000000
00010000
00000000
00001000
00000000
00000000
00100000
00000000
00000000
00001000
00000000
,
00010000
00000000
00000000
00000100
00000000
00000000
00001000
00000000
00000010
00000000
00000100
00000000
00000001
00000000
00001000
00000000
,
00000100
00000000
00000000
00000100
00000000
00000000
00010000
00000000
00001000
00000000
00000000
00001000
00000000
00000000
00100000
00000000
,
00010000
00000000
00000000
01000000
00000000
00000000
10000000
00000000
00010000
00000000
00000000
00100000
00000000
00000000
10000000
00000000
,
01000000
00000000
00000000
00100000
00000000
00000000
00001000
00000000
00022000
00000000
00000000
00000000
00033000
00000000
00000000
00000000
,
00000000
00000000
00010000
00000000
00000000
00000100
00000000
00000000
00001000
00000000
00000000
00000010
00000000
00000000
00000000
00000000
,
00000000
00000000
00000001
00000000
00000000
00000100
00000000
00000000
00001000
00000000
00000000
00010000
00000000
00000000
00000000
00000000
,
00000000
00000000
00100000
00000000
00000000
00010000
00000000
00000000
01000000
00000000
00000000
10000000
00000000
00000000
00000000
00000000
,
00000000
00000000
00100000
00000000
00000000
00010000
00000000
00000000
00001000
00000000
00000000
00000100
00000000
00000000
00000000
00000000
,
00000010
00000001
00001000
00000100
00000010
00000001
00001000
00000000
,
00010100
00000000
00000000
00010100
00000000
00000000
00011000
00000000
00000000
00011000
00000000
00000000
00101000
00000000
00000000
00000000
,
00100000
00010000
01000000
00000000
00100000
10000000
01000000
00000000
,
00100000
00010000
00001000
00000000
00000100
00001000
00000010
00000000
,
00000001
00000010
00000100
00001000
00000001
00000010
00000100
00001000
,
00000010
00000010
00000010
00000010
00000110
00000000
00000000
00000000
;

//---------------dance-single - ----------------
#NOTES:
     dance-single:
     :
     Medium:
     11:
     0.516763,0.573471,0.284954,0.174139,0.170181,457.000000,421.000000,36.000000,22.000000,0.000000,0.000000,0.516763,0.573471,0.284954,0.174139,0.170181,457.000000,421.000000,36.000000,22.000000,0.000000,0.000000:
// measure 0
0000
0000
0000
0000
,  // measure 1
0000
0000
0000
0000
,  // measure 2
0000
0000
0000
0000
,  // measure 3
0000
0000
0000
0000
,  // measure 4
0000
0000
0000
0000
,  // measure 5
0020
0000
2030
0000
,  // measure 6
3001
0100
0010
1000
,  // measure 7
0002
0000
0023
0000
,  // measure 8
0031
0010
0100
1001
,  // measure 9
1000
0010
1000
0000
0001
0010
0001
0000
,  // measure 10
0100
0000
0010
0000
0100
0010
1000
0000
,  // measure 11
0001
0010
0100
0000
1000
0100
0010
0000
,  // measure 12
0010
0000
0101
0000
0010
1000
0100
0000
,  // measure 13
0010
0100
0001
0000
0100
0010
1000
0000
,  // measure 14
0010
0000
0000
0010
0000
0000
0010
0000
0000
0010
0000
0000
0110
0000
0000
0000
,  // measure 15
0100
0000
0001
0000
0000
0010
0000
0000
1000
0000
0000
0100
0000
0000
0001
0000
,  // measure 16
0100
0000
1000
0000
0000
0010
0000
0000
0001
0000
0000
0010
0000
0000
1000
0000
,  // measure 17
0001
0010
0001
0010
0100
1000
0100
1000
,  // measure 18
0010
0100
0010
0100
0020
0000
0130
0000
,  // measure 19
0001
0000
0010
0000
0100
0001
1000
0000
,  // measure 20
0010
0000
0001
0000
1000
0100
0010
0000
,  // measure 21
0001
0000
0010
0100
0100
0000
1001
0000
,  // measure 22
0010
0000
1000
0001
0001
0000
1001
0000
,  // measure 23
0001
0000
0010
0000
0001
0100
1000
0000
,  // measure 24
0010
0000
0100
0000
1000
0001
0100
0000
,  // measure 25
0001
0000
1000
0010
0000
1000
0100
0010
,  // measure 26
0000
0001
0000
1001
0000
0220
0000
0330
,  // measure 27
1000
0001
0001
0000
0010
0001
0001
0000
,  // measure 28
1000
0100
0010
0000
0100
0010
0001
0000
,  // measure 29
0010
0001
0100
0000
0010
1000
0100
0000
,  // measure 30
0001
0010
0100
1000
0100
0010
0001
0000
,  // measure 31
0100
0100
0001
0000
0001
0001
0010
0000
,  // measure 32
0010
0010
1000
0000
1000
1000
0100
0000
,  // measure 33
1000
0001
1000
0001
1000
0100
0010
0001
,  // measure 34
0100
0000
0000
0110
0000
0000
0010
0000
0000
0110
0000
0000
0100
0000
0000
0000
,  // measure 35
0010
0000
0000
0010
0000
0000
0001
0000
0000
1001
0000
0000
1000
0000
0000
0000
,  // measure 36
0100
0000
0000
0100
0000
0000
0001
0000
0000
1001
0000
0000
1000
0000
0000
0000
,  // measure 37
0010
0000
0000
0010
0000
0000
0001
0000
0000
1001
0000
0000
1000
0000
0000
0000
,  // measure 38
0010
0011
0101
1100
,  // measure 39
0010
0000
0000
0010
0000
0000
1010
0000
0000
1000
0000
0000
0001
0000
0000
0000
,  // measure 40
0001
0000
0000
0001
0000
0000
0101
0000
0000
0100
0000
0000
0001
0000
0000
0000
,  // measure 41
1000
0000
0000
1000
0000
0000
1001
0000
0000
0001
0000
0000
0010
0000
0000
0000
,  // measure 42
1001
1010
1100
0101
,  // measure 43
0020
1000
0000
0100
0000
1030
0000
1000
,  // measure 44
0002
0010
0000
0100
0000
1003
0000
1000
,  // measure 45
0002
0010
0000
1003
0020
1000
0000
0130
,  // measure 46
0002
1000
0000
0010
0000
0100
0000
0103
,  // measure 47
0020
1000
0000
0100
0000
0130
0000
1000
,  // measure 48
0002
0010
0000
0010
0000
0103
0000
1000
,  // measure 49
0020
0100
0030
0001
0200
0010
0300
0001
,  // measure 50
2000
0100
0000
0010
0000
3001
0000
0100
,  // measure 51
0020
1000
0000
0100
0000
1000
0030
1000
,  // measure 52
0002
0010
0000
0100
0000
1003
0000
1000
,  // measure 53
0010
0100
0001
0100
0010
1000
0010
0100
,  // measure 54
0010
0010
0010
0010
0110
0000
0000
0000
,  // measure 55
1000
0000
0000
0100
0000
0000
0001
0000
0000
0000
0010
0000
0001
0000
0100
0000
,  // measure 56
0010
0000
0000
0010
0000
0000
0001
0000
1000
0000
0000
1000
0000
0000
0010
0000
,  // measure 57
0100
0000
0000
0100
0000
0000
0001
0000
1000
0000
0000
1000
0000
0000
0010
0000
,  // measure 58
0001
0000
0000
0100
0000
0000
1000
0000
0001
0000
0000
0010
0000
0000
1000
0000
,  // measure 59
0001
0000
0000
0010
0000
0000
1000
0000
0000
0000
0001
0000
0010
0000
0100
0000
,  // measure 60
1000
0000
0000
0010
0000
0000
0001
0000
1000
0000
0000
0100
0000
0000
0001
0000
,  // measure 61
1000
0000
0000
0010
0000
0000
0001
0000
0100
0000
0000
0010
0000
0000
1000
0000
,  // measure 62
0100
0000
0000
0010
0000
0000
0001
0000
2000
0000
0000
0000
3010
0000
0000
0000
,  // measure 63
0100
0010
0001
1000
0100
0010
0001
0010
,  // measure 64
0100
1000
0001
0010
0100
0010
0001
0000
,  // measure 65
1000
0100
0001
0000
0001
0010
1000
0000
,  // measure 66
1000
0100
0001
0010
0100
1000
0010
0000
,  // measure 67
0001
0010
0100
0010
0001
1000
0100
0010
,  // measure 68
0100
1000
0001
0100
1000
0100
0001
1000
,  // measure 69
0001
0100
0001
0100
0010
1000
0100
0010
,  // measure 70
0001
0100
0010
0100
2002
0000
3003
0000
,  // measure 71
0000
0000
0001
0000
0000
1000
0000
0000
0110
0000
0000
0110
0000
0000
0000
0000
,  // measure 72
0000
0000
0010
0000
0000
0001
0000
0000
1001
0000
0000
1001
0000
0000
0000
0000
,  // measure 73
0000
0000
0010
0000
0000
0001
0000
0000
0110
0000
0000
1001
0000
0000
0000
0000
,  // measure 74
0000
0000
0010
0000
0000
0001
0000
0000
1000
0000
0000
0110
0000
0000
0000
0000
,  // measure 75
0001
0010
0100
1000
0100
0010
0001
1000
,  // measure 76
0001
0000
0000
1001
0000
0000
1001
0000
0000
0110
0000
0000
0110
0000
0000
0000
,  // measure 77
0010
0001
0100
0000
0010
1000
0100
0000
,  // measure 78
0010
0001
0100
0000
0001
0010
0100
0000
,  // measure 79
1000
0100
0010
0001
1000
0100
0010
0001
,  // measure 80
0100
0100
0100
0100
0110
0000
0000
0000
;
