#TITLE:BELGRADE;
#SUBTITLE:;
#ARTIST:BATTLE TAPES;
#TITLETRANSLIT:;
#SUBTITLETRANSLIT:;
#ARTISTTRANSLIT:;
#GENRE:;
#CREDIT:;
#BANNER:BELGRADE.png;
#BACKGROUND:BELGRADE-bg.png;
#LYRICSPATH:;
#CDTITLE:;
#MUSIC:BELGRADE.ogg;
#OFFSET:1.853001;
#SAMPLESTART:47.911701;
#SAMPLELENGTH:14.769230;
#LASTBEATHINT:1.848168;
#SELECTABLE:YES;
#DISPLAYBPM:130.000000;
#BPMS:0.000000=130.000000
,107.000000=170.000000
,107.750000=130.000000
;
#STOPS:
;
#BGCHANGES:4.000=BELGRADE.avi=1.000=0=0=0=StretchNoLoop====,
99999=-nosongbg-=1.000=0=0=0 // don't automatically add -songbackground-
;
#KEYSOUNDS:;
#ATTACKS:;

//---------------dance-single - ----------------
#NOTES:
     dance-single:
     :
     Hard:
     11:
     0.484631,0.566152,0.157264,0.101099,0.022466,302.000000,288.000000,14.000000,9.000000,0.000000,0.000000,0.484631,0.566152,0.157264,0.101099,0.022466,302.000000,288.000000,14.000000,9.000000,0.000000,0.000000:
// measure 0
0000
0000
0000
0000
,  // measure 1
0000
0000
0000
0000
,  // measure 2
0000
0000
0000
0000
,  // measure 3
0000
0000
0000
0000
,  // measure 4
0000
0000
0000
0000
,  // measure 5
0010
1000
0010
1000
0001
0100
0010
1000
,  // measure 6
0001
0100
0001
0100
0010
0100
0010
1000
,  // measure 7
0001
0010
0001
0010
0001
1000
0100
0010
,  // measure 8
0001
1000
0001
1000
0010
0100
0001
1000
,  // measure 9
0010
1000
0001
0002
0000
1003
0001
2000
,  // measure 10
0000
3010
0100
0001
1000
0010
0100
0000
,  // measure 11
1000
0010
1000
0001
1000
0100
0010
0001
,  // measure 12
0100
0010
0100
0010
1000
0001
0000
0010
,  // measure 13
0001
0010
0000
1000
0010
1000
0000
0100
,  // measure 14
1000
0100
0000
0001
0100
0001
0100
0000
,  // measure 15
0010
1000
0010
1000
0001
0010
0100
1000
,  // measure 16
0001
0010
0001
1000
0100
0010
0100
1000
,  // measure 17
0001
0100
0010
0020
0000
1030
0010
0200
,  // measure 18
0000
0301
1000
0010
1000
0100
0010
0000
,  // measure 19
0001
1000
0010
1000
0001
0100
1000
0100
,  // measure 20
0001
0010
0100
0010
0001
2000
0000
3010
,  // measure 21
0100
0001
0000
0001
0100
0010
0000
1000
,  // measure 22
0100
0010
0000
0010
0100
1000
0001
0100
,  // measure 23
0000
0010
1000
0100
1000
0010
0100
0002
,  // measure 24
0000
0013
0001
0100
0010
0010
1010
0000
,  // measure 25
0000
0001
0100
1000
0000
0001
0010
1000
,  // measure 26
0000
0001
0010
0100
0000
1000
1001
0000
,  // measure 27
0001
1000
0010
1000
0001
0100
0010
0100
,  // measure 28
0001
1000
0100
0000
0001
0100
0010
0100
,  // measure 29
0010
0010
1000
0000
0001
0010
0100
1000
,  // measure 30
0000
0001
0101
0000
1000
0100
0001
0100
,  // measure 31
1000
0000
0011
0000
0010
0000
0001
1000
,  // measure 32
0001
1000
0100
0000
0010
0001
0010
0001
,  // measure 33
1000
0000
0101
0000
1000
0010
0100
0001
,  // measure 34
0100
0000
0110
0000
1000
0001
0100
0001
,  // measure 35
1000
0100
0010
0002
0000
0103
0010
0200
,  // measure 36
0000
0301
0000
0001
0010
0100
0010
0001
,  // measure 37
1000
0000
0101
0000
1000
0010
0000
1001
,  // measure 38
0000
1000
0100
0010
0100
0010
0001
1000
,  // measure 39
0001
0000
1010
0000
1100
0000
0001
0100
,  // measure 40
0000
0100
0010
0000
1000
0001
1000
0100
,  // measure 41
0010
0000
0101
0000
1010
0000
0001
0010
,  // measure 42
0100
0000
1010
0000
0101
0000
1000
0010
,  // measure 43
1000
0100
1000
0100
0010
0001
0010
0001
,  // measure 44
0100
0010
0100
0010
1000
0001
1000
0001
,  // measure 45
1000
0001
0010
0100
1000
0100
0010
0001
,  // measure 46
0100
0000
0100
0000
0010
0000
0010
0000
0100
0010
0100
0010
0100
0010
0100
0010
,  // measure 47
0200
0000
0000
0000
,  // measure 48
0300
0000
0000
0000
;

//---------------dance-single - ----------------
#NOTES:
     dance-single:
     :
     Medium:
     8:
     0.362671,0.404394,0.426861,0.022466,0.000000,226.000000,188.000000,38.000000,2.000000,0.000000,0.000000,0.362671,0.404394,0.426861,0.022466,0.000000,226.000000,188.000000,38.000000,2.000000,0.000000,0.000000:
0000
0000
0000
0000
,
0000
0000
0000
0000
,
0000
0000
0000
0000
,
0000
0000
0000
0000
,
0000
0000
0000
0000
,
0100
0010
1000
1001
,
0010
0100
0001
1001
,
1000
0100
0010
0101
,
0001
0010
0100
1010
,
0001
0000
0010
0000
0001
0010
0001
0000
,
1000
0000
0100
0000
1000
0100
1000
0000
,
0010
0000
0100
0000
0001
1000
0001
0000
,
0100
0000
0010
0000
1000
0001
1000
0000
,
0001
0010
0100
1000
,
0001
0010
0100
1000
,
0010
1001
0100
1001
,
0100
0010
1000
0101
,
0010
1010
0001
0101
,
0001
0010
0100
1000
,
0010
0011
1000
1100
,
1000
0000
0100
0000
0001
1000
0001
0000
,
1000
0100
0010
0001
,
1000
0100
0010
0001
,
0100
0101
0010
1010
,
0010
0110
1000
1001
,
0010
0001
0010
0000
0100
1000
0100
0000
,
0010
0100
1001
0000
,
0001
0000
0110
0000
1000
0010
1000
0000
,
0001
1001
0100
0110
,
1010
0000
0101
0000
1001
0000
0010
0100
,
0010
0000
1000
0000
1001
0000
0010
0100
,
0010
1000
0110
0001
,
0010
0001
0110
1000
,
0001
1001
0110
0001
,
1000
1001
0110
1000
,
0001
0100
0001
0100
0000
0010
1000
0010
,
0000
0100
0000
0000
0001
0000
0100
0000
,
1000
0010
1000
0100
,
1001
0110
1001
0010
,
0001
1000
0010
0100
,
1001
0110
1001
0010
,
0001
0000
0100
0000
1000
0000
0001
0010
,
0001
1000
0100
0010
,
0001
0100
0001
0000
1000
0000
1001
0000
,
1000
0010
1000
0000
0001
0000
1001
0000
,
0010
0100
0010
0000
0100
0010
0100
0000
,
0001
0100
0001
0100
0010
1000
0010
0000
,
2002
0000
0000
0000
,
3003
0000
0000
0000
;

//---------------dance-single - ----------------
#NOTES:
     dance-single:
     :
     Easy:
     4:
     0.192569,0.215677,0.022466,0.022466,0.000000,120.000000,118.000000,2.000000,2.000000,0.000000,0.000000,0.192569,0.215677,0.022466,0.022466,0.000000,120.000000,118.000000,2.000000,2.000000,0.000000,0.000000:
0000
0000
0000
0000
,
0000
0000
0000
0000
,
0000
0000
0000
0000
,
0000
0000
0000
0000
,
0000
0000
0000
0000
,
0010
0010
0010
0000
,
0100
0100
0100
0000
,
0001
0001
0001
0000
,
1000
1000
1000
0000
,
0000
0001
1000
0001
,
0000
1000
0001
1000
,
0000
0001
0100
0001
,
0000
1000
0100
1000
,
0001
0001
0001
0000
,
1000
1000
1000
0000
,
0001
0010
0100
0000
,
1000
0100
0010
0000
,
0000
0010
1000
0010
,
0000
0100
0001
0100
,
0000
0001
0010
0001
,
0000
1000
0100
1000
,
0001
0001
1000
0000
,
1000
1000
0001
0000
,
0010
0000
0001
0000
,
0100
0000
1000
0000
,
0001
0000
0100
0000
,
1001
0000
0000
0000
,
0010
0000
0100
0000
,
0001
1000
0001
0000
,
0100
0100
0100
0000
,
0010
0010
0010
0000
,
1000
0001
1000
0000
,
0001
1000
0100
0000
,
1000
0001
0100
0000
,
0010
0010
0010
0000
,
0001
0000
0100
0000
,
1000
0001
1000
0000
,
0010
0010
0010
0000
,
0001
1000
0001
0000
,
1000
0100
1000
0000
,
0001
0100
0001
0000
,
0010
0001
0100
0000
,
0010
1000
0100
0000
,
0010
0000
0001
0000
,
0100
0000
1000
0000
,
0010
0000
0100
0000
,
0001
1000
0001
1000
,
2002
0000
0000
0000
,
3003
0000
0000
0000
;

//---------------dance-single - ----------------
#NOTES:
     dance-single:
     :
     Beginner:
     1:
     0.094680,0.161758,0.011233,0.112332,0.000000,59.000000,58.000000,1.000000,10.000000,0.000000,0.000000,0.094680,0.161758,0.011233,0.112332,0.000000,59.000000,58.000000,1.000000,10.000000,0.000000,0.000000:
0000
0000
0000
0000
,
0000
0000
0000
0000
,
0000
0000
0000
0000
,
0000
0000
0000
0000
,
0000
0000
0000
0000
,
0010
0000
0000
0000
,
0100
0000
0000
0000
,
0001
0000
0000
0000
,
1000
0000
0000
0000
,
0000
0001
0000
0001
,
0000
1000
0000
1000
,
0000
0001
0000
0001
,
0000
1000
0000
0000
,
1000
0000
0000
0000
,
0001
0000
0000
0000
,
0100
0000
0000
0000
,
0010
0000
0000
0000
,
0000
0010
0000
0010
,
0000
0100
0000
0100
,
0000
0010
0000
0010
,
0000
0100
0000
0000
,
0001
0000
0000
0000
,
1000
0000
0000
0000
,
0010
0000
0000
0000
,
0100
0000
0000
0000
,
0100
0000
0100
0000
,
0100
0000
0000
0000
,
0000
0100
0000
0100
,
0000
0100
0000
0000
,
0020
0000
0030
0000
,
0200
0000
0300
0000
,
0002
0000
0003
0000
,
2000
0000
3000
0000
,
0001
0000
0001
0000
,
1000
0000
1000
0000
,
0000
0100
0000
0100
,
0000
0000
1000
0000
,
2000
0000
3000
0000
,
0002
0000
0003
0000
,
0020
0000
0030
0000
,
0200
0000
0300
0000
,
0010
0000
0010
0000
,
0100
0000
0100
0000
,
0010
0000
0000
0000
,
0100
0000
0000
0000
,
0001
0000
0000
0000
,
1000
1000
1000
0000
,
2002
0000
0000
0000
,
3003
0000
0000
0000
;
