#TITLE:ALICE;
#SUBTITLE:;
#ARTIST:seibin 「DJMAX」より;
#TITLETRANSLIT:;
#SUBTITLETRANSLIT:;
#ARTISTTRANSLIT:seibin from "DJMAX";
#GENRE:;
#CREDIT:;
#BANNER:ALICE.png;
#BACKGROUND:ALICE.png;
#LYRICSPATH:;
#CDTITLE:;
#MUSIC:ALICE.ogg;
#OFFSET:0.211000;
#SAMPLESTART:54.472691;
#SAMPLELENGTH:14.896549;
#SELECTABLE:YES;
#DISPLAYBPM:145.000000;
#BPMS:0.000000=145.000000
;
#STOPS:
;
#BGCHANGES:0.500=ALICE.avi=1.000=0=0=0=StretchNoLoop====,
99999=-nosongbg-=1.000=0=0=0 // don't automatically add -songbackground-
;
#KEYSOUNDS:;
#ATTACKS:;

//---------------dance-single - ----------------
#NOTES:
     dance-single:
     :
     Hard:
     12:
     0.561546,0.692915,0.631227,0.537978,0.340719,548.000000,460.000000,88.000000,75.000000,0.000000,0.000000,0.561546,0.692915,0.631227,0.537978,0.340719,548.000000,460.000000,88.000000,75.000000,0.000000,0.000000:
0000
0000
0000
0000
,
0000
0000
0000
0000
,
0000
0000
0000
0000
,
0000
0000
0000
0000
,
0000
0000
0000
0000
,
0020
0000
0000
0000
0031
0000
1000
0001
2000
0000
0000
0000
3010
0000
0000
0000
,
1000
0000
0000
1010
0000
0000
0001
0000
1001
0000
0000
0000
1100
0000
0000
0000
,
0020
0000
0000
0000
0130
0000
0001
0100
0002
0000
0000
0000
1003
0000
1001
0000
,
0000
1100
0000
0011
0011
0000
1010
0000
,
0002
0000
0000
0000
1003
0000
0010
0000
1000
0000
0000
0100
0000
0000
0010
0000
,
0001
0000
0000
0100
0000
0000
0010
0000
0000
0000
1000
0000
0001
0000
0010
0000
,
0100
0000
0000
0001
0000
0000
1000
0000
0100
0000
0000
0000
1000
0000
0001
0000
,
0010
0000
0000
0100
0000
0000
1000
0000
0000
0000
0001
0000
1000
0000
0010
0000
,
0200
0000
0000
0000
0310
0000
1000
0000
0010
0000
0000
0001
0000
0000
1000
0000
,
0100
0000
0000
0001
0000
0000
0010
0000
0000
0000
0001
0000
0100
0000
0010
0000
,
1000
0000
0000
1001
0000
0000
0001
0000
0100
0000
0000
0000
0010
0000
1000
0000
,
0100
0000
0000
0110
0000
0000
0100
0000
0001
0000
0010
0000
0100
0000
1000
0000
,
0010
0000
0000
0000
1000
0000
0001
0000
0100
0000
0000
0100
0010
0000
1000
0000
,
0001
0000
0000
0001
0010
0000
0001
0000
1000
0000
0100
0000
0010
0000
0001
0000
,
0100
0000
0000
0100
0001
0000
1000
0000
1001
0000
0000
0000
0100
0000
0001
0000
,
1001
0000
0000
0001
1000
0000
0020
0000
0000
0000
0130
0000
0110
0000
0000
0000
,
0110
0000
0000
0000
0000
0000
1000
0000
0010
0000
1000
0010
0000
0000
0100
0000
,
0001
0000
0100
0001
0000
0000
1000
0000
0010
0000
0000
0000
0100
0000
0001
0100
,
0001
0000
0000
1001
0000
0000
0001
0000
2000
0000
0000
0000
3020
0000
0000
0000
,
0130
0000
0000
0101
0000
0000
1100
0000
0000
0101
0000
0000
1000
0000
0001
0000
,
0200
0000
0000
0000
0310
0000
1000
0000
1000
0000
0000
0001
0000
0000
0010
0000
,
0100
0000
0000
0010
0000
0000
0001
0000
1000
0000
0000
0000
0110
0000
0001
0000
,
0001
0000
0000
1001
0000
0000
1000
0000
0100
0000
0000
0000
1001
0000
0000
0000
,
1000
0000
0000
1001
0000
0000
0001
0000
0010
0000
0000
0000
1100
0000
0000
0000
,
0001
0100
0100
0001
0100
0100
0001
1000
,
0010
0100
0100
0010
0100
0100
0001
1000
,
0100
0000
0010
0000
0001
0100
0001
0000
1000
0010
1000
0000
0010
0100
0010
0100
,
0010
0000
0000
1010
0000
0000
0101
0000
2002
0000
0000
0000
3003
0000
0000
0000
,
0011
0000
0000
0110
0000
0000
2100
0000
0000
0000
0010
0000
3010
0000
0000
0000
,
1010
0000
0000
0110
0000
0000
0100
0000
0002
0000
1000
0000
1003
0000
0000
0000
,
0101
0000
0000
1001
0000
0000
1000
0000
1010
0000
0000
0000
0110
0000
0000
0000
,
0012
0000
0000
0010
0000
0000
1003
0000
2020
0000
0000
0000
3030
0000
0000
0000
,
0110
0000
0000
0001
0000
0000
1000
0001
2000
0000
0000
0000
3010
0000
0000
0000
,
0110
0000
0000
1000
0000
0000
0001
1000
0002
0000
0000
0000
0103
0000
0000
0000
,
0020
0000
0000
0000
1030
0000
0001
0100
0002
0000
0000
0000
1003
0000
0000
0000
,
0022
0000
0000
0000
0033
0000
0100
0000
0220
0000
0000
0330
0110
0000
0000
0000
,
1100
0000
0000
0110
0000
0000
0012
0000
0000
0000
0100
0000
0103
0000
0000
0000
,
0101
0000
0000
0110
0000
0000
0010
0000
2000
0000
0001
0000
3001
0000
0000
0000
,
1001
0000
0000
1000
0001
0000
0000
0001
0100
0000
0000
0100
0010
0000
0000
0000
,
2100
0000
0000
0100
0000
0000
3001
0000
0202
0000
0000
0000
0303
0000
0000
0000
,
0110
0000
0000
1000
0000
0000
0001
1000
0002
0000
0000
0000
0103
0000
0010
1000
,
0020
0000
0000
0130
0000
0000
0001
0000
1001
0000
0000
0000
0010
0000
0000
0000
,
0001
0000
0100
0000
0010
0000
1000
0000
0001
0010
0001
0000
1000
0100
1000
0100
,
2000
0000
3000
0010
0110
0000
1001
0000
,
0002
0000
0000
1000
0000
0000
1000
0000
0000
0000
1003
0000
1001
0000
1000
0010
,
0200
0000
0000
0310
0000
0000
0110
0000
1001
0000
0000
0000
0002
0000
0000
0000
,
0203
0000
0000
0000
0010
0000
0000
0000
0301
0000
0000
1001
0000
0000
1000
0000
,
0020
0000
0000
0100
0000
0000
1030
0000
0002
0000
0000
0000
0203
0000
0000
0000
,
0320
0000
0000
0000
0100
0000
0000
0000
1030
0000
0000
0010
0000
0000
0100
0000
,
0002
0000
0000
0010
0000
0000
0013
0000
0001
0000
0000
0000
1010
0000
0000
0000
,
0200
0000
0000
0000
0301
0000
1000
0010
2000
0000
0000
0000
3020
0000
0000
0000
,
0130
0000
0000
0001
0000
0000
0010
0000
2000
0000
0000
0000
3002
0000
0000
0000
,
0203
0000
0000
0000
0310
0000
0000
0000
1000
0010
1000
0010
0100
0001
0100
0001
,
1000
0000
0000
1010
0000
0000
0011
0000
0110
0000
0000
0000
1001
0000
0000
0000
,
0020
0000
0000
0100
0000
0000
1030
0000
0010
0000
0100
0000
0001
0000
1000
0000
,
0002
0000
0000
0010
0000
0000
0103
0000
0001
0000
1000
0000
0100
0000
0010
0000
,
0002
0000
0000
0100
0000
0000
1003
0000
1001
0000
0000
0000
1100
0000
0000
0000
,
0012
0000
0000
0100
0000
0000
0103
0000
0110
0000
0000
0000
1001
0000
0000
0000
,
0010
0001
0000
0001
0010
0000
0001
0000
2000
0000
0000
0000
3010
0000
0100
0010
,
0100
0000
0000
1001
0000
0000
1000
0000
0001
0000
0000
0000
1010
0000
0000
0000
,
0102
0000
0000
0000
1003
0000
0010
1000
0020
0000
0000
0000
0130
0000
0001
0000
,
2000
0000
0000
3010
0000
0000
1010
0000
2002
0000
0000
0000
3003
0000
0000
0000
,
0011
0000
0000
1100
0000
0000
1001
0000
1000
0000
0100
0000
0010
0000
0001
0000
,
1001
0000
0000
0011
0000
0000
1010
0000
1000
0000
0001
0000
0100
0000
0010
0000
,
1010
0000
0000
1000
0001
0000
0000
0001
0010
0000
0000
0010
0100
0000
0000
0100
,
0020
0000
0000
0001
0000
0000
0031
0100
0002
0000
0000
0000
1003
0000
0000
0000
,
0010
0000
0000
1010
0000
0000
0001
0000
0100
0000
0010
0000
1000
0000
0001
0010
,
0001
0000
0000
1010
0000
0000
0100
0000
0010
0000
0001
0000
1000
0000
0100
0000
,
0010
0000
0100
0000
1000
0000
0001
0000
1000
0010
1000
0000
0001
0010
0001
0010
,
0002
0000
0003
0100
0110
0000
1001
0000
,
0002
0000
0000
0100
0000
0000
0203
0000
0000
0000
0310
0000
1000
0000
0001
0010
,
0001
0000
0000
0011
0000
0000
1000
0000
1100
0000
0000
0000
0110
0000
0000
0000
,
0002
0000
0000
0010
0000
0000
0020
0000
0000
0000
0000
0000
0033
0000
0000
0000
,
2000
0000
0000
0100
0000
0000
0200
0000
0000
0000
0000
0000
3300
0000
0000
0000
,
0002
0203
2300
3002
,
0023
0000
0000
2000
0000
0000
3030
0000
,
2002
0000
0000
0000
,
0000
0000
0000
0000
,
0000
0000
0000
0000
,
3003
0000
0000
0000
;

//---------------dance-single - ----------------
#NOTES:
     dance-single:
     :
     Beginner:
     1:
     0.094274,0.150634,0.035865,0.078903,0.000000,92.000000,87.000000,5.000000,11.000000,0.000000,0.000000,0.094274,0.150634,0.035865,0.078903,0.000000,92.000000,87.000000,5.000000,11.000000,0.000000,0.000000:
0000
0000
0000
0000
,
0000
0000
0000
0000
,
0000
0000
0000
0000
,
0000
0000
0000
0000
,
0000
0000
0000
0000
,
1000
0000
1000
0000
,
0001
0000
0001
0000
,
1000
0000
0001
0000
,
2000
0000
3000
0000
,
0001
0000
0000
0000
,
1000
0000
0000
0000
,
0001
0000
0000
0000
,
0001
0000
0000
0000
,
1000
0000
0000
0000
,
0001
0000
0000
0000
,
1000
0000
0000
0000
,
1000
0000
1000
0000
,
0001
0000
0000
0000
,
1000
0000
0000
0000
,
0100
0000
0000
0000
,
1000
0000
0000
0000
,
0001
0000
0000
0000
,
0010
0000
0000
0000
,
0010
0000
0010
0000
,
0010
0000
0000
0000
,
0200
0000
0300
0000
,
0020
0000
0030
0000
,
2000
0000
3000
0000
,
0002
0000
0003
0000
,
1000
0000
0001
0000
,
1000
0000
0001
0000
,
2000
0000
3000
0000
,
0002
0000
0003
0000
,
1000
0000
0000
0000
,
0001
0000
0000
0000
,
1000
0000
1000
0000
,
1000
0000
0000
0000
,
0001
0000
0000
0000
,
1000
0000
0000
0000
,
0001
0000
0001
0000
,
0001
0000
0000
0000
,
0100
0000
0000
0000
,
0010
0000
0000
0000
,
0100
0000
0100
0000
,
0100
0000
0000
0000
,
0010
0000
0000
0000
,
0100
0000
0000
0000
,
0010
0000
0000
0000
,
0000
0000
1000
0000
,
1000
0000
0000
0000
,
1001
0000
0000
0000
,
0100
0000
0000
0000
,
0010
0000
0000
0000
,
1000
0000
0000
0000
,
0001
0000
0000
0000
,
1000
0000
0000
0000
,
0010
0000
0000
0000
,
0100
0000
0000
0000
,
1001
0000
0000
0000
,
1000
0000
0000
0000
,
0001
0000
0000
0000
,
1000
0000
0000
0000
,
1000
0000
0000
0000
,
0001
0000
0000
0000
,
1000
0000
0000
0000
,
0001
0000
0000
0000
,
0001
0000
0000
0000
,
1001
0000
0000
0000
,
1001
0000
0000
0000
,
0100
0000
0100
0000
,
0100
0000
0000
0000
,
0010
0000
0000
0000
,
0010
0000
0000
0000
,
2000
0000
0000
0000
,
3000
0000
0000
0000
,
0002
0000
0000
0000
,
0003
0000
0000
0000
,
0100
0000
0000
0000
,
0010
0000
0000
0000
,
1000
0000
1000
0000
,
1000
0000
0000
0000
,
2002
0000
0000
0000
,
0000
0000
0000
0000
,
0000
0000
0000
0000
,
3003
0000
0000
0000
;

//---------------dance-single - ----------------
#NOTES:
     dance-single:
     :
     Easy:
     4:
     0.177276,0.241014,0.078903,0.258229,0.000000,173.000000,162.000000,11.000000,36.000000,0.000000,0.000000,0.177276,0.241014,0.078903,0.258229,0.000000,173.000000,162.000000,11.000000,36.000000,0.000000,0.000000:
0000
0000
0000
0000
,
0000
0000
0000
0000
,
0000
0000
0000
0000
,
0000
0000
0000
0000
,
0000
0000
0000
0000
,
0010
0001
0100
0000
,
0010
1000
0100
0000
,
0010
0000
0100
0000
,
2002
0000
3003
0000
,
0001
0000
0000
0000
,
1000
0000
0000
0000
,
0010
0000
0000
0000
,
0100
0000
0000
0000
,
1000
0000
0000
0000
,
0001
0000
0000
0000
,
0100
0000
0000
0000
,
0010
0000
0000
0000
,
1000
0000
1000
0000
,
0001
0000
0001
0000
,
1000
0001
1000
0000
,
0001
1000
0001
0000
,
0100
0000
0100
0000
,
0010
0000
0010
0000
,
0100
0010
0100
0000
,
0010
0100
0010
0000
,
2000
0000
3000
0000
,
0002
0000
0003
0000
,
0200
0000
0300
0000
,
0020
0000
0030
0000
,
1000
0000
0100
0000
,
0001
0000
0010
0000
,
2000
0000
0000
0000
,
0002
0000
3003
0000
,
0010
0010
0010
0000
,
0100
0100
0100
0000
,
0010
0100
0010
0100
,
0010
0000
1001
0000
,
1000
0001
0001
0000
,
0001
1000
1000
0000
,
0002
0003
0200
0300
,
2000
3000
0200
0300
,
1000
1000
1000
0000
,
0001
0001
0001
0000
,
1000
0001
1000
0001
,
1000
0000
1001
0000
,
0002
0000
1003
0000
,
2000
0000
3001
0000
,
0220
0000
0330
0000
,
2000
0000
3002
0000
,
0203
0000
0000
0000
,
0310
0010
0010
0000
,
2000
0000
3001
0100
,
0002
0000
1003
0100
,
1000
0100
0010
0001
,
0200
0000
0310
0000
,
0010
0001
1000
0000
,
0010
1000
0001
0000
,
0100
0000
0001
0000
,
0010
0010
0010
0000
,
0100
1000
0010
0000
,
0100
0001
0010
0000
,
0100
0010
0100
0010
,
0100
0000
1001
0000
,
0002
0000
1003
0000
,
2000
0000
3001
0000
,
0010
0000
1001
0000
,
0100
0000
1001
0000
,
0010
0100
0010
0000
,
0100
0010
0100
0000
,
0001
0100
0001
0100
,
0002
0000
2003
0000
,
3100
0000
1001
0000
,
0010
0000
1001
0000
,
0020
0000
0000
0030
,
0000
0100
0010
0100
,
0020
0000
0000
0030
,
2002
0000
3003
0000
,
0002
0000
0003
0000
,
2000
0000
3000
0000
,
0020
0000
0030
0000
,
0200
0000
0300
0000
,
2002
0000
0000
0000
,
0000
0000
0000
0000
,
0000
0000
0000
0000
,
3003
0000
0000
0000
;

//---------------dance-single - ----------------
#NOTES:
     dance-single:
     :
     Medium:
     7:
     0.294094,0.421774,0.279748,0.430382,0.086076,287.000000,248.000000,39.000000,60.000000,0.000000,0.000000,0.294094,0.421774,0.279748,0.430382,0.086076,287.000000,248.000000,39.000000,60.000000,0.000000,0.000000:
// measure 0
0000
0000
0000
0000
,  // measure 1
0000
0000
0000
0000
,  // measure 2
0000
0000
0000
0000
,  // measure 3
0000
0000
0000
0000
,  // measure 4
0000
0000
0000
0000
,  // measure 5
0020
0030
2002
3003
,  // measure 6
0001
0000
0000
1000
0000
0000
0001
0000
0001
0000
0000
0000
0000
0000
0000
0000
,  // measure 7
0020
0000
0030
0000
2002
0000
3003
0001
,  // measure 8
0000
1000
0000
0001
0001
0000
1001
0000
,  // measure 9
0010
0000
0000
0010
0000
0000
0001
0000
,  // measure 10
0100
0000
0000
0100
0000
0000
1000
0000
,  // measure 11
0010
0000
0000
0010
0000
0000
1001
0000
,  // measure 12
0100
0000
0000
0100
0000
0000
1001
0000
,  // measure 13
0010
0000
0000
0100
0000
0000
0010
0000
,  // measure 14
1000
0000
0000
0001
0000
0000
1000
0000
,  // measure 15
0100
0000
0000
0010
0000
0000
0100
0000
,  // measure 16
0001
0000
1001
0000
,  // measure 17
1000
0100
0010
0001
,  // measure 18
0100
0000
0010
0000
0100
0000
0001
1000
,  // measure 19
0001
0010
0100
1000
,  // measure 20
0010
0000
0100
0000
0010
0000
1000
0100
,  // measure 21
1000
0101
1000
0010
,  // measure 22
0100
1001
0100
0010
,  // measure 23
2000
3000
0002
0003
,  // measure 24
0100
0000
0000
0100
0000
0000
0100
0000
0000
0100
0000
0000
0100
0000
0000
0000
,  // measure 25
0200
0300
1000
0001
,  // measure 26
0100
0000
0001
1000
,  // measure 27
0001
1000
0010
0100
,  // measure 28
2002
3003
0010
0000
,  // measure 29
0001
0000
0000
0001
0000
0000
0001
0000
,  // measure 30
1000
0000
0000
1000
0000
0000
1000
0000
,  // measure 31
0001
0100
0010
1000
,  // measure 32
0010
0000
0000
0010
0000
0000
1000
0000
0001
0000
0000
0000
0000
0000
0000
0000
,  // measure 33
0010
0000
0000
0010
0000
0000
0100
0000
0000
0000
0000
0000
0010
0000
0000
0000
,  // measure 34
0100
0000
0000
0100
0000
0000
0010
0000
0000
0000
0000
0000
0100
0000
0000
0000
,  // measure 35
0001
0000
0000
0001
0000
0000
0000
0000
1000
0000
0000
0000
0100
0000
0000
0000
,  // measure 36
0002
0000
2003
3000
,  // measure 37
0110
1001
2000
3000
,  // measure 38
0110
1001
0002
0003
,  // measure 39
0020
0030
0110
1001
,  // measure 40
0200
0300
0110
1001
,  // measure 41
0010
0000
0000
0100
0000
0000
0100
0000
0000
0000
0000
0000
0010
0000
0000
0000
,  // measure 42
0100
0000
0000
0010
0000
0000
0010
0000
0000
0000
0000
0000
0100
0000
0000
0000
,  // measure 43
0001
0010
0100
1000
,  // measure 44
2200
3300
0202
0303
,  // measure 45
0010
0000
0000
0010
0000
0000
0000
0000
0002
0000
0000
0000
0003
0000
0000
0000
,  // measure 46
0100
0000
0000
0100
0000
0000
0000
0000
1000
0000
0000
0000
0010
0000
0000
0000
,  // measure 47
0002
0000
0000
0003
,  // measure 48
1000
0001
0100
1001
,  // measure 49
0002
0000
0000
0003
,  // measure 50
0010
0000
0000
0010
0000
0000
0001
0000
1000
0000
0000
0000
0000
0000
0000
0000
,  // measure 51
0200
0000
0000
0000
0000
0000
0000
0000
0301
0000
0000
0001
0000
0000
0000
0000
,  // measure 52
0100
0000
0000
0100
0000
0000
0000
0000
1001
0000
0000
0000
0000
0000
0000
0000
,  // measure 53
0020
0000
0000
0000
0000
0000
0000
0000
1030
0000
0000
1000
0000
0000
0000
0000
,  // measure 54
0010
0000
0000
0010
0000
0000
0000
0000
1001
0000
0000
0000
0000
0000
0000
0000
,  // measure 55
0200
0300
2000
3000
,  // measure 56
0020
0030
0002
0003
,  // measure 57
0200
0300
0010
0100
,  // measure 58
0010
0000
0000
0010
0000
0000
0001
0000
0100
0000
0000
0000
0000
0000
0000
0000
,  // measure 59
0010
0000
0000
0100
0000
0000
1000
0000
0000
0000
0000
0000
0001
0000
0000
0000
,  // measure 60
1000
0000
0000
0010
0000
0000
0100
0000
0000
0000
0000
0000
1000
0000
0000
0000
,  // measure 61
0002
1003
1001
1100
,  // measure 62
0022
0033
0110
0000
,  // measure 63
0010
0000
0000
0001
0000
0000
0001
0000
0001
0000
0000
0000
0000
0000
0000
0000
,  // measure 64
0100
0000
0000
1000
0000
0000
1000
0000
1000
0000
0000
0000
0010
0000
0000
0000
,  // measure 65
2002
3003
0010
1001
,  // measure 66
0220
0330
2002
3003
,  // measure 67
1010
0101
2002
3003
,  // measure 68
0011
1010
2002
3003
,  // measure 69
1000
0100
0010
0001
,  // measure 70
0200
0300
0020
0030
,  // measure 71
0010
0000
0000
0010
0000
0000
0001
0000
1000
0000
0000
0000
0000
0000
0000
0000
,  // measure 72
0100
0000
0000
0100
0000
0000
1000
0000
0001
0000
0000
0000
0010
0000
0000
0000
,  // measure 73
2002
0000
0000
3003
,  // measure 74
0000
0001
0100
1000
,  // measure 75
0020
0000
0100
0000
0100
0000
0130
0010
,  // measure 76
0100
0000
0000
0100
0000
0000
0001
0000
1000
0000
0000
0000
1001
0000
0000
0000
,  // measure 77
0002
0000
0000
0020
0000
0000
0033
0000
,  // measure 78
2000
0000
0000
0200
0000
0000
3300
0000
,  // measure 79
0002
0203
2300
3000
,  // measure 80
0020
0000
0000
0200
0000
0000
0330
0000
,  // measure 81
2002
0000
0000
0000
,  // measure 82
0000
0000
0000
0000
,  // measure 83
0000
0000
0000
0000
,  // measure 84
3003
0000
0000
0000
;
