#TITLE:Tears Infection(From EXIT TUNES);
#SUBTITLE:~for Z-I-v StepMania Tournament 2012~;
#ARTIST:Ryu☆;
#TITLETRANSLIT:;
#SUBTITLETRANSLIT:;
#ARTISTTRANSLIT:;
#CREDIT:;
#BANNER:Tears Infection (From EXIT TUNES) ~for Z-I-v StepMania Tournament 2012~.png;
#BACKGROUND:Tears Infection (From EXIT TUNES) ~for Z-I-v StepMania Tournament 2012~-bg.png;
#LYRICSPATH:;
#CDTITLE:;
#MUSIC:Tears Infection (From EXIT TUNES) ~for Z-I-v StepMania Tournament 2012~.ogg;
#OFFSET:1.200;
#SAMPLESTART:0.030;
#SAMPLELENGTH:12.000;
#SELECTABLE:YES;
#BPMS:0.000=400.000,300.000=800.000,310.500=400.000,376.500=200.000,380.500=400.000;
#STOPS:40.000=0.075
,40.500=0.225
,41.000=0.075
,41.500=0.075
,42.000=0.225
,42.500=0.075
,43.000=0.075
,43.500=0.225
,44.000=0.075
,44.500=0.075
,45.000=0.075
,45.500=0.075
,46.000=0.075
,166.500=0.225
,167.000=0.150
,300.000=0.375
,301.000=0.375
,302.000=0.375
,303.000=0.225
,306.000=0.225
,307.000=0.225
,308.000=0.225
,309.000=0.263
,309.500=0.112
,310.000=0.112
,556.500=0.075
,557.000=0.225
,557.500=0.075
,558.000=0.075
,558.500=0.225
,559.000=0.075
,559.500=0.075
,560.000=0.225
,560.500=0.075
,561.000=0.075
,561.500=0.075
,562.000=0.075
,562.500=0.075
;
#BGCHANGES:;

//---------------dance-single - ----------------
#NOTES:
     dance-single:
     :
     Challenge:
     19:
     1.000,1.000,1.000,0.551,0.000: // measure 1
0000
0000
0000
0000
,  // measure 2
0000
0000
0000
0000
,  // measure 3
1001
0000
0010
0000
0100
0000
0020
0001
,  // measure 4
0130
1000
0010
0100
,  // measure 5
2000
0001
3100
0000
0010
0000
0001
0000
,  // measure 6
0100
0000
2000
0100
3010
0000
0001
0100
,  // measure 7
0101
0000
0001
0000
0100
0000
2000
0001
,  // measure 8
3100
0010
0001
0100
,  // measure 9
0110
1000
0100
0010
,  // measure 10
0101
0000
0200
0010
0301
0000
0100
0000
,  // measure 11
1100
1100
0011
0011
0011
0110
0110
0110
,  // measure 12
1001
1001
1001
1001
1001
1001
0000
0100
,  // measure 13
0000
0010
0000
1000
0000
0100
0000
0020
,  // measure 14
1000
0031
0000
2000
0001
3100
0000
0010
,  // measure 15
0000
0001
0000
0100
0000
1000
0000
0002
,  // measure 16
0100
1003
0000
0002
0010
1003
0000
0100
,  // measure 17
0000
0010
0000
0001
0000
0100
0000
1000
,  // measure 18
0000
0100
0000
0010
0000
0001
0000
0100
,  // measure 19
0010
1010
0000
0100
0010
1010
0000
0001
,  // measure 20
0100
0101
0000
0100
0010
0110
0000
1000
,  // measure 21
0000
0100
0000
0010
0000
0001
0000
0100
,  // measure 22
0000
1000
0000
0100
0000
0010
0000
0001
,  // measure 23
0000
0100
0000
1000
0000
0100
0000
0010
,  // measure 24
0000
0001
0000
0100
0001
0011
0000
0001
,  // measure 25
0100
0101
0000
1000
0010
0101
0000
0010
,  // measure 26
0100
1010
0000
0000
0000
0100
0000
1000
,  // measure 27
0000
0100
0000
0010
0000
0001
0000
0100
,  // measure 28
0000
0010
0000
1000
0001
0110
0000
1000
,  // measure 29
0000
0100
0000
0010
0000
0001
0000
0200
,  // measure 30
0010
1300
0000
0200
1000
0310
0000
0001
,  // measure 31
0000
0100
0000
1000
0000
0100
0000
0020
,  // measure 32
1000
0031
0000
0200
1000
0301
0000
1000
,  // measure 33
0000
0100
0000
0010
0000
0001
0000
0200
,  // measure 34
0001
1300
0000
0200
0001
0310
0000
0001
,  // measure 35
0000
0100
0000
0100
0000
0100
0000
0010
,  // measure 36
0100
0110
0000
0000
0000
2000
0000
0100
,  // measure 37
0000
3010
0000
0002
0000
0100
0000
2003
,  // measure 38
0010
3100
0000
0020
1000
0031
0000
0001
,  // measure 39
0000
0100
0000
1000
0000
0100
0000
0020
,  // measure 40
1000
0031
0000
0200
0010
1300
0000
0100
,  // measure 41
0000
0010
0000
0010
0000
0100
0010
0100
,  // measure 42
0000
0010
0100
0010
0000
0101
0101
0000
,  // measure 43
0110
0110
0000
0000
,  // measure 44
0110
1000
0100
0010
,  // measure 45
0001
0000
0200
0010
1300
0000
0200
0001
,  // measure 46
0310
0010
0100
1000
,  // measure 47
0100
0000
0020
1000
0031
0000
0200
0001
,  // measure 48
1300
0100
0010
0001
,  // measure 49
0100
0000
0200
0010
0301
0000
0002
0010
,  // measure 50
0103
1000
1000
0100
,  // measure 51
0010
0000
0002
0010
0103
0000
2000
0001
,  // measure 52
3100
0010
0010
1000
,  // measure 53
0100
0000
0010
0000
0001
0000
0200
0001
,  // measure 54
1300
0000
2000
0001
3010
0000
0020
0001
,  // measure 55
1030
0000
0200
0001
1300
0000
0001
0000
,  // measure 56
1000
0100
0010
0001
,  // measure 57
1000
0100
0010
0001
,  // measure 58
1000
1000
0001
0001
,  // measure 59
0100
0000
0010
0000
0010
0000
0010
0100
,  // measure 60
0110
1000
0100
0010
,  // measure 61
0001
0000
0200
0001
1300
0000
0200
1000
,  // measure 62
0310
0010
0100
1000
,  // measure 63
0100
0000
0020
1000
0031
0000
0200
0010
,  // measure 64
1300
0100
0010
0010
,  // measure 65
0100
0000
0200
0001
1300
0000
0200
1000
,  // measure 66
0310
0001
0100
1000
,  // measure 67
0100
0000
0010
1000
0001
0000
0100
0010
,  // measure 68
0110
0000
1000
0100
1000
0000
0010
0100
,  // measure 69
0010
0000
0100
0010
1000
0000
0001
1000
,  // measure 70
0101
0000
1000
0100
1000
0000
0010
0001
,  // measure 71
0010
0000
0100
0010
1000
0000
0010
0001
,  // measure 72
1100
0000
0010
0100
1000
0000
0010
1000
,  // measure 73
0100
0000
0010
0001
1000
0000
0100
0001
,  // measure 74
0110
1000
0100
0010
,  // measure 75
0110
1000
0100
0010
,  // measure 76
0110
0110
0110
0110
,  // measure 77
1000
0000
0110
0101
,  // measure 78
0110
0000
0101
0110
0100
0110
0000
2002
,  // measure 79
0000
0000
0000
0000
,  // measure 80
0000
0000
0000
0000
0000
3003
0000
0000
,  // measure 81
0000
0110
0000
1000
0000
0100
0000
0010
,  // measure 82
0000
0001
0000
0100
0000
1000
0000
0100
,  // measure 83
0000
0010
0000
0001
0000
0100
0000
1000
,  // measure 84
0000
0100
0000
0010
0000
0001
0000
0100
,  // measure 85
0010
0102
0000
0000
0000
1003
0000
0100
,  // measure 86
0000
0010
0000
0001
0000
0100
0000
1000
,  // measure 87
0000
0100
0000
0010
0000
0001
0000
0100
,  // measure 88
0000
1000
0000
0100
0000
0010
0000
0100
,  // measure 89
0010
0101
0000
1000
0000
0100
0000
0010
,  // measure 90
0000
0001
0000
0100
0000
1000
0000
0100
,  // measure 91
0000
0010
0000
0001
0000
0100
0000
1000
,  // measure 92
0000
0100
0000
0010
0000
0001
0000
0100
,  // measure 93
0000
0001
0000
1000
0000
0100
0000
0010
,  // measure 94
0000
0001
0000
0100
0000
0100
0000
0100
,  // measure 95
0000
0110
0100
1100
0100
0011
0010
0101
,  // measure 96
1000
0101
0000
1000
0000
0100
0000
0010
,  // measure 97
0000
0001
0000
0100
0000
1000
0000
0100
,  // measure 98
0000
0010
0000
0001
0000
0100
0000
1000
,  // measure 99
0000
0100
0000
0001
0000
0100
0000
0010
,  // measure 100
0100
1002
0000
0000
0000
1003
0000
0100
,  // measure 101
0000
0010
0000
0001
0000
1000
0000
0100
,  // measure 102
0000
0010
0000
0001
0000
0100
0000
0100
,  // measure 103
0000
0010
0000
0010
0000
0100
0000
0100
,  // measure 104
0001
0101
0000
1000
0000
0100
0000
0010
,  // measure 105
0000
0001
0000
0100
0000
1000
0000
0100
,  // measure 106
0010
0110
0000
1000
0000
0100
0000
0010
,  // measure 107
0000
0100
0000
0100
0000
0100
0000
0100
,  // measure 108
0001
1001
0000
0001
0000
0110
0000
1000
,  // measure 109
0000
0110
0000
1000
0000
0100
0000
0010
,  // measure 110
0000
0110
0000
0100
0000
0110
0000
0100
,  // measure 111
0000
0101
0000
0100
0000
0101
0000
0100
,  // measure 112
0000
1100
0000
2000
0100
3010
0000
0002
,  // measure 113
0010
0103
0000
0100
0000
0010
0000
0100
,  // measure 114
0000
0001
0000
0200
0010
0301
0000
0020
,  // measure 115
0100
1030
0000
0100
0000
0101
0000
1000
,  // measure 116
0000
0100
0000
0020
1000
0031
0000
0200
,  // measure 117
0010
1300
0000
0100
0000
0010
0000
0100
,  // measure 118
0000
0110
0000
1000
0100
1000
0000
0010
,  // measure 119
0001
0010
0000
0100
0000
0010
0000
0100
,  // measure 120
0000
0110
0000
1000
0100
0001
0000
0010
,  // measure 121
0100
0001
0000
0001
0000
0100
0000
0100
,  // measure 122
0000
0110
0000
1000
0000
0100
0000
1100
,  // measure 123
0000
1100
0000
1100
0000
1100
0000
1100
,  // measure 124
0000
1100
0000
0100
0000
0010
0000
0100
,  // measure 125
0010
0100
0000
0100
0000
1000
0000
0100
,  // measure 126
0001
0010
0000
0001
0000
0100
0000
0010
,  // measure 127
0001
0100
0000
0010
1000
0100
0000
0100
,  // measure 128
0000
0110
0000
1000
0000
0100
0000
0010
,  // measure 129
1000
0001
0000
0100
0000
1000
0000
0100
,  // measure 130
0000
0010
1000
0001
0000
0100
0000
0010
,  // measure 131
0000
0100
0000
0010
1000
0001
0000
0100
,  // measure 132
0001
0110
0000
0100
0000
1000
0000
0100
,  // measure 133
1000
0010
0000
0001
0000
0100
0000
1000
,  // measure 134
0000
0100
0000
0010
0000
0001
0000
0100
,  // measure 135
0000
1000
0010
0100
0000
0010
0000
0001
,  // measure 136
0000
1100
0000
1000
0000
0100
0000
0010
,  // measure 137
1000
0001
0000
0100
0010
0100
0010
0100
,  // measure 138
0000
0110
0000
1000
0000
0100
0000
0101
,  // measure 139
0000
0100
0000
1000
0010
0100
0010
0100
,  // measure 140
0000
0110
0110
0101
0101
0101
0110
0110
,  // measure 141
0110
1100
1100
1100
1100
1100
2200
0000
,  // measure 142
0000
0000
0000
0000
,  // measure 143
0000
0000
0000
3300
;
