#TITLE:WH1TE RO5E;
#SUBTITLE:(Braeden Special);
#ARTIST:Y&Co.;
#TITLETRANSLIT:;
#SUBTITLETRANSLIT:;
#ARTISTTRANSLIT:;
#CREDIT:;
#BANNER:WH1TE RO5E.png;
#BACKGROUND:WH1TE RO5E-bg.png;
#LYRICSPATH:;
#CDTITLE:./CDTITLES/DanceDanceRevolution X2.png;
#MUSIC:WH1TE RO5E.mp3;
#OFFSET:1.360;
#SAMPLESTART:56.520;
#SAMPLELENGTH:15.000;
#SELECTABLE:YES;
#DISPLAYBPM:85.000:170.000;
#BPMS:0.000=170.616,4.000=169.978,100.000=85.006,132.000=169.983,271.500=84.992;
#STOPS:;
#BGCHANGES:;

//---------------dance-single - ----------------
#NOTES:
     dance-single:
     :
     Hard:
     18:
     0.953,1.000,0.493,0.451,1.000:
0000
0000
0000
0000
,
1000
0000
1001
0001
0000
0000
1100
0000
,
0001
0000
1010
0010
0000
0000
0101
0000
,
0001
0000
0000
0000
1010
0000
1000
0000
0000
0000
0000
0001
0100
0000
0000
0000
,
0101
0000
0000
0000
0001
0000
0000
0100
0000
0000
0010
1000
0010
0000
0000
0000
,
0100
0000
0001
0000
1000
0100
0000
1000
0000
0010
0000
1000
0100
0000
1000
0000
,
0000
0000
0001
0000
0010
0100
0000
1000
0000
0100
0000
0010
0001
0000
1000
0010
,
1000
0000
0001
0000
1000
0010
0000
0100
0000
0001
0000
1000
0010
0000
0100
0000
,
0101
0000
0010
0000
0000
0000
1000
0000
1001
0000
0000
0101
0000
0000
1010
0000
,
1001
0000
0000
0000
0001
0000
0000
0000
1000
0100
1000
0100
2000
0000
0000
0000
,
3001
0100
0001
0100
0002
0000
0000
0000
1003
0100
1000
0100
2000
0000
0000
0000
,
3001
0000
0010
0000
0100
1000
0000
0100
0000
0010
0000
0100
1000
0000
0001
0000
,
0000
0000
1000
0000
0001
0100
0000
0001
0000
1000
0000
0100
1000
0000
0001
0000
,
1000
0100
1000
0100
2000
0000
0000
0000
3001
0010
0001
0010
0002
0000
0000
0000
,
1003
0100
0010
0100
2000
0000
0000
0000
3001
0010
0100
0010
0002
0000
0000
0000
,
1003
0000
0010
0000
1000
0100
0000
0010
0000
0001
0000
0010
0100
0000
1000
0000
,
0001
0000
1001
0000
1000
0100
0000
0000
0000
0010
0001
0000
1000
0000
0001
0100
,
0001
0000
1010
2000
0000
3001
0200
0000
,
0310
2000
0000
3100
0020
0000
0031
1000
,
0001
0000
0100
0000
0001
1000
0001
1000
0002
0000
0000
0000
0003
0000
1000
0000
,
0000
0100
0000
0000
0010
0001
0010
0001
0010
0000
0100
1000
0100
0000
0000
0000
,
0001
0011
0000
0010
0110
0000
0100
1100
,
0000
0001
1001
0000
1000
1100
0000
1001
,
0001
0010
0100
1000
0001
0100
0001
0100
0010
1000
0010
1000
0001
0010
0001
0010
,
0100
1000
0100
1000
0001
0100
0001
0100
0101
0000
0000
1010
0000
0000
0101
0000
,
1001
0000
1000
0100
1000
0001
0100
0010
0010
0100
0001
1000
0100
0100
0010
0010
,
0001
1000
1000
0100
0010
0001
0010
0100
1000
0001
0100
0001
0100
0010
1000
1001
,
0001
0100
0001
0000
0000
0000
1000
0100
1000
0000
0000
0000
0001
0100
0001
0000
1000
0000
0100
0000
0010
0000
0001
0000
0010
0000
0100
0000
1000
0000
0010
0000
,
0100
0100
0001
1000
0001
0000
1000
0100
0000
0010
0000
0000
0100
0000
1000
0100
,
1000
0000
0001
0000
1000
0000
0001
0010
0001
0010
0100
1000
0100
0000
0010
0001
0010
0000
0100
0000
1000
0000
0001
0100
0001
0100
0010
1000
0010
0000
0100
0001
,
0100
0000
0001
0000
1000
0000
0001
0010
0100
0010
0001
0010
0100
0000
1000
0100
0010
0000
0001
0000
1000
0000
0100
0010
0001
0010
0100
0010
0001
0010
0100
1000
,
0010
0000
1000
0000
0100
0000
0010
0001
0010
0000
0001
0000
0010
0000
0001
1000
0001
0000
0000
0000
1000
0000
0001
0100
0001
0000
0000
0000
1000
0001
1000
0001
,
1000
0000
0000
0000
0000
0000
0100
0000
0000
0000
0000
0000
0010
0000
0000
0000
0000
0000
0001
0000
0000
0000
0000
0000
0010
0000
0000
0000
0000
0000
0100
0000
0000
0000
0000
0000
1000
0000
0000
0000
0000
0000
0001
0000
0000
0000
0000
0000
0010
0000
0000
0000
0000
0000
0100
0000
0000
0000
0000
0000
0010
0000
0000
0000
0000
0000
0001
0000
0000
0000
0000
0000
0010
0000
0000
0000
0000
0000
0100
0000
0000
0000
0000
0000
0000
0000
0000
0000
0000
0000
0000
0000
0000
0000
0000
0000
1000
0000
0000
0000
0000
0000
0000
0000
0000
0000
0000
0000
0001
0000
0000
0000
0000
0000
0000
0000
0000
0000
0000
0000
1000
0000
0000
0000
0000
0000
0100
0000
0000
0000
0000
0000
1000
0000
0000
0000
0000
0000
0100
0000
0000
0000
0000
0000
1000
0000
0000
0000
0001
0000
0000
0000
1000
0000
0000
0000
0001
0000
0000
0000
1000
0000
0000
0000
0001
0000
0000
0000
1000
0000
0000
0000
0000
0000
0000
0000
0000
0000
0000
0000
0100
0000
0000
0000
0000
0000
0000
0000
0000
0000
0000
0000
,
1001
0000
0001
0000
0011
0000
0010
0000
0200
0000
0000
1300
0100
0000
0020
0000
,
0000
0000
0032
0000
0000
0000
1003
0000
0010
0000
0000
0010
1000
0000
0001
1000
,
0001
0010
0100
1000
0100
0000
0000
0000
0022
0000
0000
0000
0033
0000
2001
0000
,
0000
0010
3010
0000
2001
0000
0020
3030
,
0000
0102
0000
0100
0100
0000
0010
0010
,
0000
2003
0000
0000
0100
0000
3100
0000
,
0002
2003
3010
1000
0002
0000
0100
0203
,
0000
0000
0320
0000
0000
0000
0000
0000
1000
0000
0000
0000
1030
0000
0001
1000
,
0001
0000
0000
0000
1001
0000
0000
1000
0100
0010
0001
0010
0100
0000
1000
0000
,
0010
0000
0100
0000
0001
0000
0100
0000
0100
0000
0010
1000
0010
0000
0100
0001
,
0100
0000
0000
0000
1001
0000
0001
0000
1000
0000
0001
0100
0001
0000
2000
0000
,
0000
3001
0002
0000
0203
0000
0320
0000
,
0030
2000
0000
0001
0001
0000
0100
3200
,
0000
0320
0000
0000
1000
0000
2030
0000
,
0001
0000
3001
0000
0101
0000
0000
0000
0101
0000
0000
0001
0100
0000
0000
0010
,
1000
0010
1000
0000
0000
0100
0000
0000
0011
0000
0000
0101
0000
0000
1001
0000
,
1000
0000
0001
0000
1001
0000
0001
0001
0000
0010
0010
0000
0022
0000
0000
0033
,
1001
0000
1000
0001
1000
0010
1000
1010
0000
0100
0001
0100
0001
0101
0000
0010
,
1000
0001
1000
0001
1001
0000
0000
0000
0011
0000
0001
0001
0000
1000
1000
0000
,
0102
0000
0000
0003
0000
0000
0002
0000
0000
0003
0000
0000
1000
0000
0000
0010
0000
0000
1000
0000
0000
0010
0000
0000
1000
0000
0100
0000
0010
0000
0001
0000
0000
0010
0000
0000
0100
0000
0000
1000
0000
0000
0001
0000
0000
0100
0000
0000
,
0010
0000
1000
0010
1000
0010
1010
0000
0100
0001
0100
0001
1000
0010
0000
0010
,
1000
0000
0001
0001
1000
0020
0000
0130
0001
0000
1000
0001
0202
0000
0303
0000
,
1000
0000
0000
0001
0000
0000
1000
0000
0000
0010
0000
0000
1000
0000
0100
0000
0010
0000
0001
0000
0000
0010
0000
0000
0100
0000
0000
1000
0000
0000
0001
0000
0000
0100
0000
0000
0010
0000
0000
1000
0000
0000
0000
0000
0000
0001
0000
0000
,
1000
0000
0100
0000
0010
0000
0001
0000
0010
0000
0100
0000
1000
0000
0001
0000
1000
0001
1000
0001
1000
0000
0010
0000
1000
0000
0001
0000
2000
0000
0000
0000
,
0000
3000
0000
0000
;
