#TITLE:Theory of Eternity;
#SUBTITLE:NXC-P Special;
#ARTIST:TAG;
#TITLETRANSLIT:;
#SUBTITLETRANSLIT:;
#ARTISTTRANSLIT:;
#CREDIT:;
#BANNER:Theory of Eternity (NXC-P Special).png;
#BACKGROUND:Theory of Eternity (NXC-P Special)-bg.png;
#LYRICSPATH:;
#CDTITLE:./CDTITLES/jubeat knit APPEND.png;
#MUSIC:Theory of Eternity (NXC-P Special).mp3;
#OFFSET:-0.275;
#SAMPLESTART:60.260;
#SAMPLELENGTH:15.000;
#SELECTABLE:YES;
#BPMS:0.000=160.000;
#STOPS:;
#BGCHANGES:0.000=Theory of Eternity (NXC-P Special).avi=1.000=1=1=0,
300.000=Theory of Eternity (NXC-P Special)-bg.png=1.000=0=0=1,
99999=-nosongbg-=1.000=0=0=0 // don't automatically add -songbackground-
;

//---------------dance-single - ----------------
#NOTES:
     dance-single:
     :
     Hard:
     16:
     0.938,0.981,0.706,0.358,0.558:
0000
0000
0000
0000
,
0000
0000
0000
0000
,
0000
0000
0000
0000
,
0000
0000
0000
0000
,
1000
0010
0100
0010
0100
1000
0100
0010
,
0001
0010
0100
1000
0001
0001
1000
1000
,
0100
1000
0010
0100
0001
0010
0100
1000
0010
0100
1000
0010
0001
0010
0100
0000
,
0110
1001
0000
0010
0100
1001
0110
0000
,
2000
0100
3010
0002
0010
0103
2000
0100
,
3001
0002
1000
1003
0200
0010
0301
0020
,
0100
1030
2000
0001
3001
0200
0001
0310
,
0020
1000
0130
0020
0001
0130
0010
1000
,
1100
0200
0010
0301
0200
1000
0301
0010
,
0011
0200
1000
0301
0020
0001
0130
0010
,
0120
1000
0130
0010
0120
0001
0130
0010
,
0110
0000
0000
0110
0000
0110
0100
1000
,
0110
0000
1000
0000
0100
0000
0010
0000
0110
0000
0100
0001
0010
0000
0100
0000
,
0010
0000
0100
0000
0010
0000
0100
0000
1000
0100
1000
0100
0001
0010
0001
0010
,
1000
0000
0100
0000
0010
0000
0001
0000
0100
0000
0010
0100
0010
0000
1000
0000
,
0100
0010
0001
0010
1000
1010
0001
1001
,
0110
0000
1000
0000
0100
0000
0010
0000
0001
0000
1000
0001
1000
0000
0001
0000
,
0001
0000
0100
0000
1000
0000
0100
0000
0010
0001
0010
0001
0100
1000
0100
1000
,
0001
0000
0100
0000
1000
0000
0100
0000
0010
0000
0100
0010
0001
0000
0100
0000
,
0110
1001
0000
0100
0010
0110
0110
0000
,
1010
0000
0100
0000
0010
0000
0100
0000
0110
0000
1000
0001
0100
0000
0010
0000
,
0001
0000
0100
0000
0010
0000
0100
0000
0001
1000
0001
1000
0001
1000
0001
1000
,
0100
0000
0010
0000
0001
0000
0100
0000
0010
0000
0010
0100
1000
0000
0100
0000
,
0010
0000
0001
0000
0100
0000
0010
0001
1000
0100
1000
0100
0001
0010
0001
0000
,
1001
0000
0100
0000
0010
0000
0100
0000
0010
0000
1000
0010
0100
0000
0010
0000
,
0001
0000
1000
0000
1000
0000
0100
0000
0010
1000
0001
1000
0001
1000
0001
0000
,
0100
0000
1000
0000
0100
0000
0010
0000
0001
0000
0100
0010
1000
0000
0010
0000
,
0110
0000
0001
0000
0100
0000
0010
0000
0100
0010
0100
0010
0100
0010
0100
0000
,
1000
0000
0100
0000
0010
0000
0100
0020
0000
0001
0000
0130
0010
0000
0101
0000
,
0100
0000
1000
0000
0100
0000
0010
2000
0000
0001
0000
3100
0010
0000
1100
0000
,
0100
0000
0100
0000
0010
0000
0100
0002
0000
0010
0000
1003
0010
0000
0110
0000
,
1000
0001
0100
0010
0100
0010
0001
0000
0100
0000
1000
0000
0001
0000
0100
0000
,
0101
0000
1000
0000
0100
0000
1000
0020
0000
0001
0000
0130
0020
0000
0130
0000
,
0110
0000
1000
0000
0100
0000
0010
2000
0000
0001
0000
3100
0020
0000
0130
0000
,
0110
2001
3200
0310
0101
0120
2030
3100
,
0110
0000
0000
1001
0000
0000
1010
0000
0000
0101
0000
0000
1010
0000
0100
0000
,
0110
0000
0100
0010
0100
0000
0100
0000
1000
0001
0100
0000
0010
0000
0001
0010
,
0100
0000
1000
0000
0100
0000
0010
0000
0001
1000
0001
0000
0100
0000
0100
0001
,
0010
0000
1000
0001
0100
0000
0010
0000
0001
1000
0001
0000
1000
0001
1000
0000
,
0010
0000
0100
0000
1000
0000
0100
0000
0010
0100
0000
0100
0010
0000
0010
0000
,
0110
0000
1000
0001
0100
0000
0010
0000
0001
0100
1000
0000
1000
0100
0001
0000
,
0001
0000
0100
0000
1000
0000
0100
0000
0010
0100
0000
0100
1000
0000
1000
0000
,
0100
0000
0010
0000
0001
0000
0100
0000
1000
0001
0100
0000
0010
0000
0001
0000
,
0110
0000
0000
1100
0000
0000
0110
0000
0000
0011
0000
0000
0110
0000
1001
0000
,
0110
0000
1000
0000
0100
0000
0010
0000
0001
0000
0100
0010
1000
0000
0100
0000
,
0001
0000
0100
0000
1000
0000
0100
0000
0010
0000
0001
0000
0010
0001
1000
0010
,
0001
0000
0100
0000
0010
0000
0100
0000
0001
0000
1000
0010
0100
0000
0010
0000
,
0001
0000
0100
0000
1000
0000
0100
0000
0001
0000
1000
0100
0010
0000
0001
0000
,
1001
0000
0100
0000
0010
0000
0001
0000
0100
0000
1000
0010
0100
0000
0001
0000
,
1000
0000
1000
0000
0010
0000
0010
0000
0100
0000
0100
0010
0001
0000
0001
0000
,
1000
0010
0100
1000
0010
0100
0001
1000
0010
0001
0100
0010
1000
0010
0100
0000
,
2002
0000
0000
3003
,
0110
0000
1000
0000
0100
0000
0010
2000
0000
0001
0000
3100
2000
0000
3100
0000
,
0010
0000
0010
0000
0010
0000
1000
0200
0000
0010
0000
1300
0002
0000
0103
0000
,
0010
0000
0010
0000
0010
0000
1000
0200
0000
0001
0000
0310
0002
0000
0103
0000
,
0001
0010
0001
0010
1000
0100
2000
0000
0001
0000
0001
0000
3200
0000
0310
0000
,
0110
0000
1000
0000
0100
0000
0010
0001
0000
1000
0000
0100
0010
0000
0110
0000
,
1100
0000
0100
0000
0010
0000
0100
0010
0000
0001
0000
0100
0010
0000
0011
0000
,
0011
0011
0210
0310
0110
0110
0120
1030
,
0110
0000
0000
1100
0000
0000
0011
0000
0000
1010
0000
0000
0101
0000
0110
0000
,
1010
0000
0100
0001
0010
1000
0001
0000
0100
0010
0100
0000
0010
0000
0100
0001
,
0010
0000
0010
0000
1000
0000
0100
0000
0010
0100
0010
0000
1000
0100
1000
0000
,
0001
0000
0100
0000
1000
0000
0100
0000
0010
0100
0010
0000
1000
0001
1000
0000
,
0100
0000
0010
0000
0001
0000
0100
0000
1000
0100
0000
0100
0001
0000
0001
0000
,
0101
0000
1000
0001
0100
0000
0010
0000
0001
0010
0100
0000
1000
0000
0010
0100
,
1000
0000
0100
0000
0010
0000
0001
0000
0100
0001
1000
0010
0100
0000
0010
0100
,
0001
0000
1000
0000
0100
0000
0010
0000
0001
0010
0100
0000
0100
0000
0001
0000
,
0101
0000
0000
0110
0000
0000
0101
0000
0000
1010
0000
0000
0101
0000
0100
0000
,
1000
1010
1010
0100
0110
0110
1000
1001
,
1001
1000
1001
2002
0000
0000
0000
0000
,
0000
0000
0000
0000
,
3003
0000
0000
0000
;
