#TITLE:Stomp to my beat (Eataninja Special);
#SUBTITLE:"Air" Special;
#ARTIST:JS16;
#TITLETRANSLIT:;
#SUBTITLETRANSLIT:;
#ARTISTTRANSLIT:;
#GENRE:;
#CREDIT:;
#BANNER:Stomp to my beat.png;
#BACKGROUND:Stomp to my beat-bg.png;
#LYRICSPATH:Stomp to my beat.lrc;
#CDTITLE:./CDTITLES/DANCEMANIA WINTERS.PNG;
#MUSIC:Stomp to my beat.mp3;
#OFFSET:-7.361;
#SAMPLESTART:7.330;
#SAMPLELENGTH:12.000;
#SELECTABLE:YES;
#DISPLAYBPM:134.000;
#BPMS:0.000=133.870
;
#STOPS:
;
#BGCHANGES:;
#KEYSOUNDS:;
#ATTACKS:;

//---------------dance-couple - ----------------
#NOTES:
     dance-couple:
     :
     Challenge:
     5:
     0.278,0.394,0.280,0.000,0.000,149.000,25.000,0.000,0.000,0.000,0.000,0.278,0.394,0.280,0.000,0.000,149.000,25.000,0.000,0.000,0.000,0.000:
00000000
00000000
00000000
00000000
,
00000000
00000000
00000000
00000000
,
00000000
00100010
00000000
00100010
,
10011001
11001100
01010101
00000000
,
10100000
00000000
00010000
00000000
00100000
01000000
10000000
00000000
,
00001010
00000000
00000001
00000000
00000010
00000100
00001000
00000000
,
00100010
00110011
11001100
01000100
,
10011001
01010101
11001100
00000000
,
00010000
00000000
10000000
00000000
00010000
00100000
10000000
00000000
,
00000001
00000000
00001000
00000000
00000001
00000010
00001000
00000000
,
00010001
00000000
10001000
00000000
00010001
01000100
10001000
00000000
,
00010000
01000000
10000000
00000000
00000001
00000100
00001000
00000000
,
00011000
00100100
01000010
10000001
,
10000001
01000010
00100100
00011000
,
10000001
01000100
00100010
00011000
00011000
00100010
01000100
10000001
,
10000001
01000100
00100010
00011000
00011000
00100010
01000100
10000001
,
01000100
00000000
00000000
00000000
,
10000001
00000000
10000001
00000000
,
10000001
00000000
10000001
00000000
,
10000001
00000000
10000001
00000000
,
10101010
00000000
00000001
00000000
10000010
00000100
00001000
00000000
,
10000011
00000000
00001000
00000000
10000010
00000100
00000001
00000000
,
10000010
00000011
10001100
00000100
,
10001001
00000101
00001100
00000000
,
10101010
00000000
00010000
00000000
00100001
01000000
10000000
00000000
,
00110001
00000000
10000000
00000000
00100001
01000000
00010000
00000000
,
00100001
00110000
11000001
01000000
,
10010001
01010000
11000000
00000000
,
10000010
10000010
10000101
10001100
,
00000010
00000000
00000001
00000000
00001000
00000100
00000001
00000000
,
00100001
00100001
11000001
01010001
,
00100000
00000000
10000000
00000000
00010000
01000000
10000000
00000000
,
00001010
00000000
11000000
00000000
,
00001100
00000000
01010000
00000000
,
00010001
10001000
00100010
01000100
00010001
10001000
00100010
01000100
,
00010001
10001000
00100010
01000100
00010001
10001000
00100010
01000100
,
10001000
00000000
01000100
00000000
00100010
00010001
01000100
00000000
,
00010000
00000000
10000000
00000000
01000000
10000000
00010000
00000000
,
00000001
00000000
00001000
00000000
00000100
00001000
00000001
00000000
,
10001000
01000100
00010001
01000100
,
00100000
11000000
00110000
01000000
,
00000010
00000101
00001010
00000100
,
00100010
00010001
10001000
00100010
00100010
01000100
10011001
00000000
,
00100010
10001000
00010001
01000100
01000100
00100010
10011001
00000000
,
01000100
00000000
00000000
00000000
;

//---------------dance-single - Blank----------------
#NOTES:
     dance-single:
     :
     Challenge:
     16:
     0.979,0.789,1.000,0.022,0.471,385.000,225.000,2.000,0.000,0.000,0.000,0.979,0.789,1.000,0.022,0.471,385.000,225.000,2.000,0.000,0.000,0.000: // measure 0
1010
0110
1001
0101
0110
1001
1010
0000
,  // measure 1
0101
0110
1001
0101
1010
1100
0110
0000
,  // measure 2
1001
1100
0011
0110
0101
1010
1001
0000
,  // measure 3
1100
0000
0110
0000
0101
0000
0110
0000
1000
0100
0000
1001
0000
0010
0001
0000
,  // measure 4
1001
1100
0110
0011
1001
0110
1001
0000
,  // measure 5
0101
0110
0101
1010
0110
1010
1001
0000
,  // measure 6
0110
0101
1010
1001
0110
0101
0011
0000
,  // measure 7
1000
0001
1000
0001
1000
0001
1000
0001
1000
0001
1000
0001
1000
0001
1000
0001
,  // measure 8
1000
0000
0001
0000
0110
0000
1000
0000
0001
0101
0000
0001
0101
0000
0110
0000
,  // measure 9
0001
0000
1000
0000
0110
0000
0001
0000
1000
1010
0000
1000
1010
0000
0110
0000
,  // measure 10
1000
0000
0001
0000
0110
0000
1000
0000
0001
0011
0000
0001
0011
0000
0110
0000
,  // measure 11
1000
1010
0000
1000
1010
0000
0110
0000
0001
0101
0000
0001
0101
0000
0110
0000
,  // measure 12
1100
0101
0011
1010
,  // measure 13
0011
0101
1100
1010
,  // measure 14
0011
0011
0110
0110
1010
1010
1001
1001
,  // measure 15
0110
0110
0101
0101
1010
1010
1001
1001
,  // measure 16
0220
0000
0000
0330
,  // measure 17
1000
0010
0100
0010
1000
0100
0010
0001
1000
0010
0100
0010
1000
0100
0010
0001
,  // measure 18
1000
0010
0100
0010
1000
0100
0010
0001
1000
0010
0100
0010
1000
0100
0010
0001
,  // measure 19
1000
0100
1000
0100
1000
0100
1000
0100
1001
0000
0010
0000
0101
0000
0000
0000
,  // measure 20
1010
0110
0101
1010
0101
1100
1001
0000
,  // measure 21
0110
0101
1010
0110
1001
1100
0101
0000
,  // measure 22
1010
0110
0011
0110
1100
0110
0101
0000
,  // measure 23
1010
0000
0101
0000
1100
0000
0011
0000
1000
0001
0000
0110
0000
0001
1000
0000
,  // measure 24
0101
0110
0101
1100
1001
0110
1001
0000
,  // measure 25
1010
0101
1010
0110
0011
1100
0011
0000
,  // measure 26
1001
0110
1001
1100
0101
1010
0101
0000
,  // measure 27
0010
0100
0010
0100
0010
0100
0010
0100
0010
0100
0010
0100
0010
0100
0010
0100
,  // measure 28
1010
0101
1100
0011
,  // measure 29
1000
0100
1100
0001
0100
0101
1000
0010
1000
0100
0010
0001
1000
0010
0100
0001
,  // measure 30
0101
1010
0011
1100
,  // measure 31
0001
0010
0011
1000
0010
1010
0001
0100
0001
0100
0010
1000
1010
0000
0011
0000
,  // measure 32
1001
0000
0000
0000
1000
0100
1000
0100
1001
0000
0000
0000
0001
0010
0001
0010
,  // measure 33
1001
0000
1100
0000
0001
0100
0001
0100
1001
0000
0011
0000
1000
0010
1000
0010
,  // measure 34
1001
1100
1001
0101
1001
1010
1001
0011
,  // measure 35
1100
0110
0011
0110
1010
0110
0101
0110
,  // measure 36
1100
0000
0010
0000
0101
0000
0010
0000
1000
1010
0000
1000
1100
0000
1001
0000
,  // measure 37
0011
0000
0100
0000
1010
0000
0100
0000
0001
0101
0000
0001
0011
0000
1001
0000
,  // measure 38
1010
0000
0100
0000
0011
0000
0100
0000
1000
1010
0000
1000
1100
0000
1001
0000
,  // measure 39
0001
0011
0000
0001
0101
0000
1001
0000
1000
1010
0000
1000
1100
0000
1001
0000
,  // measure 40
1100
1001
0010
0101
0110
1010
0100
1001
,  // measure 41
1100
1001
0010
0101
0110
1010
0001
0110
,  // measure 42
1010
0101
1010
1001
0110
1001
0101
1100
,  // measure 43
0011
1010
0101
1100
1001
0011
0110
1001
,  // measure 44
0101
0000
0000
0000
;
