#TITLE:Youkai Zone;
#SUBTITLE:;
#ARTIST:AU;
#TITLETRANSLIT:;
#SUBTITLETRANSLIT:;
#ARTISTTRANSLIT:;
#CREDIT:;
#BANNER:Youkai Zone BN.png;
#BACKGROUND:Youkai Zone BG.png;
#LYRICSPATH:;
#CDTITLE:;
#MUSIC:Youkai Zone.ogg;
#OFFSET:-4.540;
#SAMPLESTART:29.280;
#SAMPLELENGTH:12.000;
#SELECTABLE:YES;
#BPMS:0.000=165.000,18.000=329.999,20.000=165.000,64.000=82.500,66.000=165.000,130.000=82.500,146.000=165.000,210.000=82.500,212.000=165.000;
#STOPS:18.000=0.100
,18.500=0.100
,19.000=0.060
,19.333=0.060
,19.667=0.060
;
#BGCHANGES:;

//---------------dance-single - ----------------
#NOTES:
     dance-single:
     :
     Challenge:
     13:
     1.000,1.000,0.251,0.043,1.000:
100M
0100
0010
0001
1M00
0000
0001
0100
M000
0010
1000
0000
00M1
0100
0001
0000
,
10M0
0100
1000
0100
0010
0001
0010
0001
1000
0000
0001
0000
1000
0100
0010
0001
,
1000
0010
1000
0010
0100
0001
0100
0001
1000
0001
1000
0001
1000
0100
0010
0001
,
0100
0010
0100
0010
1000
0001
1000
0001
1000
0000
0100
0000
0010
0001
0010
0100
,
1000
0000
0000
0100
0000
0000
0010
0000
0000
0001
0000
0000
1000
0000
0000
0100
0000
0000
0010
0000
0000
0001
0000
0000
1000
0000
0000
0000
0000
0000
0001
0000
0000
0000
0000
0000
1000
0000
0000
0000
0001
0000
0000
0000
1000
0000
0000
0000
,
0001
0100
0001
0100
0010
1000
0010
1000
0001
0000
0100
0000
0001
0010
0100
0000
,
1000
0100
0010
0001
1000
0100
0010
0001
1000
0010
0100
0001
1000
0100
1000
0100
,
1000
0010
0100
0001
0100
0010
1000
0001
1000
0000
0100
0000
0010
0001
1000
0000
,
0001
0100
0001
0100
0010
0000
1000
0010
1000
0100
1000
0100
0010
0001
0100
0010
,
1000
0100
1000
0100
0010
0001
0010
0001
1000
0010
1000
0010
0100
0001
0100
0001
,
0100
0010
0100
0010
1000
0001
1000
0001
1000
0100
1000
0100
0010
0001
0010
0001
,
10M0
0100
0010
0001
M010
0100
1000
0100
100M
0000
0010
0000
M100
0001
0100
0001
,
10M0
0100
0010
0001
10M0
0100
0010
0001
1M00
0010
0100
0001
M100
0010
1000
0001
,
10M0
0100
1000
0100
0010
0001
0010
0001
1000
0010
1000
0010
0100
0001
0100
0001
,
0100
0010
0100
0010
1000
0001
1000
0001
1000
0100
1000
0100
0010
0001
0010
0001
,
10M0
0100
0010
0100
M010
0001
1000
0001
10M0
0000
0100
0000
M010
0001
0010
0001
,
1M00
0000
0000
0000
1001
0000
0000
1000
0100
0000
0010
0000
0001
0000
0100
0000
1001
0000
0000
0000
0001
0000
0000
0000
0100
0000
0000
0000
0010
0000
0000
0000
,
1000
0100
0010
0001
0000
0001
1000
0000
0001
0000
0100
0000
0010
0000
0100
0000
,
0001
0010
0001
0100
0000
0001
0010
0001
1000
0000
0010
0000
0100
0000
0001
0000
,
1000
0100
1000
0100
0000
0010
0001
0000
0001
0000
0100
0000
0001
0000
0010
0000
,
0100
1000
0100
1000
0100
0000
0010
0000
0001
0000
0100
0000
0001
0000
0100
0000
,
0001
0010
0100
1000
0000
1000
0001
0000
1000
0000
0010
0000
0100
0000
0001
0000
,
1000
0100
0010
0001
0000
0100
0010
0100
0001
0000
0010
0000
0100
0000
1000
0000
,
0001
0100
0001
0100
0000
0010
1000
0000
1000
0000
0001
0000
0010
0000
0100
0000
,
1000
0001
1000
0001
2000
0000
0001
0000
3001
0000
0000
0000
0101
0000
0000
0000
,
0001
0000
0100
0000
0010
0000
1000
0000
0001
0100
0001
0100
0010
1000
0010
1000
,
0001
0010
0100
1000
0001
0100
0010
1000
0001
0000
0100
0000
0010
0000
1000
0000
,
0100
0000
0010
0000
0001
0000
0100
0000
0001
0010
0100
1000
0001
0010
0100
1000
,
0001
0100
0010
1000
0001
0100
0010
1000
0001
0000
0000
0000
1001
0000
0000
0000
,
1000
0000
0100
0000
0010
0000
0001
0000
1000
0100
1000
0100
0010
0001
0010
0001
,
1000
0010
0100
0001
1000
0000
0001
0000
1001
0000
1000
0000
0001
0000
1000
0000
,
0001
1000
0001
1000
0001
0010
0100
1000
,
1001
0000
0000
0000
0000
0000
0110
0000
0000
0000
0000
0000
1001
0000
0000
0000
10M0
0100
1000
0000
0001
0000
0001
0000
1000
0100
0010
0001
1000
0000
0001
0010
,
010M
1000
0001
0000
1000
0100
1000
0000
0001
0100
0001
0100
0001
0000
1000
0000
001M
0100
0010
0000
1000
0000
1000
0000
0001
0010
0100
1000
0100
0000
0010
0001
,
1M00
0001
0100
0000
0010
1000
0010
0000
0100
0001
0100
0001
0100
0000
0010
0000
100M
0100
1000
0000
0001
0000
0001
0000
M100
0010
1000
0010
0100
0000
0001
0010
,
M001
0010
0100
0000
1000
0100
1000
0000
00M1
0100
0010
0100
0001
0000
0100
0000
00M1
1000
0001
0000
M100
0010
0100
0000
M001
0100
0001
0100
00M1
0100
0001
0100
,
M001
0010
0100
0000
100M
0100
0010
0001
M100
0010
1000
0100
100M
0100
0010
0001
1M00
0000
0000
0000
0100
0000
0000
0000
0010
0000
0000
0000
0001
0000
0000
0000
,
0100
0001
0010
0100
1000
0100
0010
0000
0001
0000
0100
0000
0010
0000
1000
0000
,
0001
0010
0100
1000
0000
0001
0100
0010
1000
0000
0100
0000
0010
0000
0001
0000
,
1000
0100
1000
0010
0000
0100
0001
0000
1000
0000
0100
0000
0010
0000
0001
0000
,
1000
0001
1000
0001
1000
0000
0001
0000
1001
0000
1000
0000
0010
0000
0100
0000
,
0001
0010
0100
1000
0000
0001
1000
0000
0001
0000
0100
0000
0010
0000
1000
0000
,
0001
0010
0001
0010
0000
0100
1000
0100
1000
0000
0010
0000
0100
0000
0001
0000
,
1000
0100
0010
0001
0000
1000
0100
0000
1000
0000
0010
0000
0100
0000
0001
0000
,
1000
0100
1000
0100
2000
0000
0100
0000
3100
0000
0000
0000
1100
0000
0000
0000
,
1000
0000
0010
0000
0100
0000
0001
0000
1000
0100
0010
0001
0100
0010
1000
0010
,
0100
0001
0010
0100
1000
0001
0010
0100
1000
0000
0010
0000
0100
0000
0001
0000
,
0100
0000
0010
0000
1000
0000
0001
0000
1000
0100
0010
0001
1000
0100
0010
0001
,
1000
0100
0010
0001
1000
0010
0100
0001
1000
0000
0000
0000
1001
0000
0000
0000
,
0001
0000
0100
0000
0010
0000
1000
0000
0001
0100
0010
1000
0100
0010
0001
0010
,
0100
1000
0100
0010
0001
0000
1000
0000
1001
0000
0001
0000
1000
0000
0001
0000
,
1000
0001
1000
0001
1000
0100
0010
0001
,
1001
0000
0000
0110
0000
0000
1001
0000
2002
0000
0000
0000
0000
0000
3003
0000
,
1000
0100
1000
0100
0010
0001
0010
0001
1000
0100
0010
0001
1000
0100
0010
0001
,
1000
0010
1000
0010
0100
0001
0100
0001
1000
0010
0100
0001
1000
0010
0100
0001
,
0100
0010
0100
0010
1000
0001
1000
0001
1000
0100
0010
0001
0010
0100
1000
0100
,
1000
0100
0010
0001
1000
0100
0010
0001
1000
0100
0010
0001
1000
0100
1000
0100
,
1000
0100
0010
0001
1000
0100
0010
0001
1000
0010
0100
0001
1000
0010
0100
0001
,
1000
0100
0010
0001
0010
0100
1000
0100
0010
0001
0010
0100
1000
0100
1000
0100
,
1000
0100
0010
0001
0100
0010
1000
0010
0100
0001
0010
0100
1000
0100
0010
0001
,
1000
0100
0001
0100
1000
0010
0100
0001
1000
0100
0010
0001
2000
0000
3000
0000
,
1MM1
0000
1001
0000
0MM0
0000
1100
0000
11MM
0000
0000
0110
M00M
0000
0011
0000
,
1MM1
0000
1001
0000
0MM0
0000
0101
0000
M1M1
0000
0000
0110
M00M
0000
1010
0000
,
1MM1
0000
0000
0000
;

//---------------dance-single - ----------------
#NOTES:
     dance-single:
     :
     Hard:
     9:
     0.656,0.901,0.156,0.078,0.312:
0000
0000
0000
0000
,
1000
0100
0010
0001
1000
1000
0001
0100
,
0010
1000
0010
0100
0001
1000
0002
1000
,
1003
0100
1000
0010
0100
0100
0001
0100
,
0010
0000
0000
1000
0000
0000
0100
0000
0000
1000
0000
0000
0001
0000
0000
1000
0000
0000
0001
0000
1000
0000
0001
0000
,
1000
0100
0010
0001
1000
1000
0100
1000
,
0010
0100
0001
0100
0010
1000
0020
0100
,
0130
0001
0100
0010
0100
0100
0001
0010
,
0001
0100
0010
0000
1000
0100
0010
0001
,
1000
0100
0010
0001
,
1000
0010
0100
0001
,
1000
0100
0010
0001
0100
0100
0010
1000
,
0010
0100
0001
0010
0100
1000
0100
0010
,
0001
0100
0001
0010
,
0100
1000
0010
0100
,
0001
0010
0100
1000
0010
0010
0100
0001
,
2000
0000
0001
0000
0001
0001
0001
0001
3001
0000
0100
0000
0001
0000
0100
0000
,
0010
0000
1000
0010
0000
0010
1000
0000
0001
0000
0010
0000
0100
0000
1000
0000
,
0010
0000
1000
0100
0000
0100
1000
0000
0010
0000
1000
0000
0010
0000
0100
0000
,
0001
0000
1000
0001
0000
0001
1000
0000
0010
0000
1000
0000
0100
0000
0010
0000
,
0001
1000
0001
1000
0001
0000
0100
0000
0001
0000
0010
0000
0100
0000
1000
0000
,
0001
0000
1000
0100
0000
0010
0001
0000
1000
0000
0010
0000
0100
0000
0001
0000
,
1000
0000
0001
0100
0000
0010
1000
0000
0001
0000
0010
0000
0100
0000
0010
0000
,
0001
0000
1000
0010
0000
0100
0001
0000
1000
0000
0100
0000
0010
0000
0001
0000
,
1000
0100
1000
0100
2000
0000
0000
0000
3001
0000
0000
0000
0001
0000
0000
0000
,
0001
1000
0001
1000
0001
0010
0100
1000
,
0010
0100
0001
0100
0010
1000
0010
1000
,
0010
1000
0010
1000
0001
0010
0100
1000
,
0100
0010
0001
0100
0010
0000
0010
0000
,
0010
0100
0010
0100
0010
1000
0100
0010
,
0001
0010
0001
0001
0002
0000
1000
0000
,
0100
0010
0100
1000
,
1003
0000
0000
1001
0000
0000
1001
0000
1000
0100
0010
0010
0001
0100
0010
0010
,
0100
0001
1000
1000
0100
0010
0100
0100
1000
0010
0100
0100
0001
0100
0001
0001
,
0100
0010
1000
1000
0100
0010
0001
0001
0010
1000
0010
0010
0100
1000
0001
0001
,
0100
1000
0100
0100
0001
0100
0010
0010
1000
0100
1000
1000
0010
0100
0001
0001
,
1000
0100
1000
1000
0010
0100
0001
0001
1000
0000
0100
0000
0010
0000
0001
0000
,
0100
0000
0001
1000
0000
0001
1000
0000
0010
0000
0100
0000
0001
0000
0010
0000
,
0100
0000
1000
0100
0000
1000
0100
0000
0010
0000
0001
0000
0100
0000
0010
0000
,
1000
0000
0001
0100
0000
0001
0100
0000
0010
0000
1000
0000
0010
0000
0100
0000
,
0001
0010
0001
0010
0001
0000
0001
0000
1000
0000
0010
0000
0100
0000
0001
0000
,
0010
0000
0100
1000
0000
0100
1000
0000
0010
0000
0100
0000
0001
0000
0100
0000
,
0010
0000
1000
0001
0000
1000
0001
0000
0100
0000
0010
0000
1000
0000
0001
0000
,
0100
0000
0010
0100
0000
0010
0100
0000
0001
0000
1000
0000
0100
0000
0010
0000
,
0100
1000
0100
1000
0200
0000
0000
0000
0310
0000
0000
0000
0010
0000
0000
0000
,
0010
0001
0010
0001
0010
0100
1000
0010
,
0100
0001
0100
0010
1000
0001
1000
0001
,
1000
0001
1000
0001
1000
0100
0010
0001
,
0100
0010
1000
0010
1000
0000
1000
0000
,
1000
0100
1000
0100
1000
0010
0100
0001
,
0010
0100
1000
1000
2000
0000
0100
0000
,
0010
0001
0010
0100
,
3001
0000
0000
1001
0000
0000
1001
0000
2002
0000
0000
0000
0000
0000
3003
0000
,
1000
0100
0010
0001
0100
0010
1000
0100
,
0001
0100
1000
0010
0100
0001
0010
0100
,
1000
0010
0001
0010
1000
0100
0010
0001
,
0100
0010
1000
0100
1000
0010
0100
0001
,
0100
0001
0100
0010
0100
1000
0100
0010
,
0100
0001
0100
0010
0100
1000
0100
0010
,
0100
0001
0010
0100
1000
0100
0010
0001
,
1000
0100
1000
0010
0100
0001
1000
0000
,
1001
0000
1001
0000
0000
0000
1100
0000
1100
0000
0000
1001
0000
0000
0101
0000
,
0101
0000
0101
0000
0000
0000
1001
0000
1001
0000
0000
1100
0000
0000
0110
0000
,
1001
0000
0000
0000
;

//---------------dance-single - ----------------
#NOTES:
     dance-single:
     :
     Medium:
     6:
     0.449,0.464,0.104,0.052,0.017:
0000
0000
0000
0000
,
1000
0000
0100
0000
0010
0001
0100
0000
,
0010
0000
1000
0000
0001
0000
1000
1000
,
0001
0000
0001
0000
0100
0010
1000
0000
,
0001
0000
0010
0000
0001
1000
0002
0000
,
1003
0000
0010
0000
0100
0001
1000
0000
,
0010
0000
0100
0000
0001
0000
0010
0010
,
0100
0000
1000
0000
0100
0010
0001
0000
,
1000
0100
0010
0001
0100
0010
1000
0000
,
1001
0001
0100
0010
,
1000
0010
0100
0001
,
1000
0100
1000
0000
0001
0100
0001
0000
,
1000
0000
0100
0000
0010
0001
1000
0000
,
0001
0100
0010
1000
,
0010
0100
0001
1000
,
0001
0100
0001
0000
1000
0100
1000
0000
,
2002
0000
3003
0000
1000
0100
0010
0000
,
0001
0000
0100
0000
0001
0010
0100
0000
,
1000
0000
0010
0000
1000
0010
0100
0000
,
0001
0000
0100
0000
0001
0010
0100
1000
,
0001
0000
0001
0100
0001
0100
0010
0000
,
1000
0000
0100
0000
0010
0001
0010
0000
,
0100
0000
1000
0000
0010
0100
0001
0000
,
1000
0000
0100
0000
0010
0001
0010
0100
,
1000
1000
1001
1001
,
0001
0100
0010
1000
0001
0000
0100
0000
,
0010
0000
1000
0000
0001
0010
0001
0010
,
0100
1000
0100
1000
0001
0000
0100
0000
,
0010
1000
1001
1001
,
0001
0100
0010
1000
0001
0000
0100
0000
,
0010
0000
1000
0100
2000
0000
0001
0000
,
0001
0001
0001
0001
,
0001
0000
0000
0001
0000
0000
3001
0000
1001
0000
1000
0000
0100
0000
0100
0000
,
0010
0001
0100
0100
0010
1000
0001
0001
,
0100
0010
1000
1000
0100
0010
0001
0001
,
0010
0100
1000
1000
0010
0100
0001
0001
,
0010
0100
1000
1000
0001
0100
0001
0000
,
0100
0000
0010
0000
1000
0100
0010
0000
,
0001
0000
0100
0000
0010
0100
0001
0000
,
0010
0000
0100
0000
1000
0100
0010
0001
,
1000
0000
1000
0100
1000
0100
0010
0000
,
0001
0000
0100
0000
0010
1000
0010
0000
,
0100
0000
0001
0000
1000
0100
0010
0000
,
0001
0000
0100
0000
0001
0010
0100
1000
,
0001
0001
1001
1001
,
1000
0100
0010
0001
1000
0000
0010
0000
,
0100
0000
0001
0000
1000
0100
1000
0100
,
0010
0001
0010
0001
1000
0000
0010
0000
,
0100
0001
1001
1001
,
1000
0100
0010
0001
1000
0000
0010
0000
,
0100
0000
0001
0100
0002
0000
1000
0000
,
1000
1000
1000
1000
,
1000
0000
0000
1000
0000
0000
1000
0000
2000
0000
0000
0000
0000
0000
3003
0000
,
1000
0100
0010
0000
0001
0100
0010
0000
,
1000
0100
1000
0000
0001
0100
0001
0000
,
1000
0010
0100
0000
0001
0100
0010
0000
,
1000
0100
0010
0000
0001
0010
0100
0000
,
1000
0100
1000
0100
0010
0001
0010
0001
,
1000
0010
1000
0010
0100
0001
0100
0001
,
1000
0100
1000
0000
0001
0100
0001
0000
,
1000
0010
0100
0001
1000
0001
1000
0000
,
0001
0000
0001
0000
0000
0000
0100
0000
0100
0000
0000
0100
0000
0000
0100
0000
,
0010
0000
0010
0000
0000
0000
1000
0000
1000
0000
0000
1000
0000
0000
0001
0000
,
1001
0000
0000
0000
;

//---------------dance-single - ----------------
#NOTES:
     dance-single:
     :
     Easy:
     4:
     0.290,0.382,0.165,0.061,0.000:
0000
0000
0000
0000
,
1000
0100
0010
0010
,
0001
0100
0010
1000
,
1000
0100
0010
0010
,
0100
1000
0002
0000
,
1003
0010
0100
0100
,
0001
0100
0010
1000
,
1000
0100
0010
0010
,
0001
0010
0100
1000
,
1001
0000
0001
0000
,
0100
0000
0010
0000
,
1000
0100
1000
1000
,
0010
0100
0001
0100
,
0001
0000
0001
0000
,
0010
0000
0010
0000
,
0100
1000
0010
0100
,
2002
3003
1000
0100
,
0010
0000
0001
0100
,
0010
0000
1000
0100
,
1000
0000
0010
0100
,
0001
0001
0100
0010
,
1000
0000
0100
0010
,
0100
0000
1000
0010
,
0100
0000
0001
0010
,
0100
0110
1001
1001
,
1000
0001
1000
0000
,
0010
0000
0100
0001
,
0100
0010
1000
0000
,
0001
0000
1000
1000
,
0100
0010
0001
0000
,
0001
0100
0020
0000
,
1000
0000
1000
0000
,
1030
0001
1001
1000
,
0100
0010
0001
0100
,
0010
1000
0100
0001
,
0010
1000
0100
0001
,
0100
1000
0001
0100
,
0010
0000
1000
0100
,
1000
0000
0010
0100
,
0001
0000
1000
0100
,
0010
0010
0001
0100
,
0010
0000
1000
0010
,
0100
0000
0001
0010
,
0100
0000
1000
0100
,
1000
1001
1100
1100
,
1000
0010
0100
0000
,
0001
0000
0100
0010
,
1000
0010
0100
0000
,
0001
0000
0101
0101
,
0100
0010
1000
0000
,
0001
0001
2000
0000
,
0001
0000
0001
0000
,
3001
1000
2002
3003
,
1000
0100
1000
0100
,
0010
0001
0010
0001
,
1000
0010
1000
0010
,
0100
0001
0100
0001
,
1000
0100
0010
0001
,
0100
0010
1000
0010
,
0100
0001
0010
0100
,
1100
0101
0011
1010
,
1001
0000
1000
0100
,
1100
0000
0010
0001
,
0011
0000
0000
0000
;

//---------------dance-single - ----------------
#NOTES:
     dance-single:
     :
     Beginner:
     2:
     0.142,0.191,0.035,0.000,0.000: // measure 1
0000
0000
0000
0000
,  // measure 2
1000
0000
0000
0000
,  // measure 3
0100
0000
0000
0000
,  // measure 4
0010
0000
0000
0000
,  // measure 5
0001
0000
0000
0000
,  // measure 6
0001
0000
0000
0000
,  // measure 7
0100
0000
0000
0000
,  // measure 8
0010
0000
0000
0000
,  // measure 9
1000
0000
0000
0000
,  // measure 10
0001
0000
0001
0000
,  // measure 11
0001
0000
0001
0000
,  // measure 12
0001
0000
0000
0000
,  // measure 13
0100
0000
0000
0000
,  // measure 14
1000
0000
1000
0000
,  // measure 15
1000
0000
1000
0000
,  // measure 16
1000
0000
0000
0000
,  // measure 17
1001
0000
0001
0000
,  // measure 18
0001
0000
0100
0000
,  // measure 19
0100
0000
0010
0000
,  // measure 20
0010
0000
1000
0000
,  // measure 21
1000
0000
1001
0000
,  // measure 22
0001
0000
0100
0000
,  // measure 23
0100
0000
0010
0000
,  // measure 24
0010
0000
1000
0000
,  // measure 25
1000
0000
0001
0000
,  // measure 26
0001
0000
0001
0000
,  // measure 27
0000
0000
0100
0000
,  // measure 28
0100
0000
0100
0000
,  // measure 29
0000
0000
0010
0000
,  // measure 30
0010
0000
0010
0000
,  // measure 31
0000
1000
1000
0000
,  // measure 32
0000
0000
0000
0000
,  // measure 33
0001
0001
0001
0000
,  // measure 34
0001
0000
0100
0000
,  // measure 35
0100
0000
0010
0000
,  // measure 36
0010
0000
1000
0000
,  // measure 37
1000
0000
0001
0000
,  // measure 38
0001
0000
0100
0000
,  // measure 39
0100
0000
0010
0000
,  // measure 40
0010
0000
1000
0000
,  // measure 41
1000
1000
1000
0000
,  // measure 42
1000
0000
0100
0000
,  // measure 43
0100
0000
0010
0000
,  // measure 44
0010
0000
0001
0000
,  // measure 45
0001
0001
0001
0000
,  // measure 46
0001
0000
0100
0000
,  // measure 47
0000
0000
0010
0000
,  // measure 48
0010
0000
1000
0000
,  // measure 49
0000
0000
0001
0000
,  // measure 50
0100
0000
0001
0000
,  // measure 51
0000
1000
1000
0000
,  // measure 52
0000
0000
0000
0000
,  // measure 53
0001
0001
0001
0000
,  // measure 54
1001
0000
1000
0000
,  // measure 55
0100
0000
0010
0000
,  // measure 56
0001
0000
0100
0000
,  // measure 57
0010
0000
1000
0000
,  // measure 58
0010
0000
0100
0000
,  // measure 59
0001
0000
0100
0000
,  // measure 60
0010
0000
1000
0000
,  // measure 61
0001
0000
1000
1000
,  // measure 62
1000
0000
1000
0000
,  // measure 63
0001
0000
0001
0000
,  // measure 64
1001
0000
0000
0000
;
