#TITLE:You Should Drink Cucumber Flavoured Beer!;
#SUBTITLE:;
#ARTIST:IOSYS;
#TITLETRANSLIT:;
#SUBTITLETRANSLIT:;
#ARTISTTRANSLIT:;
#CREDIT:;
#BANNER:You Should Drink Cucumber Flavoured Beer!.png;
#BACKGROUND:You Should Drink Cucumber Flavoured Beer! - bg.png;
#LYRICSPATH:;
#CDTITLE:cdtitleGpop.png;
#MUSIC:You Should Drink Cucumber Flavoured Beer!.ogg;
#OFFSET:1.107;
#SAMPLESTART:65.580;
#SAMPLELENGTH:16.000;
#SELECTABLE:YES;
#BPMS:0.000=180.001;
#STOPS:;
#BGCHANGES:3.000=You Should Drink Cucumber Flavoured Beer!.avi=1.000=0=0=1,
99999=-nosongbg-=1.000=0=0=0 // don't automatically add -songbackground-
;

//---------------dance-single - ----------------
#NOTES:
     dance-single:
     :
     Challenge:
     10:
     0.800,0.986,0.920,0.567,0.131: // measure 1
0000
0000
0000
0000
,  // measure 2
0000
0000
0000
0000
,  // measure 3
0000
0000
0000
0000
,  // measure 4
0000
0000
0000
0000
,  // measure 5
0000
0000
0000
0000
0000
0000
0000
1000
,  // measure 6
1001
0001
0100
0011
,  // measure 7
1000
0010
0101
1000
,  // measure 8
0001
0000
0000
0000
0110
0000
0000
0000
2000
0000
3002
0000
1003
0100
1000
0100
,  // measure 9
100M
0000
1000
0100
0010
0000
0011
0000
,  // measure 10
0100
0010
1000
0000
0101
0000
1000
0000
,  // measure 11
0100
0010
0110
0000
0001
0000
1000
0001
,  // measure 12
1001
0000
1000
0010
0100
0000
0101
0000
,  // measure 13
0001
0100
0001
0000
0011
0000
1100
0000
,  // measure 14
1000
0000
0100
0000
1100
0000
1000
0000
0100
0000
0010
0000
0001
1000
0001
1000
,  // measure 15
0MM1
0000
1000
0100
0010
0000
0101
0000
,  // measure 16
0010
1000
0100
0000
0011
0000
0100
0000
,  // measure 17
0010
1000
1010
0000
0010
0000
0001
0000
,  // measure 18
0110
0000
1000
0010
0100
0000
0101
0000
,  // measure 19
1000
0100
0010
0000
0101
0000
1000
0000
,  // measure 20
0001
0000
0100
0000
0101
0000
0000
0000
0010
0000
0100
0000
0001
0100
0010
1000
,  // measure 21
0M01
0000
1000
0100
0001
0000
0101
0000
,  // measure 22
0001
0100
1000
0000
1010
0000
0010
0000
,  // measure 23
0100
0001
0101
0000
0001
0000
1000
0000
,  // measure 24
110M
0000
0001
0100
0010
0000
1100
0000
,  // measure 25
0001
0100
0001
0000
1MM1
0000
M11M
0000
,  // measure 26
1MM1
0000
1000
0000
11MM
0000
0100
0000
0010
0000
0001
0000
1000
0010
1000
0010
,  // measure 27
200M
0000
0M10
0010
000M
0000
3M02
0000
,  // measure 28
M100
0100
00M0
0000
2M03
0000
3100
0010
,  // measure 29
0001
0100
0M20
0000
100M
1000
0M00
0000
,  // measure 30
203M
0000
0M01
0001
00M0
0000
3M02
0000
,  // measure 31
M010
0010
0M00
0000
M023
0000
0130
1000
,  // measure 32
0010
0000
0100
0000
0002
0000
0000
0000
1003
0100
0010
0001
0100
0010
1000
0200
,  // measure 33
2000
0000
0010
0001
3300
0000
0202
0000
,  // measure 34
0010
1000
0303
0000
1001
0MM0
0001
0100
,  // measure 35
0010
1000
0220
0000
1000
0001
0330
0000
,  // measure 36
0202
0000
0010
1000
0000
0303
2200
0000
,  // measure 37
0010
0001
0000
3300
1001
0000
11MM
0100
,  // measure 38
M11M
0000
0010
0000
MM11
0000
0001
0000
1MM1
0000
1001
0000
1000
0100
1000
0100
,  // measure 39
100M
0100
0010
0010
M100
1000
1001
0001
,  // measure 40
1M00
1000
0010
0100
010M
0010
1000
0001
,  // measure 41
01M1
0001
1001
1000
010M
0010
0001
0100
,  // measure 42
M100
0001
0010
0010
0M01
1000
1010
1000
,  // measure 43
010M
0100
0010
0001
M001
0010
0100
1000
,  // measure 44
10M1
0000
0001
0000
1001
0000
0001
0000
M200
0000
0320
0000
1030
0100
0010
0001
,  // measure 45
1M00
0001
0100
0100
001M
0100
0110
0010
,  // measure 46
M001
0001
0010
1000
1M01
1000
0010
0100
,  // measure 47
M101
0001
1001
1000
001M
0100
0001
1000
,  // measure 48
10M0
0001
0100
0100
M001
0010
0011
0001
,  // measure 49
1M00
1000
0010
1000
1M00
0001
0100
0010
,  // measure 50
001M
0000
1000
0000
1010
0000
1000
0000
010M
0000
0010
0000
0001
0100
0001
0100
,  // measure 51
0001
1000
0101
0001
1001
0000
0110
0000
,  // measure 52
0011
0010
0110
0000
0011
0000
1001
0000
,  // measure 53
1100
1000
1001
0000
1010
0010
0110
0100
,  // measure 54
0101
0000
1100
0100
0110
0000
1001
0000
,  // measure 55
1001
0001
0101
0000
0110
0000
1010
0000
,  // measure 56
1100
0000
1000
0000
1001
0000
0000
0000
2000
0000
3002
0000
1003
0010
0100
0001
,  // measure 57
1000
0000
0101
0100
1100
0000
0110
0000
,  // measure 58
1001
1000
1100
0000
0101
0000
1001
0000
,  // measure 59
1100
0100
0110
0000
1001
1000
1001
0001
,  // measure 60
0101
0000
0110
1010
1001
0000
0101
0000
,  // measure 61
1100
0110
0011
0000
1MM1
0000
1M1M
0000
,  // measure 62
M11M
0000
0101
0000
11MM
0000
1100
0000
MM11
0000
0011
0000
0001
1000
0001
1000
,  // measure 63
00M2
0000
M100
0100
00M0
0000
2M03
0000
,  // measure 64
001M
0010
0M00
0000
302M
0000
0130
0001
,  // measure 65
1000
0100
M020
0000
0M01
0001
M000
0000
,  // measure 66
0M32
0000
M100
0100
00M0
0000
M203
0000
,  // measure 67
001M
0010
M000
0000
032M
0000
1030
0100
,  // measure 68
0001
0000
0010
0000
2000
0000
0000
0000
3001
0100
0010
1000
0100
0010
0001
0100
,  // measure 69
00M2
0000
10M0
0100
00M0
0000
2M03
0000
,  // measure 70
0M10
0001
0M00
3000
1001
0MM0
1000
0100
,  // measure 71
0010
0001
2002
0000
0010
0010
0000
3003
,  // measure 72
2200
0000
0010
0001
0000
3300
0202
0000
,  // measure 73
0010
1000
0000
0303
1MM1
0000
11MM
0100
,  // measure 74
M11M
0000
0010
0000
MM11
0000
0001
0000
1001
0000
1001
0000
1000
0100
0010
0001
,  // measure 75
2MM0
0000
0M1M
3020
MM0M
0000
MM32
0000
,  // measure 76
M1M0
0203
M0MM
1000
23MM
0000
31MM
0010
,  // measure 77
0002
0000
1003
MMMM
1000
0100
0010
0001
,  // measure 78
2MMM
0000
01MM
3200
M0MM
0000
M3M2
0000
,  // measure 79
MM10
0023
MM0M
1000
2M3M
0000
310M
0010
,  // measure 80
0002
0000
0000
0000
1003
0000
MMMM
0000
0002
0000
0203
0000
0310
1000
0100
0010
,  // measure 81
MM02
0000
M1M0
0203
M0MM
0000
23MM
0000
,  // measure 82
0M1M
3020
MM0M
0001
MM32
0000
10M3
0100
,  // measure 83
0002
0000
1003
MMMM
1000
0010
0100
0001
,  // measure 84
MMM2
0000
MM10
0023
MM0M
0000
2M3M
0000
,  // measure 85
01MM
3200
M0MM
0001
M3M2
0000
1M03
0010
,  // measure 86
1001
0000
0100
0000
1001
0000
0001
0000
2000
0000
3200
0000
0310
0001
1000
0001
,  // measure 87
2002
0000
0000
0000
,  // measure 88
0000
0000
0000
0000
,  // measure 89
0000
0000
0000
0000
,  // measure 90
3003
0000
0000
0000
;

//---------------dance-single - ----------------
#NOTES:
     dance-single:
     :
     Hard:
     7:
     0.559,0.600,0.714,0.197,0.000:
0000
0000
0000
0000
,
0000
0000
0000
0000
,
0000
0000
0000
0000
,
0000
0000
0000
0000
,
0000
0000
0000
0000
,
0000
0000
0000
0000
,
1001
1000
0001
1001
,
0100
0010
1010
0100
,
0001
0011
1000
0010
,
0101
1000
0100
0011
,
0100
0010
1100
0110
,
0011
0000
1001
0000
1000
0100
0010
0001
,
1001
0001
0100
0110
,
1000
0001
0101
0010
,
1000
1100
0100
0010
,
0011
0100
0010
1100
,
0001
0100
0011
1000
,
0100
0011
0100
0010
,
1001
0100
0010
1100
,
0010
0001
0110
1000
,
0100
0011
0100
0010
,
1100
0100
0010
0011
,
0100
0010
1100
1001
,
0101
0000
0110
0000
1000
0010
0100
0001
,
2001
0000
0001
3001
0000
0000
0002
0000
,
0100
0103
0000
0000
1001
0000
0001
0100
,
0010
1000
0200
0000
0001
0301
0000
0000
,
0102
0000
1000
1003
0000
0000
2001
0000
,
0010
3010
0000
0000
1001
0000
1000
0010
,
0100
0001
0020
0000
1000
1030
0000
0000
,
2001
0000
0100
3100
0000
0000
1002
0000
,
0100
0103
0000
0000
1001
0000
1000
0010
,
0100
0001
2000
0000
0001
3001
0000
0000
,
0102
0000
1000
1003
0000
0000
2001
0000
,
0010
3010
0000
0000
1100
0000
0110
0000
,
0011
0000
1001
0000
1000
0001
0100
0010
,
1000
0000
0100
0100
0000
0000
0010
0000
,
0001
0001
0000
1000
1000
0000
0010
0000
,
0100
0000
1001
0000
0001
0000
0100
0001
,
0001
0000
0100
0100
0000
0000
0010
0000
,
1000
1000
0000
0100
0100
0000
0010
0000
,
0101
0000
1010
0000
1000
0100
0010
0001
,
1001
0000
0100
0100
0000
0000
0001
0000
,
0010
0010
0000
1000
1000
0000
0010
0000
,
0101
0000
1010
0000
0001
0000
0100
1000
,
1000
0000
0100
0100
0000
0000
0010
0000
,
0001
0001
0000
0100
0110
0000
1001
0000
,
1100
0000
0011
0000
0001
0100
0010
1000
,
1001
0000
1000
0100
1000
0000
0010
0000
,
0100
0001
0010
0000
1000
0000
0100
0000
,
0010
0001
0100
0000
1000
0000
0010
0000
,
1001
0000
1000
0100
0010
0000
0001
0000
,
0100
0010
1000
0000
0001
0000
0100
0000
,
0010
1000
0100
0000
0001
0000
0100
0000
,
0110
0000
1000
0100
1000
0000
0010
0000
,
0100
0010
0100
0000
0001
0000
0010
0000
,
1000
0100
0010
0000
0001
0000
1000
0000
,
1001
0000
0010
0100
1000
0000
0001
0000
,
0100
0010
1000
0000
0101
0000
1001
0000
,
1100
0000
1001
0000
0001
0100
0010
1000
,
2001
0000
0010
3010
0000
0000
0002
0000
,
0100
0103
0000
0000
1001
0000
1000
0010
,
0100
0001
2000
0000
0100
3100
0000
0000
,
0020
0000
0100
0130
0000
0000
0200
0000
,
0001
0301
0000
0000
1001
0000
1000
0100
,
0001
0100
2000
0000
0010
3010
0000
0000
,
1002
0000
0010
0013
0000
0000
2000
0000
,
0001
3001
0000
0000
1100
0000
0001
0100
,
0010
1000
0002
0000
0100
0103
0000
0000
,
2001
0000
0100
3100
0000
0000
1002
0000
,
0010
0013
0000
0000
1100
0000
1001
0000
,
0101
0000
0110
0000
1000
0100
0010
0001
,
1001
0000
0001
0100
0000
0000
1001
0000
,
1000
0100
0000
0010
0001
0000
0100
0000
,
0110
0000
1001
0000
0001
0000
1000
0100
,
0010
0000
0001
0100
0000
0000
0110
0000
,
0010
1000
0000
0001
0100
0000
0010
0000
,
1100
0000
0011
0000
0001
0100
0010
1000
,
0001
0000
0010
0100
0000
0000
1001
0000
,
1000
0100
0000
0010
0001
0000
0100
0000
,
0110
0000
1001
0000
1000
0000
0010
1000
,
0100
0000
0010
0001
0000
0000
0101
0000
,
0001
0100
0000
0010
1010
0000
1100
0000
,
0011
0000
0101
0000
1000
0100
0010
0001
,
2002
0000
0000
0000
,
0000
0000
0000
0000
,
3003
0000
0000
0000
;

//---------------dance-single - ----------------
#NOTES:
     dance-single:
     :
     Medium:
     5:
     0.453,0.565,0.435,0.517,0.000:
0000
0000
0000
0000
,
0000
0000
0000
0000
,
0000
0000
0000
0000
,
0000
0000
0000
0000
,
0000
0000
0000
0000
,
0000
0000
0000
0000
,
1000
1000
1000
0001
,
0001
0001
0100
0100
,
0100
0010
0010
0010
,
1000
0100
1000
0001
,
0010
0001
0100
0010
,
0100
1000
0100
0010
,
1001
1000
0010
0100
,
0001
0010
0100
1000
,
0100
0010
0001
0100
,
0010
1000
0100
1000
,
0010
0100
0001
0010
,
0100
1000
0100
0010
,
0001
0100
0010
1000
,
0100
0001
0010
1000
,
0010
0100
0001
0010
,
0001
0100
1000
0010
,
0001
0100
0101
0101
,
1010
1010
1001
0101
,
2002
0000
3003
0202
,
0000
0000
0303
0000
1000
0000
0001
1000
,
0010
2002
0000
3003
,
2200
0000
3300
0022
,
0000
0000
0033
0000
1000
0000
0001
0100
,
1000
2200
0000
3300
,
0202
0000
0303
2020
,
0000
0000
3030
0000
1000
0000
0001
0100
,
0010
0220
0000
0330
,
0022
0000
0033
2002
,
0000
0000
3003
0000
1000
0000
0001
1000
,
0001
2002
0000
3003
,
1000
0000
0000
0100
0000
0000
0010
0000
,
0000
0001
0000
0000
0100
0000
0010
0000
,
1000
1000
0001
0100
,
0010
0000
0000
1000
0000
0000
0100
0000
,
0000
0010
0000
0000
0001
0000
0100
0000
,
0010
0000
0010
0000
1000
0010
0100
0001
,
1000
0000
0000
0100
0000
0000
0010
0000
,
0000
0001
0000
0000
0100
0000
0010
0000
,
0001
0001
0100
0010
,
1000
0000
0000
0010
0000
0000
0001
0000
,
0000
0100
0000
0000
1000
0000
0010
0000
,
0100
0000
0100
0000
0001
0010
0100
1000
,
0001
0100
0010
1000
,
0100
0010
0001
0100
,
0010
1000
0010
0100
,
1001
0010
0100
1000
,
0010
0100
0001
0010
,
0001
0100
0010
1000
,
1001
0010
0100
1000
,
0100
0010
0001
0100
,
1000
0100
0001
1000
,
1001
0010
0100
1000
,
0010
0100
0101
0101
,
1010
1010
1100
0011
,
2002
0000
3003
2200
,
0000
0000
3300
0000
0001
0000
0100
0010
,
1000
2002
0000
3003
,
0022
0000
0033
2200
,
0000
0000
3300
0000
0001
0000
1000
0100
,
0010
0022
0000
0033
,
2020
0000
3030
0202
,
0000
0000
0303
0000
1000
0000
0001
0100
,
0001
2002
0000
3003
,
0220
0000
0330
2002
,
0000
3003
1100
0110
,
0011
1001
1100
1001
,
1002
0000
0000
0203
0000
0000
0320
0000
,
0000
2030
0000
0000
3001
0000
0100
0010
,
0100
0000
0001
0000
1000
0000
0100
0010
,
0002
0000
0000
0203
0000
0000
0320
0000
,
0000
2030
0000
0000
3001
0000
0100
0010
,
0001
0000
1001
0000
1000
0100
0010
0001
,
2000
0000
0000
3020
0000
0000
0230
0000
,
0000
0302
0000
0000
1003
0000
0001
0100
,
0001
1001
1000
0010
,
2000
0000
0000
3020
0000
0000
0032
0000
,
0000
0103
0000
0000
1100
0000
0011
0000
,
0101
0000
1010
0000
1000
0001
1000
0001
,
2002
0000
0000
0000
,
0000
0000
0000
0000
,
3003
0000
0000
0000
;

//---------------dance-single - ----------------
#NOTES:
     dance-single:
     :
     Easy:
     3:
     0.294,0.353,0.025,0.205,0.000:
0000
0000
0000
0000
,
0000
0000
0000
0000
,
0000
0000
0000
0000
,
0000
0000
0000
0000
,
0000
0000
0000
0000
,
0000
0000
0000
0000
,
1000
0000
0000
0001
,
0000
0000
0100
0000
,
0000
0010
0000
0000
,
1000
0000
0000
0100
,
0000
0000
0010
0001
,
0100
0010
1000
0001
,
1001
1000
1000
0010
,
0010
0010
0100
0100
,
0100
0001
0001
0001
,
0100
0100
0100
0010
,
0010
0010
1000
1000
,
1000
0001
0001
0001
,
0010
0010
0010
0100
,
0100
0100
1000
1000
,
1000
0100
0100
0100
,
0010
0010
0010
0001
,
0001
0001
1000
0100
,
0010
0001
0100
0010
,
0002
0000
0003
2000
,
0000
3000
0010
0100
,
0001
2000
0000
3000
,
0002
0000
0003
0200
,
0000
0300
0001
0010
,
0100
2000
0000
3000
,
0002
0000
0003
0200
,
0000
0300
0010
1000
,
0100
0020
0000
0030
,
0002
0000
0003
2000
,
0000
3000
0001
0100
,
0010
1000
0100
0010
,
0001
0000
0000
1000
,
0000
0000
0001
0100
,
0010
0010
1000
0001
,
1000
0000
0000
0100
,
0000
0000
0010
0001
,
0100
0100
0010
1000
,
0001
0000
0000
0100
,
0000
0000
0010
1000
,
0100
0100
0010
0001
,
1000
0000
0000
0010
,
0000
0000
0100
0001
,
0010
0100
1000
0001
,
1001
1000
1000
0010
,
0010
0010
0100
0100
,
0100
0001
0001
0001
,
1000
1000
1000
0100
,
0100
0100
0010
0010
,
0010
0001
0001
0001
,
1000
0100
1000
0001
,
0010
0001
0100
0010
,
0100
0001
1000
0001
,
1000
0100
1000
0010
,
0100
0010
1000
0100
,
0010
0001
0100
0010
,
2000
0000
3000
0002
,
0000
0003
0100
0010
,
1000
0002
0000
0003
,
2000
0000
3000
0200
,
0000
0300
0010
0001
,
0100
0020
0000
0030
,
2000
0000
3000
0002
,
0000
0003
0100
0010
,
1000
0002
0000
0003
,
0020
0000
0030
0200
,
0000
0300
1000
0010
,
0100
0002
0000
0003
,
1000
0000
0000
0100
,
0000
0000
0010
0001
,
0100
0100
0010
1000
,
0001
0000
0000
0100
,
0000
0000
0010
1000
,
0001
0001
0100
0010
,
1000
0000
0000
0001
,
0000
0000
1000
0010
,
0100
0100
0001
0010
,
1000
0000
0000
0001
,
0000
0000
0100
0010
,
1000
1000
0010
0100
,
2002
0000
0000
0000
,
0000
0000
0000
0000
,
3003
0000
0000
0000
;

//---------------dance-single - ----------------
#NOTES:
     dance-single:
     :
     Beginner:
     1:
     0.156,0.241,0.033,0.000,0.000:
0000
0000
0000
0000
,
0000
0000
0000
0000
,
0000
0000
0000
0000
,
0000
0000
0000
0000
,
0000
0000
0000
0000
,
0000
0000
0000
0000
,
1000
0000
0000
0000
,
0000
0000
0001
0000
,
0000
0000
0000
0000
,
0100
0000
0000
0010
,
0000
0000
1000
1000
,
1000
1000
1000
0000
,
1001
0000
0000
0001
,
0000
0000
0100
0000
,
0000
0010
0000
0000
,
1000
0000
0000
0100
,
0000
0000
0010
0000
,
0000
0001
0000
0000
,
1000
0000
0000
0001
,
0000
0000
0010
0000
,
0000
0100
0000
0000
,
1000
0000
0000
0001
,
0000
0000
0100
0100
,
0100
0000
0010
0010
,
0010
0000
0000
0010
,
0000
0000
0100
0000
,
0001
0001
0000
0000
,
1000
0000
0000
0010
,
0000
0000
0100
0000
,
0001
0001
0000
0000
,
1000
0000
0000
0010
,
0000
0000
0100
0000
,
0010
0010
0000
0000
,
1000
0000
0000
0001
,
0000
0000
0100
0000
,
0000
0010
0010
0010
,
0010
0000
0000
1000
,
0000
0000
0001
0000
,
0100
0100
0000
0000
,
0010
0000
0000
1000
,
0000
0000
0001
0000
,
1000
1000
0000
0000
,
0010
0000
0000
0100
,
0000
0000
0001
0000
,
1000
1000
0000
0000
,
0100
0000
0000
0010
,
0000
0000
0001
0000
,
0010
0010
0000
0000
,
1000
0000
0000
0001
,
0000
0000
0100
0000
,
0000
0010
0000
0000
,
1000
0000
0000
0100
,
0000
0000
0010
0000
,
0000
0001
0000
0000
,
1000
0000
0000
0001
,
0000
0000
0100
0000
,
0000
0010
0000
0000
,
1000
0000
0000
0010
,
0000
0000
0100
0100
,
0100
0100
0100
0000
,
1001
0000
0000
0001
,
0000
0000
0100
0000
,
0010
0010
0000
0000
,
1000
0000
0000
0100
,
0000
0000
0010
0000
,
1000
1000
0000
0000
,
1001
0000
0000
0001
,
0000
0000
0100
0000
,
0010
0010
0000
0000
,
1000
0000
0000
0001
,
0000
0000
0100
0000
,
0010
0010
0000
0000
,
1000
0000
0000
0100
,
0000
0000
0010
0000
,
0001
0001
0000
0000
,
0010
0000
0000
0100
,
0000
0000
1000
0000
,
0001
0001
0000
0000
,
0100
0000
0000
0010
,
0000
0000
1000
0000
,
0001
0001
0000
0000
,
0100
0000
0000
0010
,
0000
0000
1000
0000
,
0001
0001
0000
0000
,
1001
0000
0000
0000
;
