#TITLE:You Should Drink Cucumber Flavoured Beer!;
#ARTIST:IOSYS;
#FILE:You Should Drink Cucumber Flavoured Beer!.ogg;
#BPM:180.001;
#GAP:-1107;
#SAMPLESTART:65.580;
#SAMPLELENGTH:16.000;
#CDTITLE:cdtitleGpop.png;
#SINGLE:SMANIAC:10:
00000000
00000000
00000000
00000000
00000004
B0602090
40803040
(6000A0004!40B!60B242)
40428090
28403040
28A06046
B0482030
62609010
(4020104020806464)
60428030
84209020
84708060
A0482030
42803040
(6020300080206284)
60426030
62407080
26306040
10628010
6260B0A0
(B040102080604848)
4!408800B!60
2200B!4018
628!804400
7!406600B!60
88009!80A4
(80206!6000B2862842!2)
4!4086103!30
8430B062
84A!A046A0
3!3084031!10
8601B012
(A0809060B0B04242)
428824B6
44822846
36B42862
26886474
22866824
(B060B0602!20A!807286)
462282A8
6684B482
36B48264
46226896
44844628
(8040704020806262)
6436B0A0
98A090B0
14B078A2
3012A0B0
B630A070
(1040B0004!40B!60B826)
403210A0
B41030B0
12A0B4B6
30A7B030
1A90B070
(A030101090906464)
6!602200B!40
88007!80A6
428!806600
9!6022003!20
8800A!8072
(60804!4000B2842862)
6!604200B!40
8604B042
86B!B0880B
1!1086013!30
8403B012
(A0809060B0B04286)
4!4087!8009!60
23!2041!4018
6!60B04286
4!4021!2003!60
89!8047!4018
(6!6000B0006!603!20A428)
6!6023!2001!40
87!8069!60B2
6!60B04826
6!6089!8007!40
21!2063!60B8
(B020B0604!401!20A646)
B!B0000000
00000000
00000000
B0000000
;
#SINGLE:MANIAC:7:
00000000
00000000
00000000
00000000
00000000
00000000
B04060B0
20807020
60904080
30402090
208010A0
90B04286
B06020A0
40603080
40102080
90208010
60209040
20902080
B0208010
8060A040
20902080
10208090
208010B0
30A04826
B!406B006!60
2300B062
842!206300
3!604B00B!40
8700B048
268!804700
B!402100B!60
2300B048
264!406B00
3!604B00B!40
870010A0
90B04628
40220080
66044080
20B06026
60220080
44022080
30704286
B0220060
88044080
30706024
40220080
6602A0B0
10906284
B0424080
26804020
86204080
B0428060
28406020
84206020
A0424080
28206080
42806040
B0824060
284030B0
10B06284
B!4087006!60
2300B048
264!402100
8!802A002!20
6300B042
624!408700
B!6089004!40
6B001062
846!602300
B!402100B!60
890010B0
30A04286
B06200B0
42086020
A0B06042
806200A0
84062080
10906284
608200B0
42086020
A0B04084
20860030
62087010
90304286
B!B0000000
00000000
B0000000
;
#SINGLE:ANOTHER:5:
00000000
00000000
00000000
00000000
00000000
00000000
40404060
60602020
20808080
40204060
80602080
20402080
B0408020
60802040
20806020
80402040
80206080
20402080
60208040
20608040
80206080
60204080
60203030
7070B030
B!B000B03!30
00304064
80B!B000B0
1!1000109!90
00904062
401!100010
3!3000307!70
00704062
80A!A000A0
9!900090B!B0
00B04064
60B!B000B0
40020080
06002080
40406020
80040020
08006020
80804826
40020080
06002080
60602080
40080060
02004080
20206824
60208040
20806020
80408020
B0802040
80206080
60208040
B0802040
20806020
40206040
B0802040
80203030
70701090
B!B000B01!10
00106028
40B!B000B0
9!9000901!10
00106042
809!900090
7!7000703!30
00304062
60B!B000B0
A!A000A0B!B0
00B010A0
90B010B0
B!6003!200A!80
07!400B028
20604028
6!6003!200A!80
07!400B028
60B04286
4!4007!800A!20
03!600B062
60B04080
4!4007!8009!60
03001090
30704646
B!B0000000
00000000
B0000000
;
#SINGLE:BASIC:3:
00000000
00000000
00000000
00000000
00000000
00000000
40000060
00002000
00800000
40000020
00008060
20804060
B0404080
80802020
20606060
20202080
80804040
40606060
80808020
20204040
40202020
80808060
60604020
80602080
6!6000604!40
00408020
604!400040
6!6000602!20
00206080
204!400040
6!6000602!20
00208040
208!800080
6!6000604!40
00406020
80402080
60000040
00006020
80804060
40000020
00008060
20208040
60000020
00008040
20208060
40000080
00002060
80204060
B0404080
80802020
20606060
40404020
20208080
80606060
40204060
80602080
20604060
40204080
20804020
80602080
4!4000406!60
00602080
406!600060
4!4000402!20
00208060
208!800080
4!4000406!60
00602080
406!600060
8!8000802!20
00204080
206!600060
40000020
00008060
20208040
60000020
00008040
60602080
40000060
00004080
20206080
40000060
00002080
40408020
B!B0000000
00000000
B0000000
;
#SINGLE:BEGINNER:1:
00000000
00000000
00000000
00000000
00000000
00000000
40000000
00006000
00000000
20000080
00004040
40404000
B0000060
00002000
00800000
40000020
00008000
00600000
40000060
00008000
00200000
40000060
00002020
20008080
80000080
00002000
60600000
40000080
00002000
60600000
40000080
00002000
80800000
40000060
00002000
00808080
80000040
00006000
20200000
80000040
00006000
40400000
80000020
00006000
40400000
20000080
00006000
80800000
40000060
00002000
00800000
40000020
00008000
00600000
40000060
00002000
00800000
40000080
00002020
20202000
B0000060
00002000
80800000
40000020
00008000
40400000
B0000060
00002000
80800000
40000060
00002000
80800000
40000020
00008000
60600000
80000020
00004000
60600000
20000080
00004000
60600000
20000080
00004000
60600000
B0000000
;
