#TITLE:Unknown Girl;
#SUBTITLE:;
#ARTIST:dBu Music;
#TITLETRANSLIT:;
#SUBTITLETRANSLIT:;
#ARTISTTRANSLIT:;
#CREDIT:;
#BANNER:unknowngirl-banner.jpg;
#BACKGROUND:unknowngirl-bg.jpg;
#LYRICSPATH:_lyric.lrc;
#CDTITLE:cdtitleGpop.png;
#MUSIC:unknowngirlcut.ogg;
#OFFSET:-1.240;
#SAMPLESTART:96.599;
#SAMPLELENGTH:22.700;
#SELECTABLE:YES;
#DISPLAYBPM:*;
#BPMS:0.000=148.000,37.333=116.400,37.375=140.000,38.333=108.001,38.375=120.001,39.500=154.001,72.000=170.001,137.000=85.003,145.000=170.004,179.000=120.004,185.000=125.004,187.000=130.004,189.000=135.004,191.000=140.004,193.000=145.004,197.000=150.004,203.000=155.004,205.000=160.004,207.000=165.004,211.000=170.004,307.000=154.004,345.167=121.004,345.188=120.004,363.000=155.004,371.000=160.004,377.000=165.004,385.000=170.004,459.000=85.003,467.000=170.004,499.000=155.004,505.000=157.504,509.000=160.004,521.000=165.004,525.000=170.004,531.000=82.503,547.000=165.003,611.000=132.503,643.000=120.003;
#STOPS:39.500=0.955
,497.000=0.030
,497.833=0.040
,498.667=0.060
;
#BGCHANGES:;

//---------------dance-single - ----------------
#NOTES:
     dance-single:
     :
     Hard:
     9:
     0.608,0.608,0.333,0.237,0.262:
0000
0000
0000
0000
,
0000
0000
0000
0000
,
0000
0000
0000
0000
,
0000
0000
0000
0000
,
0000
0000
0000
0000
,
1000
0000
0000
0010
0000
0000
0100
0000
0000
0001
0000
0000
1000
0000
0000
1000
,
0000
0000
1000
0000
1000
0000
0000
0010
0000
0000
0100
0000
0000
0001
0000
0000
,
0010
0000
0000
0010
0000
0000
0010
0000
0100
0000
0000
1000
0000
0000
0001
0000
,
0000
1000
0000
0000
0100
0000
0000
0100
0000
0000
0100
0000
1000
0000
0000
0100
,
0000
0000
0010
0000
0000
0001
0000
0000
1001
0000
0000
1001
0000
0000
1001
0000
,
1000
0010
1001
0010
,
1000
0100
0011
0100
,
0001
0001
0100
0100
0010
0010
1000
1000
,
0001
0001
0010
0010
0100
0100
1000
1000
,
1001
1100
0011
1001
,
1100
1001
0101
1001
,
1100
0110
0011
1001
,
1100
0110
2002
3003
,
1000
0100
1000
0100
1000
0000
0100
0000
0010
0000
0001
0000
0100
0000
0010
0000
,
1000
0010
0100
0001
0010
0100
1000
0100
,
1000
0000
0002
0000
0000
0000
0000
0000
0103
0000
0010
0000
1000
0000
0001
0010
,
0001
0000
0100
0000
0010
0000
1000
0000
0001
0010
0000
0002
0000
0000
0000
0000
,
0000
0000
1003
0100
0010
0001
0100
0010
,
1000
0100
1000
0010
0100
0001
0010
0001
,
0100
0000
0020
0000
0000
0000
0000
0000
1030
0000
0100
0000
0010
0000
0001
0100
,
0001
1000
2002
0000
0000
0000
0000
0000
,
3003
0000
1000
0100
0001
0100
1000
0010
,
0100
0001
0010
1000
0010
0001
0100
0010
,
1000
0000
0200
0000
0000
0000
0000
0000
0310
0000
0001
0000
0100
0000
0010
0100
,
0010
0000
1000
0000
0100
0000
0010
0000
0001
0100
0000
0002
0000
0000
0000
0000
,
0000
0000
1003
0010
0100
0001
0010
1000
,
0010
0001
0100
0010
1000
0100
0001
0100
,
1000
0000
0200
0000
0000
0000
0000
0000
1300
0000
0001
0000
0010
0000
0100
1000
,
0100
0010
2002
0000
0000
0000
0000
0000
,
3003
0000
1000
0100
0010
0001
0100
0010
,
1000
0010
0100
0001
0010
0100
1000
0100
,
0010
0001
1000
0000
0100
0000
0010
0000
,
0001
0000
0000
0200
0000
0000
0301
1000
0001
2000
0000
0000
,
0000
3001
0100
0010
,
1000
0000
0000
0002
0000
0000
1003
0100
1000
0200
0000
0000
,
0000
0310
0001
0100
,
0010
0000
0000
2000
0000
0000
3001
0100
0001
0200
0000
0000
,
0000
0301
0100
0010
,
1000
0000
0000
0000
0000
0000
0000
0000
0000
0000
0000
0000
0001
0000
0000
0000
0000
0000
0000
0000
0000
0000
0000
0000
1000
0000
0000
0000
0001
0000
0000
0000
1000
0000
0000
0000
0001
0000
0000
0000
0000
0000
0000
0000
0000
1001
0000
0000
,
0000
1001
0000
0000
0000
0000
1000
0100
,
1000
0100
0010
0001
0010
0001
1000
0010
,
1000
0010
0100
0001
0100
0001
1000
1000
,
0100
0100
0010
0010
0001
0001
0100
0100
,
0010
0010
1000
1000
0001
0001
1000
0001
,
1000
0010
1000
0100
1000
0010
0100
0001
,
0100
0010
0100
1000
0100
0010
0001
0010
,
0001
0100
0001
1000
0001
0100
0010
1000
,
0010
0100
0010
0001
0010
1000
0001
0000
,
0101
1000
1100
0001
,
0011
1000
1010
0100
,
1001
0100
0011
0100
,
1010
2002
3003
1000
,
0011
0100
1010
0001
,
0110
1000
0101
0010
,
1001
0100
0011
1100
,
0011
0000
2002
0000
3003
0000
1000
0100
,
0010
0001
0100
1000
0100
0001
0100
0010
,
1000
0100
0010
0001
1000
0002
0000
0000
,
0103
0000
0010
0000
1000
0000
0001
0010
0001
0000
0100
0000
0010
0000
1000
0000
,
0001
0100
0000
0002
0000
0000
0000
0000
0000
0000
0000
0000
1003
0000
0010
0000
,
0100
0001
0010
1000
0010
0100
1000
0010
,
0100
0001
1000
0010
0100
0002
0000
0000
,
0103
0000
0010
0000
1000
0000
0100
1000
0100
0000
1000
0000
2002
0000
0000
0000
,
0000
0000
0000
0000
3003
0000
1000
0100
,
0001
0100
0010
0001
0100
0010
1000
0010
,
0100
0001
0010
0100
1000
0020
0000
0000
,
1030
0000
0010
0000
0100
0000
0001
0100
0001
0000
1000
0000
0010
0000
0100
0000
,
0001
1000
0000
0002
0000
0000
0000
0000
0000
0000
0000
0000
1003
0000
0010
0000
,
0100
0001
0010
1000
0010
0001
0100
0010
,
1000
0001
0010
0100
1000
0002
0000
0000
,
1003
0000
0010
0000
0100
0000
0001
1000
0001
0000
0100
0000
2002
0000
0000
0000
,
0000
0000
0000
0000
0000
0000
0000
0000
3003
0000
0000
0000
1000
0000
0000
0100
,
0000
0000
0010
0000
0000
0001
0000
0000
1000
0000
0000
1000
0000
0000
1000
0000
,
0010
0000
0000
0100
0000
0000
0001
0000
0000
1000
0000
0000
0010
0000
0000
0010
,
0000
0000
0010
0000
0100
0000
0000
0001
0000
0000
0010
0000
0000
0100
0000
0000
,
1000
0000
0000
1000
0000
0000
1000
0000
0010
0000
0000
0100
0000
0000
0001
0000
,
0000
1000
0000
0000
0001
0000
0000
0001
0000
0000
0001
0000
1000
0100
0000
0100
,
0010
0000
0010
0001
0000
0001
1000
0000
0100
0000
0000
0100
0000
0000
0100
0000
,
1000
0010
0000
0010
0100
0000
0100
0001
0000
0001
1000
0000
0001
0000
0000
0001
,
0000
0000
0001
0000
0010
0100
0000
0100
1000
0000
1000
0010
0000
0010
0100
0000
,
0001
0000
0000
0001
0000
0000
0001
0000
1000
0010
0000
0010
0100
0000
0100
0001
,
0000
0001
1000
0000
0001
0000
0000
1001
0000
0000
1001
0000
0000
0000
0000
0000
;

//---------------dance-single - ----------------
#NOTES:
     dance-single:
     :
     Medium:
     7:
     0.475,0.512,0.237,0.207,0.137:
0000
0000
0000
0000
,
0000
0000
0000
0000
,
0000
0000
0000
0000
,
0000
0000
0000
0000
,
0000
0000
0000
0000
,
1000
0000
0000
1000
0000
0000
1000
0000
0000
1000
0000
0000
0001
0000
0000
0001
,
0000
0000
0001
0000
0100
0000
0000
0100
0000
0000
0100
0000
0000
0100
0000
0000
,
0010
0000
0000
0010
0000
0000
0010
0000
1000
0000
0000
1000
0000
0000
1000
0000
,
0000
1000
0000
0000
0001
0000
0000
0001
0000
0000
0001
0000
0010
0000
0000
0010
,
0000
0000
0010
0000
0000
0010
0000
0000
1000
0000
0000
0001
0000
0000
1001
0000
,
1000
0010
0100
0001
,
1000
0010
0100
0001
,
1000
0100
1000
0000
0001
0010
0001
0000
,
1000
0100
0010
0000
0001
0010
0100
0000
,
1000
0010
0100
0001
,
1000
0010
0100
0001
,
0010
0100
1000
0010
,
0100
0001
1000
0001
,
1001
1000
0010
0100
,
0001
0100
0000
0010
1000
0100
0010
0001
,
0000
2000
0000
0000
3100
0010
0001
0100
,
0010
1000
0001
0000
1000
0100
2000
0000
,
0000
0000
3001
0000
0100
0000
0010
1000
,
0000
0200
0000
0310
0001
1000
0001
0100
,
0000
0002
0000
0000
1003
0100
0010
0001
,
1000
0001
2002
0000
0000
0000
0000
0000
,
3003
1000
0100
0010
,
0001
0010
0000
0100
1000
0010
0100
0001
,
0000
2000
0000
0000
3001
0100
0010
1000
,
0100
0010
0001
0000
1000
0001
2000
0000
,
0000
0000
3001
0000
0100
0000
0010
1000
,
0000
0200
0000
0310
0001
0100
0010
1000
,
0000
0002
0000
0000
0103
0010
1000
0100
,
0010
0001
2002
0000
0000
0000
0000
0000
,
3003
1000
0100
0010
,
0001
0100
0010
1000
,
0001
1000
0010
0100
,
0001
0000
1000
0000
0001
1000
1001
0000
,
0000
0001
0100
0010
,
1000
0000
0010
0000
1000
0001
1001
0000
,
0000
1000
0100
0010
,
0001
0000
0100
0000
0001
1000
1001
0000
,
0000
0001
0100
0010
,
1000
0000
0000
0000
0001
0000
0000
0000
1000
0000
0100
0000
1000
0000
0000
0001
,
0000
1001
0000
0000
0000
0000
1000
0100
,
1000
0000
0001
0010
0001
0000
1000
0010
,
1000
0000
0001
0100
0001
0000
1000
0100
,
0010
0000
0001
0010
0100
0000
1000
0010
,
0100
0000
0001
0100
0010
0000
0000
1100
,
0000
0110
0000
0011
0000
1001
0000
1010
,
0000
0110
0000
0101
0000
1001
0000
1100
,
0000
0110
0000
0011
0000
1001
0000
1010
,
0000
0110
0000
0101
0000
1001
1000
0000
,
0100
0010
0001
0100
,
0010
1000
0001
1010
,
0100
0001
0010
0100
,
1000
2002
3003
0001
,
0100
0010
1000
0001
,
0100
0010
1000
0011
,
0100
0010
1000
0001
,
0100
2002
3003
1000
,
0001
0000
0100
0000
0001
0010
0000
0100
,
1000
0010
0100
0001
0000
2000
0000
0000
,
3010
0100
0001
0010
0100
1000
0001
0000
,
1000
0100
2000
0000
0000
0000
3001
0000
,
0100
0000
0010
1000
0000
0200
0000
0301
,
0100
0010
1000
0001
0000
0200
0000
0000
,
0310
1000
0100
0010
0001
1000
2002
0000
,
0000
0000
3003
1000
,
0100
0000
0010
0000
0001
0010
0000
0100
,
1000
0010
0100
0001
0000
2000
0000
0000
,
3001
0100
0010
1000
0100
0010
0001
0000
,
1000
0010
2000
0000
0000
0000
3001
0000
,
0100
0000
0010
1000
0000
2000
0000
3001
,
0100
0010
1000
0002
0000
0000
0103
0010
,
1000
0100
0010
0001
1000
0001
2002
0000
,
0000
0000
0000
0000
0000
0000
0000
0000
3003
0000
0000
0000
1000
0000
0000
1000
,
0000
0000
1000
0000
0000
1000
0000
0000
0001
0000
0000
0001
0000
0000
0001
0000
,
0100
0000
0000
0100
0000
0000
0100
0000
0000
0100
0000
0000
0010
0000
0000
0010
,
0000
0000
0010
0000
0100
0000
0000
0100
0000
0000
0100
0000
0000
0100
0000
0000
,
0001
0000
0000
0001
0000
0000
0001
0000
0100
0000
0000
0100
0000
0000
0100
0000
,
0000
0100
0000
0000
0010
0000
0000
0010
0000
0000
0010
0000
1000
0000
0000
0100
,
0000
0000
0010
0000
0000
0001
0000
0000
0100
0000
0000
0100
0000
0000
0100
0000
,
0010
0000
0000
1000
0000
0000
0010
0000
0000
0100
0000
0000
0001
0000
0000
0001
,
0000
0000
0001
0000
1000
0000
0000
0100
0000
0000
0010
0000
0000
0001
0000
0000
,
1000
0000
0000
1000
0000
0000
1000
0000
0010
0000
0000
0100
0000
0000
0001
0000
,
0000
1000
0000
0000
0001
0000
0000
1001
0000
0000
1001
0000
0000
0000
0000
0000
;

//---------------dance-single - ----------------
#NOTES:
     dance-single:
     :
     Challenge:
     12:
     1.000,1.000,1.000,0.222,0.846: // measure 1
0000
0000
0000
0000
,  // measure 2
0000
0000
0000
0000
,  // measure 3
0000
0000
0000
0000
,  // measure 4
0000
0000
0000
0000
,  // measure 5
0000
0000
0000
0000
,  // measure 6
1000
0100
1000
0001
0010
0001
1000
0010
1000
0001
0100
0001
1001
0000
0000
1001
,  // measure 7
0000
0000
1001
0000
1000
0010
1000
0001
0100
0001
1000
0100
1000
0001
0010
0001
,  // measure 8
0011
0000
0000
0011
0000
0000
0011
0000
1000
0100
0010
0001
1000
0100
0010
0001
,  // measure 9
1000
0100
0010
0001
1001
0000
0000
1001
0000
0000
1001
0000
0001
0010
0100
1000
,  // measure 10
0001
0010
0100
1000
0001
0010
0100
1000
1001
0000
0000
1001
0000
0000
1001
0000
,  // measure 11
1001
0000
1000
0000
0100
0010
0001
0100
0010
1000
0010
0100
0001
0100
0010
0000
,  // measure 12
1001
0000
0100
0000
0010
0001
0100
0010
1000
0100
1000
0010
0100
0001
1000
0000
,  // measure 13
1000
0011
0100
1010
0100
0011
0100
1100
,  // measure 14
0001
0110
1000
0101
0010
1100
0001
1001
,  // measure 15
1100
0100
0110
0010
0011
0001
1001
1000
,  // measure 16
1010
0010
0110
0100
0101
0001
1001
1000
,  // measure 17
1001
0001
0101
0100
0110
0010
1010
1000
,  // measure 18
1001
0001
1001
1000
1100
0100
0010
0001
,  // measure 19
0001
0100
0010
1000
0001
0000
0100
0000
0011
0000
1000
0000
0101
0000
0010
0000
,  // measure 20
1100
1100
0001
1100
0011
0101
1001
1100
,  // measure 21
0001
0000
0002
0000
0100
0000
0103
0000
0100
0000
0010
0000
1000
0000
0001
0010
,  // measure 22
0100
0000
1000
0000
0010
0000
0100
0000
0001
1000
0000
1001
0000
0000
1000
0100
,  // measure 23
0010
0001
0100
0010
1000
0000
0010
0000
0110
0000
0100
0000
0101
0000
0101
0000
,  // measure 24
0001
1001
1000
0100
0011
0011
1100
1100
,  // measure 25
0001
0000
2000
0000
0001
0000
3001
0000
0100
0000
0010
0000
1000
0000
0001
1000
,  // measure 26
0100
0000
0010
0000
1001
0000
0010
0000
0100
0000
0001
0000
0001
0000
1000
0010
,  // measure 27
0100
0001
1000
0010
1000
0000
0100
0000
0011
0000
1000
0000
0101
0000
0001
0000
,  // measure 28
1001
0101
0001
0100
0101
1001
1100
0110
,  // measure 29
0010
0000
0002
0000
1000
0000
1003
0000
0010
0000
0100
0000
0001
0000
1000
0010
,  // measure 30
0100
0000
0001
0000
1100
0000
0100
0000
0100
0010
0000
0110
0000
0000
0001
0100
,  // measure 31
0010
1000
0100
0010
0M02
0000
1000
0000
2M03
0000
0010
0000
301M
0000
0200
0000
,  // measure 32
M001
0302
00M0
1003
0100
0010
0001
2000
,  // measure 33
0010
0000
3002
0000
1000
0000
1003
0000
0010
0000
0100
0000
0001
0000
1000
0100
,  // measure 34
1000
0000
0010
0000
1001
0000
1000
0000
0100
0000
0010
0000
0001
0000
1000
0010
,  // measure 35
0100
0000
0000
0001
0000
0000
0010
0000
0000
0100
0000
0000
1000
0000
0100
0000
0010
0000
0001
0000
0100
0000
0010
0000
1000
0000
0010
0000
0100
0000
0001
0000
0010
0000
0100
0000
1000
0000
0010
0000
0100
0000
0001
0000
1000
0000
0100
0000
,  // measure 36
0010
0001
0100
0010
1000
0010
1000
0001
0010
0100
1000
0010
0100
0001
0010
0001
0100
0010
1000
0100
0010
0001
0100
0010
,  // measure 37
1000
0001
0010
0100
1000
0100
1000
0000
0100
0000
1000
0000
0100
0000
1000
0000
0100
0000
0010
0000
0001
0000
0010
0000
,  // measure 38
0001
0010
0001
1000
0010
1000
0001
0010
0100
2000
0000
0000
,  // measure 39
0000
0000
0000
3001
0000
0000
1000
0000
0100
0000
0010
0000
0001
0000
0100
0000
0010
0000
1000
0000
0010
0000
0100
0000
,  // measure 40
0001
0010
0100
1000
0010
1000
0100
0010
0001
2000
0000
0000
,  // measure 41
0000
0000
0000
3001
0000
0000
1000
0000
0010
0000
1000
0000
0010
0000
1000
0000
0010
0000
0100
0000
0001
0000
0100
0000
,  // measure 42
0001
0100
0001
1000
0100
0010
0001
0100
0010
2000
0000
0000
,  // measure 43
0000
0000
0000
3001
0000
0000
1000
0000
0100
0000
0010
0000
0001
0000
0010
0000
0100
0000
1000
0000
0010
0000
0100
0000
,  // measure 44
0001
0000
0000
0000
0010
0000
0000
0000
0001
0000
0000
0000
0100
0000
0000
0000
0010
0000
0000
0000
1000
0000
0000
0000
0010
0000
0000
0000
1000
0000
0000
0000
0100
0000
0000
0000
1100
0000
0000
0000
0000
0000
0000
0000
0000
1100
0000
0000
,  // measure 45
0000
1100
MMMM
0000
0000
0000
1000
0010
,  // measure 46
1000
0000
0100
0010
0001
0100
0010
1000
0001
0010
0100
0000
1000
0000
0010
0000
,  // measure 47
0100
0000
0001
0010
0100
1000
0010
0100
0001
0100
0010
0000
1000
0000
1000
0000
,  // measure 48
0100
0100
0010
0010
0001
0001
0100
0100
,  // measure 49
0010
0010
1000
1000
0001
0001
1000
0011
,  // measure 50
0100
0000
0001
0100
0010
1000
0010
0100
0001
0010
0100
0000
1000
0000
0011
0000
,  // measure 51
1000
0000
0001
0100
0010
1000
0010
0100
0001
0010
0001
0000
1000
0000
1100
0000
,  // measure 52
0100
0110
0010
0011
0001
1001
1000
1010
,  // measure 53
0010
0110
0100
0101
0001
1001
11MM
0000
,  // measure 54
1MM1
M1M1
M11M
1M1M
,  // measure 55
1MM1
M1M1
1MM1
11MM
,  // measure 56
M11M
MM11
1MM1
M11M
,  // measure 57
1M1M
0000
2MM2
0000
0000
3003
1MM1
0000
,  // measure 58
11MM
M11M
MM11
11MM
,  // measure 59
1MM1
11MM
1MM1
M1M1
,  // measure 60
11MM
M11M
MM11
M11M
,  // measure 61
1MM1
0000
2M12
0000
0000
3003
1100
0100
,  // measure 62
0110
0010
0011
0001
1001
1100
0100
0110
,  // measure 63
0011
1001
1010
1001
0001
2000
0010
3010
,  // measure 64
0100
0000
0001
0000
1000
0000
0001
0100
0001
0000
0010
0000
0100
0000
1000
0000
,  // measure 65
1000
0100
0000
1100
0000
0000
0010
1000
0100
0010
0001
0000
1001
0000
1000
0000
,  // measure 66
1010
0010
1001
1001
1000
1100
0100
0110
,  // measure 67
0110
1001
1001
1100
1000
0002
0010
0013
,  // measure 68
0100
0000
1000
0000
0010
0000
1000
0100
1000
0000
0010
0000
2002
0000
0000
0000
,  // measure 69
0000
0000
0000
0000
3003
0000
1000
0100
0010
0001
0010
0100
1000
0000
0010
0000
,  // measure 70
1001
0001
1100
0010
0101
0101
0010
1100
,  // measure 71
0110
0011
1001
1001
0001
2000
0001
3001
,  // measure 72
0100
0000
0010
0000
1000
0000
0010
0100
0001
0000
0010
0000
0100
0000
1000
0000
,  // measure 73
0001
1000
0000
1001
0000
0000
0001
0100
0010
1000
0100
0010
M002
0000
1000
0000
,  // measure 74
2M03
0010
301M
0200
00M1
0302
1000
1003
,  // measure 75
0010
0100
0001
1001
1000
0002
0100
0103
,  // measure 76
0010
0000
1000
0000
0001
0000
1000
0010
0100
0000
0001
0000
2002
0000
0000
0000
,  // measure 77
0000
0000
0000
0000
0000
0000
0000
0000
0000
0000
3003
0000
1000
0100
1000
0001
,  // measure 78
0010
0001
1000
0010
1000
0001
0100
0001
1001
0000
0000
1001
0000
0000
1001
0000
,  // measure 79
1000
0100
0010
0001
1000
0100
0010
0001
1000
0100
0010
0001
1001
0000
0000
1001
,  // measure 80
0000
0000
1001
0000
0001
0010
0001
1000
0100
1000
0001
0100
0001
1000
0010
1000
,  // measure 81
1001
0000
0000
1001
0000
0000
1001
0000
0001
0010
0100
1000
0001
0010
0100
1000
,  // measure 82
0001
0010
0100
1000
1001
0000
0000
1001
0000
0000
1001
0000
1000
0010
0100
0001
,  // measure 83
0010
0100
1000
0100
0010
0001
0100
0001
0101
0000
0000
0101
0000
0000
0101
0000
,  // measure 84
0001
1000
0010
0100
0001
0010
0100
1000
0100
0010
0001
1000
1001
0000
0000
1001
,  // measure 85
0000
0000
1001
0000
1000
0010
0100
0001
0100
1000
0100
0001
0010
0100
1000
0010
,  // measure 86
1010
0000
0000
1010
0000
0000
1010
0000
1000
0100
0001
0100
1000
0010
0001
0010
,  // measure 87
1000
0100
0010
0001
1001
0000
0000
1001
0000
0000
2002
0000
0000
0000
3003
0000
;

//---------------dance-single - ----------------
#NOTES:
     dance-single:
     :
     Easy:
     4:
     0.316,0.352,0.067,0.163,0.030:
0000
0000
0000
0000
,
0000
0000
0000
0000
,
0000
0000
0000
0000
,
0000
0000
0000
0000
,
0000
0000
0000
0000
,
1000
0000
0000
0001
,
0001
0001
0000
0000
,
1000
1000
1000
0000
,
0000
0010
0010
0010
,
0000
0000
0000
0000
0100
0000
0000
0100
,
0100
0001
1000
0001
,
0100
0001
0010
0100
,
0000
0001
0000
0010
0000
0100
0000
1000
,
0000
0100
0000
0010
0000
0001
0000
1000
,
1000
0001
0100
0010
,
1000
0100
0010
0001
,
1010
0100
0001
0010
,
0100
1000
0002
0000
,
2003
3001
0100
0010
,
1000
0100
0010
0001
,
0100
1001
0010
0100
,
1000
0100
0010
0002
,
0000
1003
0010
0100
,
0001
0100
0010
1000
,
0100
0010
0001
0100
,
0010
2002
0000
0000
,
3003
1000
0100
0010
,
0001
0010
0100
1000
,
0010
0100
0001
0010
,
0100
1000
0100
2000
,
0000
3010
0100
0001
,
0010
0100
1000
0100
,
0010
0001
0100
0010
,
1000
2002
0000
0000
,
3003
1000
1000
1000
,
1000
0001
0001
0001
,
0001
1000
0000
0010
,
0000
0100
0001
2000
,
0000
3001
0000
0100
,
0000
0010
1000
0002
,
0000
1003
0000
0100
,
0000
0010
0001
0200
,
0000
0301
0000
1000
,
0000
0001
1000
0020
,
0000
1030
0000
0001
,
0000
1000
0000
0100
,
0000
0010
0000
0001
,
0001
0100
0100
0010
,
0010
0000
1000
0000
1000
0000
0000
0001
,
0000
0100
0000
0010
0000
1000
0000
0100
,
0000
0010
0000
0001
0000
0100
0000
0010
,
0000
1000
0000
0010
0000
0100
0000
0001
,
0000
0010
0000
0100
0000
1000
0000
0001
,
0001
0100
0010
1000
,
0100
0010
0001
0100
,
0010
1000
0010
0100
,
0001
1000
2002
3003
,
0001
0100
0010
1000
,
0100
0010
0001
0100
,
0010
1000
0010
0100
,
0001
2002
3003
0001
,
1000
0001
0100
0010
,
1000
0100
0010
0001
,
0100
0010
1000
0010
,
0100
0002
0000
1003
,
0001
0100
0010
1000
,
0100
0010
0001
0100
,
0010
1000
0001
2002
,
0000
0000
3003
1000
,
0100
0010
0001
0100
,
0010
1000
0100
0001
,
0100
1000
0010
0100
,
0001
2000
0000
3001
,
0100
0010
1000
0100
,
0001
0010
1000
0010
,
0100
0001
1000
2002
,
0000
0000
3003
1000
,
0000
0000
0000
0000
0000
0000
0000
0000
0001
0000
0000
0001
0000
0000
0001
0000
,
0000
0000
0000
0000
0000
0000
0000
0000
0000
0000
0000
0000
0100
0000
0000
0100
,
0000
0100
0000
0000
0000
0000
0000
0000
,
0010
0000
0000
0010
0000
0000
0010
0000
0000
0000
0000
0000
0000
0000
0000
0000
,
0000
0000
0000
0000
1000
0000
0000
1000
0000
0000
1000
0000
0000
0000
0000
0000
,
0000
0000
0000
0000
0000
0000
0000
0000
0001
0000
0000
0001
0000
0000
0001
0000
,
0000
0000
0000
0000
0000
0000
0000
0000
0000
0000
0000
0000
0100
0000
0000
0100
,
0000
0100
0000
0000
0000
0000
0000
0000
,
0010
0000
0000
0010
0000
0000
0010
0000
0000
0000
0000
0000
0000
0000
0000
0000
,
0000
0000
0000
0000
1000
0000
0000
0001
0000
0000
1001
0000
0000
0000
0000
0000
;

//---------------dance-single - ----------------
#NOTES:
     dance-single:
     :
     Beginner:
     2:
     0.187,0.256,0.052,0.000,0.000:
0000
0000
0000
0000
,
0000
0000
0000
0000
,
0000
0000
0000
0000
,
0000
0000
0000
0000
,
0000
0000
0000
0000
,
1000
0000
0000
0001
,
0000
0001
0000
0000
,
0100
0000
0100
0000
,
0000
0010
0000
0010
,
0000
0000
1000
0000
,
0001
0000
0100
0000
,
0010
0000
1000
0000
,
0100
0100
0100
0000
,
0010
0010
0010
0000
,
1000
0000
0001
0000
,
0100
0000
0010
0000
,
1000
0000
0001
0000
,
1000
1000
1000
0000
,
0000
0001
0000
0100
,
0000
0010
0000
1000
,
0000
0100
0000
0010
,
0000
0001
0000
1001
,
0000
1000
0000
0010
,
0000
0100
0000
0001
,
0000
0010
0000
0100
,
0000
1001
0000
0000
,
0000
1000
0000
0010
,
0000
0100
0000
0001
,
0000
0010
0000
0100
,
0000
1000
0000
1001
,
0000
0010
0000
1000
,
0000
0100
0000
0010
,
0000
0001
0000
1000
,
0000
1001
0000
0000
,
0000
1000
0000
0000
,
0000
0001
0000
0000
,
0000
1000
0000
0000
,
0000
0001
0000
1000
,
0000
0010
0000
0000
,
0000
1000
0000
0100
,
0000
0010
0000
0000
,
0000
0001
0000
0100
,
0000
0010
0000
0000
,
0000
1000
0000
0001
,
0001
0001
0000
1000
,
0000
0010
0000
0100
,
0000
0001
0000
1000
,
0000
0100
0000
0010
,
0000
0001
0000
1000
,
1000
1000
0000
0001
,
0001
0001
0000
0100
,
0100
0100
0000
0010
,
0010
0010
0000
1000
,
1000
1000
1000
1000
,
1000
1000
0000
0001
,
0001
0001
0001
0001
,
0001
0001
0000
0100
,
0100
0100
0100
0100
,
0100
0100
0000
0010
,
0010
0010
0010
0010
,
0010
0010
0000
1000
,
0000
0100
0000
0010
,
0000
0001
0000
0100
,
0000
0010
0000
1000
,
1000
1000
0000
0001
,
0000
0100
0000
0010
,
0000
1000
0000
0100
,
0000
0010
0000
1001
,
0000
0000
0000
0001
,
0000
0100
0000
0010
,
0000
1000
0000
0001
,
0000
0010
0000
0100
,
0100
0100
0000
1000
,
0000
0010
0000
0100
,
0000
0001
0000
1000
,
0000
0001
0000
1001
,
0000
0000
0000
1000
,
0000
0000
0001
0000
,
0001
0000
0000
0100
,
0000
0100
0000
0000
,
0001
0000
0001
0000
,
0000
0100
0000
0100
,
0000
0000
0010
0000
,
0010
0000
0000
1000
,
0000
1000
0000
0000
,
0010
0000
0010
0000
,
0000
0100
0000
1001
;
