#TITLE:U.N Owen Was Her?;
#SUBTITLE:;
#ARTIST:ZUN;
#TITLETRANSLIT:;
#SUBTITLETRANSLIT:;
#ARTISTTRANSLIT:;
#CREDIT:;
#BANNER:unowenwh-banner.jpg;
#BACKGROUND:unowenwh-bg.jpg;
#LYRICSPATH:;
#CDTITLE:cdtitleGpop.png;
#MUSIC:unowen.ogg;
#OFFSET:-1.040;
#SAMPLESTART:98.240;
#SAMPLELENGTH:12.200;
#SELECTABLE:YES;
#BPMS:0.000=155.000,136.000=151.200,156.000=151.220,184.000=155.000;
#STOPS:247.500=0.760
;
#BGCHANGES:;

//---------------dance-single - ----------------
#NOTES:
     dance-single:
     :
     Challenge:
     11:
     0.878,0.932,0.566,1.000,0.618: // measure 1
0000
0000
0000
0000
,  // measure 2
0000
0000
0000
0000
,  // measure 3
0000
0000
0000
0000
,  // measure 4
0000
0000
0000
0000
,  // measure 5
0000
0000
0000
0000
,  // measure 6
1000
0100
0010
0001
0010
0100
1000
0100
0010
0001
0010
0100
1100
0000
0000
1100
,  // measure 7
0000
0000
1100
0000
0001
0010
0100
1000
0100
0010
0001
0010
0100
1000
0100
0010
,  // measure 8
0011
0000
0000
0011
0000
0000
0011
0000
1000
0010
0100
0001
0100
0010
1000
0010
,  // measure 9
0100
0001
0100
0010
1010
0000
0000
1010
0000
0000
1010
0000
0001
0100
0010
1000
,  // measure 10
0010
0100
0001
0100
0010
1000
0010
0100
0101
0000
0000
0101
0000
0000
0101
0000
,  // measure 11
1MM1
11MM
M11M
MM11
,  // measure 12
1MM1
1M1M
M11M
M1M1
,  // measure 13
1000
1010
0010
0110
0100
0101
0001
1001
,  // measure 14
1000
0000
1000
0100
0000
0010
0001
0010
0000
0010
0001
0000
0100
0010
1000
0001
,  // measure 15
2000
0001
3002
0100
0203
0010
0320
1000
,  // measure 16
2030
0100
3200
0010
0320
0001
0032
1000
,  // measure 17
2003
0010
3020
0100
0230
0001
0302
1000
,  // measure 18
2003
0000
3001
0100
0000
0010
1000
0100
0000
0100
0010
0000
0010
0001
0100
0010
,  // measure 19
200M
3M20
023M
M302
,  // measure 20
20M3
0000
3100
0010
M002
0000
20M3
0000
,  // measure 21
3M02
0000
1000
0000
1003
0000
0010
0000
1000
0000
0100
0010
0001
0000
1000
0000
,  // measure 22
1001
0001
0101
0100
0220
0000
0000
0330
,  // measure 23
200M
3M20
M230
03M2
,  // measure 24
20M3
0000
3100
0010
M002
0000
2M03
0000
,  // measure 25
30M2
0000
0100
0000
0103
0000
0010
0000
1000
0000
0001
0100
0010
0000
1000
0000
,  // measure 26
2002
0000
0000
0000
0000
0000
0000
3003
,  // measure 27
1M02
02M3
M320
203M
,  // measure 28
3M02
0000
0103
0010
200M
0000
30M2
0000
,  // measure 29
M203
0000
0010
0000
0310
0000
1000
0000
0001
0000
1000
0100
1000
0000
0100
0000
,  // measure 30
1100
0100
0110
0010
0022
0000
0000
0033
,  // measure 31
M102
02M3
032M
2M30
,  // measure 32
320M
0000
0301
0100
20M0
0000
3M02
0000
,  // measure 33
2M03
0000
0010
0000
3010
0000
0100
0000
0001
0000
1000
0001
0100
0000
0001
0000
,  // measure 34
1001
0000
1000
0100
0010
0000
0001
0100
0000
0100
0010
0000
0110
0000
1001
0000
,  // measure 35
1000
0100
0010
0001
0010
0100
1000
0100
0010
0001
0010
0100
,  // measure 36
1000
0100
0010
0001
0010
0100
1000
0100
0010
0001
0010
0100
,  // measure 37
1000
0010
0100
0001
0100
0010
1000
0010
0100
0001
0100
0010
,  // measure 38
1000
0010
0100
0001
0100
0010
1000
0010
0100
0001
0100
0010
,  // measure 39
1000
0100
0010
0001
0100
0010
1000
0010
0100
0001
0010
0100
,  // measure 40
1000
0000
0000
0000
0100
0000
0000
0000
0010
0000
0000
0000
0001
0000
0000
0000
0100
0000
0000
0000
0001
0000
0000
0000
0200
0000
0000
0000
0000
0000
0000
0000
0000
0000
0000
0000
0000
0000
0000
0000
0000
0000
0301
0000
0000
1000
0000
0000
,  // measure 41
0001
0100
0010
1000
0100
0010
0001
0010
0100
1000
0010
0100
,  // measure 42
0001
0000
0000
0000
0010
0000
0000
0000
0100
0000
0000
0000
1000
0000
0000
0000
0100
0000
0000
0000
1000
0000
0000
0000
0200
0000
0000
0000
0000
0000
0000
0000
0000
0000
0000
0000
0310
0000
0000
0100
0000
0000
0000
0000
0000
1000
0000
0000
,  // measure 43
0001
0001
0100
0010
1000
0001
0011
0010
0100
1000
0100
0010
,  // measure 44
0011
0000
0000
0000
0001
0000
0000
0000
0100
0000
0000
0000
0010
0000
0000
0000
1000
0000
0000
0000
0001
0000
0000
0000
2002
0000
0000
0000
0000
0000
0000
0000
0000
0000
0000
0000
3000
0000
0000
0000
0000
0000
1003
0000
0000
0100
0000
0000
,  // measure 45
1000
1000
0100
0010
0001
0100
0110
0010
1000
0100
0010
0001
,  // measure 46
1001
0000
1000
0100
0010
0000
0001
1000
1001
0000
0000
1001
0000
0000
1001
0000
,  // measure 47
200M
0001
3M02
0100
,  // measure 48
02M3
0010
M320
1000
,  // measure 49
1030
0000
1100
0000
0100
0000
0110
0000
0010
0000
0010
0001
1000
0000
1001
0000
,  // measure 50
1000
0000
0001
0100
0000
0100
0010
1000
0000
1000
0100
0000
0100
0010
0001
0100
,  // measure 51
0001
1001
1000
1010
0010
0110
0100
0101
,  // measure 52
0001
1001
1000
1100
0100
0110
0010
0011
,  // measure 53
0001
0000
0101
0000
0100
0000
0110
0000
0010
0000
0010
1000
0100
0000
1100
0000
,  // measure 54
0100
0000
0010
0001
0000
0001
1000
0100
0000
0010
0001
0000
0001
0100
0010
1000
,  // measure 55
00M2
1000
2M03
0010
302M
0100
M230
0001
,  // measure 56
03M2
1000
20M3
0100
320M
0010
M320
0001
,  // measure 57
0M32
0010
M023
0100
023M
1000
23M0
0001
,  // measure 58
30M2
0100
M203
0010
002M
0000
0000
0330
,  // measure 59
20M0
0100
320M
0010
M320
0001
0M32
0010
,  // measure 60
M023
0100
023M
1000
23M0
0001
3M02
1000
,  // measure 61
2M03
0010
302M
0100
M230
0001
03M2
1000
,  // measure 62
2M03
0001
30M2
1000
2M00
0000
0000
3003
,  // measure 63
210M
3M02
02M3
M320
,  // measure 64
203M
0000
3001
0100
M020
0000
2M30
0000
,  // measure 65
30M2
0000
0100
0000
0103
0000
0010
0000
1000
0000
0001
0010
0100
0000
1000
0000
,  // measure 66
1100
0100
0110
0010
0022
0000
0000
0033
,  // measure 67
10M2
M203
032M
2M30
,  // measure 68
30M2
0000
0013
0100
2M00
0000
302M
0000
,  // measure 69
M230
0000
0001
0000
0301
0000
1000
0000
0010
0000
0100
0010
1000
0000
0001
0000
,  // measure 70
2002
0000
0000
0000
0000
0000
0000
3003
,  // measure 71
210M
32M0
M320
0M32
,  // measure 72
02M3
0000
1300
0100
M002
0000
0M23
0000
,  // measure 73
203M
0000
0010
0000
3010
0000
0001
0000
0100
0000
0010
1000
0100
0000
0010
0000
,  // measure 74
0011
0001
1001
1000
2020
0000
0000
3030
,  // measure 75
2M10
302M
M230
03M2
,  // measure 76
M023
0000
1030
0010
0M02
0000
02M3
0000
,  // measure 77
032M
0000
1000
0000
1030
0000
0100
0000
0001
0000
0100
1000
0001
0000
1000
0000
,  // measure 78
1001
0000
1000
0100
0010
0001
0100
0010
1000
0010
0100
0001
0010
0100
1000
0001
,  // measure 79
1001
0000
0000
0000
;

//---------------dance-single - ----------------
#NOTES:
     dance-single:
     :
     Hard:
     8:
     0.556,0.590,0.422,0.303,0.116:
0000
0000
0000
0000
,
0000
0000
0000
0000
,
0000
0000
0000
0000
,
0000
0000
0000
0000
,
0000
0000
0000
0000
,
1000
0000
0000
0100
0000
0000
0010
0000
0000
0001
0000
0000
1000
0000
0000
1000
,
0000
0000
1000
0000
0010
0000
0000
0100
0000
0000
0001
0000
0000
1000
0000
0000
,
0100
0000
0000
0100
0000
0000
0100
0000
0010
0000
0000
0001
0000
0000
0100
0000
,
0000
0010
0000
0000
1000
0000
0000
1000
0000
0000
1000
0000
0001
0000
0000
0100
,
0000
0000
0010
0000
0000
1000
0000
0000
0001
0000
0000
0001
0000
0000
0001
0000
,
1000
1100
0100
0110
,
0010
0011
0001
1001
,
1000
1000
0100
0100
0010
0010
0001
0001
,
0100
0100
0010
0010
1000
1000
0001
0001
,
0101
0101
0110
0110
,
1010
1010
1001
1001
,
1100
1100
0110
0110
,
0011
0110
2002
3003
,
1000
0001
0100
0010
,
1000
0000
0001
0010
0100
0000
1000
0000
,
0020
0000
0000
0000
1030
0000
0100
0000
0010
0000
0001
0010
0001
0000
0100
0000
,
0010
0010
1000
1000
0002
0000
0000
0000
,
1003
0100
0010
0001
,
1000
0000
0010
0100
0001
0000
1000
0000
,
0002
0000
0000
0000
0103
0000
0010
0000
1000
0000
0001
0010
0001
0000
0100
0000
,
2002
0000
0000
3003
,
1000
0010
0100
0001
,
1000
0000
0010
0100
0001
0000
1000
0000
,
0200
0000
0000
0000
0310
0000
0001
0000
1000
0000
0100
0010
0100
0000
1000
0000
,
0001
0001
0100
0100
0020
0000
0000
0000
,
1030
0100
0001
0010
,
1000
0000
0001
0100
1000
0000
0100
0000
,
0002
0000
0000
0000
1003
0000
0010
0000
0100
0000
0001
0100
0001
0000
1000
0000
,
2002
0000
0000
3003
,
1000
0100
0001
0010
,
1000
0100
0001
0010
,
1000
0010
0001
0100
,
1000
0010
0001
0100
,
1000
1000
0001
0001
,
2000
0000
0000
0000
0000
0000
3001
0000
0100
0000
0001
0000
0200
0000
0000
0000
0000
0000
0000
0000
0000
0310
0000
0000
,
1000
0100
0010
0001
,
0200
0000
0000
0310
1000
0010
2000
0000
0000
3000
0000
0000
,
0101
0010
1100
0001
,
1002
0000
0000
0000
0000
0000
1003
0000
0100
0000
1000
0000
0200
0000
0000
0000
0000
0000
0000
0000
0000
1300
0000
0000
,
1001
0010
1100
0010
,
0101
0000
0000
0000
0000
0000
0000
0000
0000
0000
0000
0000
0001
0000
0000
0000
1000
0000
0000
0000
0001
0000
0000
0000
1000
0000
0000
0000
0000
0000
0000
0000
0000
1001
0000
0000
0000
0000
0000
0000
0000
0000
1001
0000
0000
0000
0000
0000
,
0002
0100
2003
0010
,
3200
0010
0302
0010
,
1003
0100
1000
0100
0010
0001
0010
0001
,
1000
0010
1000
0010
0100
0001
0100
0001
,
1000
0001
1000
0001
0100
0010
0100
0010
,
1000
0100
1000
0100
0010
0001
0010
0001
,
1000
0010
1000
0010
0100
0001
0100
0001
,
1000
0001
1000
0001
0100
0010
0100
0010
,
1000
1000
0100
0100
0010
0010
0001
0001
,
0100
0100
0010
0010
1000
1000
0010
0010
,
0100
0100
0001
0001
0100
0100
1000
1000
,
0100
0100
0001
0001
2002
0000
3000
0000
,
0013
0010
0100
0100
1000
1000
0001
0001
,
0100
0100
0010
0010
1000
1000
0100
0100
,
0010
0010
0001
0001
1000
1000
0001
0001
,
0100
0100
0010
0010
2002
0000
0000
3003
,
1100
0100
0011
0001
,
1001
0000
1000
0010
0100
0000
1001
0000
,
2000
0000
0000
0000
3010
0000
0100
0000
0001
0000
1000
0100
1000
0000
0010
0000
,
0100
0100
0001
0001
2002
0000
3003
0000
,
1000
1100
0001
0101
,
1010
0000
0001
1000
0100
0000
0011
0000
,
2000
0000
0000
0000
3010
0000
0100
0000
0001
0000
1000
0001
1000
0000
0010
0000
,
2002
0000
0000
3003
,
1000
0011
0100
1001
,
0110
0000
1000
0001
0100
0000
1010
0000
,
2000
0000
0000
0000
3001
0000
0100
0000
0010
0000
0100
0001
0100
0000
0010
0000
,
1000
1000
0001
0001
2002
0000
3003
0000
,
1100
1100
0011
0011
,
0101
0000
0100
0010
1000
0000
1001
0000
,
0020
0000
0000
0000
1030
0000
0100
0000
0010
0000
0001
0100
0001
0000
1000
0000
,
2002
0000
0000
0000
,
3003
0000
0000
0000
;

//---------------dance-single - ----------------
#NOTES:
     dance-single:
     :
     Medium:
     6:
     0.447,0.528,0.151,0.566,0.020:
0000
0000
0000
0000
,
0000
0000
0000
0000
,
0000
0000
0000
0000
,
0000
0000
0000
0000
,
0000
0000
0000
0000
,
1000
0000
0000
0000
0100
0000
0000
0000
0010
0000
0000
0000
0001
0000
0000
0001
,
0000
0001
0100
0000
0010
0000
1000
0000
,
0100
0000
0000
0100
0000
0000
0100
0000
0010
0000
0000
0000
0001
0000
0000
0000
,
0100
0000
0000
0000
0010
0000
0000
0010
0000
0000
0010
0000
1000
0000
0000
0000
,
0001
0000
0000
0000
0100
0000
0000
0000
1000
0000
0000
1000
0000
0000
1000
0000
,
0002
1000
2003
0010
,
3020
0100
0230
0001
,
0301
0001
0000
0101
0000
1000
0000
1100
,
0000
0100
0000
0110
0000
0010
0000
0011
,
0002
2003
3020
0230
,
0302
0023
0230
2300
,
3200
0320
0032
0203
,
0320
2030
0002
3003
,
1000
1000
0001
0001
,
0100
0000
0001
0010
0001
0000
1000
0000
,
0001
0000
0100
0010
1000
0000
0001
0000
,
0010
0100
0010
0100
0020
0000
0000
0000
,
0031
0001
0100
0100
,
0010
0000
0010
1000
0100
0000
0100
0000
,
1000
0000
0001
0100
0010
0000
1000
0000
,
2002
0000
0000
3003
,
1000
1000
0001
0001
,
0010
0000
0010
0001
0100
0000
0100
0000
,
0001
0000
1000
0100
0010
0000
0001
0000
,
1000
0100
1000
0100
2000
0000
0000
0000
,
3001
0001
0100
0100
,
0010
0000
0010
1000
0100
0000
0100
0000
,
0001
0000
0001
0100
0010
0000
1000
0000
,
2002
0000
0000
3003
,
1000
1000
1000
1000
,
1000
1000
1000
1000
,
0001
0001
0001
0001
,
0001
0001
0001
0001
,
0100
0100
0010
0010
,
1000
0001
2002
3003
,
1000
1000
0100
0100
,
0010
0001
0022
0033
,
0001
0001
0010
0010
,
0100
1000
2200
3300
,
1000
1000
0001
0001
,
0100
0000
0000
0000
0010
0000
0000
0000
1000
0000
0000
1000
0000
0000
1000
0000
,
0002
0100
0203
0010
,
0320
1000
2030
0100
,
3100
0010
0000
0001
0000
0100
0000
0010
,
0000
1000
0000
0100
0000
0010
0000
0001
,
0000
1000
0000
1010
0000
0010
0000
0110
,
0000
0100
0000
0101
0000
0001
0000
1001
,
0000
1000
0000
0011
0000
0100
0000
1010
,
0000
0001
0000
0110
0000
1000
0000
0101
,
0002
0203
0320
2030
,
3200
0320
0032
0203
,
0320
2030
3200
0302
,
0203
2300
0002
3000
,
0203
0320
2030
3200
,
0320
0032
0023
0230
,
2300
3020
0230
0302
,
2003
0000
3002
0000
0200
0000
0000
0303
,
1000
0100
0010
0001
,
1000
0000
0001
0010
0001
0000
0100
0000
,
0010
0000
1000
0100
0010
0000
0001
0000
,
1000
0001
1000
0001
2000
0000
0000
0000
,
3001
0100
0010
1000
,
0100
0000
0010
0001
0010
0000
0100
0000
,
1000
0000
0001
0100
0010
0000
1000
0000
,
2002
0000
0000
3003
,
1000
0010
0100
0001
,
0010
0000
1000
0010
0001
0000
0100
0000
,
0010
0000
1000
0100
0001
0000
0100
0000
,
1000
0010
1000
0010
2000
0000
0000
0000
,
3001
0100
0010
1000
,
0001
0000
0100
1000
0100
0000
0001
0000
,
0100
0000
0010
1000
0100
0010
0001
1000
,
2002
0000
0000
0000
,
3003
0000
0000
0000
;

//---------------dance-single - ----------------
#NOTES:
     dance-single:
     :
     Easy:
     4:
     0.394,0.559,0.438,0.677,0.000:
0000
0000
0000
0000
,
0000
0000
0000
0000
,
0000
0000
0000
0000
,
0000
0000
0000
0000
,
0000
0000
0000
0000
,
1000
0000
0000
0100
,
0010
0001
0000
0000
,
0100
0010
1000
0000
,
0000
0001
0100
0010
,
0000
0000
1000
0100
,
2000
0000
3020
0000
,
0230
0000
0302
0000
,
1003
1000
0010
0010
,
0100
0100
0001
0001
,
1000
1000
1000
1000
,
0010
0010
0010
0010
,
0100
0100
0100
0100
,
0001
0001
0002
0003
,
2200
3300
0202
0303
,
0022
0033
2020
3030
,
1000
0010
0100
0001
,
1000
0001
1001
0000
,
2020
3030
0022
0033
,
0220
0330
2002
3003
,
1000
0100
0010
0001
,
2002
0000
0000
3003
,
2200
3300
0220
0330
,
0022
0033
2002
3003
,
1000
0010
0100
0001
,
1000
0001
1001
0000
,
0202
0303
2002
3003
,
2200
3300
0220
0330
,
0001
0100
0010
1000
,
2002
0000
0000
3003
,
1000
0000
1000
0000
,
0001
0000
0001
0000
,
0100
0000
0100
0000
,
0010
0000
0010
0000
,
1000
0000
0100
0000
,
0001
0100
0020
0000
,
1030
0000
0010
0000
,
0100
0001
2000
0000
,
3001
0000
0010
0000
,
0100
1000
0020
0000
,
0130
0000
0001
0000
,
1000
0001
0100
0100
,
0200
0000
0302
0000
,
2003
0000
3020
0000
,
1030
1000
0100
0100
,
0010
0010
0001
0001
,
0100
0100
0010
0010
,
1000
1000
0001
0001
,
0010
0010
0100
0100
,
1000
1000
0001
0001
,
1000
1000
1000
1000
,
0010
0010
0010
0010
,
0100
0100
0100
0100
,
0001
0001
0002
0003
,
1100
1100
1100
1100
,
0011
0011
0011
0011
,
0101
0101
0101
0101
,
1010
1010
1010
0000
,
2200
3300
0022
0033
,
0202
0303
2020
3030
,
1000
0100
0010
0001
,
0100
0010
1001
0000
,
2200
3300
0022
0033
,
0202
0303
2020
3030
,
1000
0100
0001
0010
,
2002
0000
0000
3003
,
0220
0330
2002
3003
,
2200
3300
0202
0303
,
0001
0100
1000
0010
,
0001
1000
1001
0000
,
0220
0330
2002
3003
,
0022
0033
2020
3030
,
1000
0010
0001
0100
,
2002
0000
0000
0000
,
3003
0000
0000
0000
;

//---------------dance-single - ----------------
#NOTES:
     dance-single:
     :
     Beginner:
     2:
     0.203,0.249,0.072,0.000,0.000:
0000
0000
0000
0000
,
0000
0000
0000
0000
,
0000
0000
0000
0000
,
0000
0000
0000
0000
,
0000
0000
0000
0000
,
1000
0000
0000
0001
,
0000
0001
0000
0000
,
0100
0000
0100
0000
,
0000
0010
0000
0010
,
0000
0000
1000
0000
,
1000
0000
1000
0000
,
0100
0000
0100
0000
,
0010
0010
0010
0000
,
0001
0001
0001
0000
,
0100
0100
0100
0100
,
0100
0100
0100
0000
,
0010
0010
0010
0010
,
0010
0010
0010
0000
,
1000
0000
1000
0000
,
0010
0000
0010
0000
,
0100
0000
0100
0000
,
0001
0001
0001
0000
,
1000
0000
1000
0000
,
0001
0000
0001
0000
,
0100
0000
0100
0000
,
1001
0000
0000
0000
,
0001
0000
0001
0000
,
0100
0000
0100
0000
,
0010
0000
0010
0000
,
1000
1000
1000
0000
,
0001
0000
0100
0000
,
0010
0000
1000
0000
,
0001
0000
1000
0000
,
1001
0000
0000
0000
,
1000
0000
0000
0000
,
1000
0000
0000
0000
,
0001
0000
0000
0000
,
0001
0000
0000
0000
,
0100
0000
0010
0000
,
1000
0000
1001
0000
,
0001
0000
0100
0000
,
0010
0000
0110
0000
,
1000
0000
0001
0000
,
1000
0000
1001
0000
,
0100
0000
0010
0000
,
0100
0000
0110
0000
,
1000
0000
1000
0000
,
0100
0000
0100
0000
,
0001
0001
0001
0000
,
1000
1000
1000
0000
,
0010
0000
0010
0000
,
0100
0000
0100
0000
,
0010
0010
0010
0000
,
0100
0100
0100
0000
,
0001
0001
0001
0001
,
0001
0001
0001
0000
,
1000
1000
1000
1000
,
1000
1000
1000
0000
,
0010
0010
0010
0010
,
0010
0010
0010
0000
,
0100
0100
0100
0100
,
0100
0100
0100
0000
,
1000
0000
0100
0000
,
0010
0010
0010
0000
,
0001
0000
1000
0000
,
0010
0010
0010
0000
,
1000
0000
0100
0000
,
0010
0010
0010
0000
,
0001
0000
0100
0000
,
1001
0000
0000
0000
,
1000
0000
0100
0000
,
0001
0001
0001
0000
,
1000
0000
0010
0000
,
0100
0100
0100
0000
,
0001
0000
0010
0000
,
1000
1000
1000
0000
,
0010
0000
0100
0000
,
1001
0000
0000
0000
,
1001
0000
0000
0000
;
